  0
SECTION
  2
HEADER
  9
$ACADVER
  1
AC1032
  9
$ACADMAINTVER
 90
      174
  9
$DWGCODEPAGE
  3
ANSI_932
  9
$LASTSAVEDBY
  1
kikaku01
  9
$REQUIREDVERSIONS
160
                 0
  9
$INSBASE
 10
0.0
 20
0.0
 30
0.0
  9
$EXTMIN
 10
0.0
 20
-0.000000000001819
 30
0.0
  9
$EXTMAX
 10
6075.0
 20
4230.0
 30
0.0
  9
$LIMMIN
 10
0.0
 20
0.0
  9
$LIMMAX
 10
420.0
 20
297.0
  9
$ORTHOMODE
 70
     1
  9
$REGENMODE
 70
     1
  9
$FILLMODE
 70
     1
  9
$QTEXTMODE
 70
     0
  9
$MIRRTEXT
 70
     0
  9
$LTSCALE
 40
1.0
  9
$ATTMODE
 70
     1
  9
$TEXTSIZE
 40
10.0
  9
$TRACEWID
 40
1.0
  9
$TEXTSTYLE
  7
NS横文字
  9
$CLAYER
  8
0
  9
$CELTYPE
  6
ByLayer
  9
$CECOLOR
 62
   256
  9
$CELTSCALE
 40
1.0
  9
$DISPSILH
 70
     0
  9
$DIMSCALE
 40
1.0
  9
$DIMASZ
 40
10.0
  9
$DIMEXO
 40
2.0
  9
$DIMDLI
 40
3.75
  9
$DIMRND
 40
0.0
  9
$DIMDLE
 40
0.0
  9
$DIMEXE
 40
1.25
  9
$DIMTP
 40
0.0
  9
$DIMTM
 40
0.0
  9
$DIMTXT
 40
20.0
  9
$DIMCEN
 40
2.5
  9
$DIMTSZ
 40
0.0
  9
$DIMTOL
 70
     0
  9
$DIMLIM
 70
     0
  9
$DIMTIH
 70
     0
  9
$DIMTOH
 70
     0
  9
$DIMSE1
 70
     0
  9
$DIMSE2
 70
     0
  9
$DIMTAD
 70
     1
  9
$DIMZIN
 70
     8
  9
$DIMBLK
  1
Open
  9
$DIMASO
 70
     1
  9
$DIMSHO
 70
     1
  9
$DIMPOST
  1

  9
$DIMAPOST
  1

  9
$DIMALT
 70
     0
  9
$DIMALTD
 70
     3
  9
$DIMALTF
 40
0.03937007874016
  9
$DIMLFAC
 40
1.0
  9
$DIMTOFL
 70
     1
  9
$DIMTVP
 40
0.0
  9
$DIMTIX
 70
     0
  9
$DIMSOXD
 70
     0
  9
$DIMSAH
 70
     0
  9
$DIMBLK1
  1

  9
$DIMBLK2
  1

  9
$DIMSTYLE
  2
NS寸法
  9
$DIMCLRD
 70
     0
  9
$DIMCLRE
 70
     0
  9
$DIMCLRT
 70
     0
  9
$DIMTFAC
 40
1.0
  9
$DIMGAP
 40
1.0
  9
$DIMJUST
 70
     0
  9
$DIMSD1
 70
     0
  9
$DIMSD2
 70
     0
  9
$DIMTOLJ
 70
     0
  9
$DIMTZIN
 70
     8
  9
$DIMALTZ
 70
     0
  9
$DIMALTTZ
 70
     0
  9
$DIMUPT
 70
     0
  9
$DIMDEC
 70
     2
  9
$DIMTDEC
 70
     2
  9
$DIMALTU
 70
     2
  9
$DIMALTTD
 70
     3
  9
$DIMTXSTY
  7
Standard
  9
$DIMAUNIT
 70
     0
  9
$DIMADEC
 70
     0
  9
$DIMALTRND
 40
0.0
  9
$DIMAZIN
 70
     0
  9
$DIMDSEP
 70
    44
  9
$DIMATFIT
 70
     3
  9
$DIMFRAC
 70
     0
  9
$DIMLDRBLK
  1

  9
$DIMLUNIT
 70
     2
  9
$DIMLWD
 70
    -2
  9
$DIMLWE
 70
    -2
  9
$DIMTMOVE
 70
     0
  9
$DIMFXL
 40
1.0
  9
$DIMFXLON
 70
     0
  9
$DIMJOGANG
 40
0.7853981633974483
  9
$DIMTFILL
 70
     0
  9
$DIMTFILLCLR
 70
     0
  9
$DIMARCSYM
 70
     0
  9
$DIMLTYPE
  6

  9
$DIMLTEX1
  6

  9
$DIMLTEX2
  6

  9
$DIMTXTDIRECTION
 70
     0
  9
$LUNITS
 70
     2
  9
$LUPREC
 70
     4
  9
$SKETCHINC
 40
1.0
  9
$FILLETRAD
 40
0.0
  9
$AUNITS
 70
     0
  9
$AUPREC
 70
     0
  9
$MENU
  1
.
  9
$ELEVATION
 40
0.0
  9
$PELEVATION
 40
0.0
  9
$THICKNESS
 40
0.0
  9
$LIMCHECK
 70
     0
  9
$CHAMFERA
 40
0.0
  9
$CHAMFERB
 40
0.0
  9
$CHAMFERC
 40
0.0
  9
$CHAMFERD
 40
0.0
  9
$SKPOLY
 70
     0
  9
$TDCREATE
 40
2459239.520729167
  9
$TDUCREATE
 40
2459239.145729167
  9
$TDUPDATE
 40
2459249.715706019
  9
$TDUUPDATE
 40
2459249.340706019
  9
$TDINDWG
 40
0.0095949074
  9
$TDUSRTIMER
 40
0.0095949074
  9
$USRTIMER
 70
     1
  9
$ANGBASE
 50
0.0
  9
$ANGDIR
 70
     0
  9
$PDMODE
 70
     0
  9
$PDSIZE
 40
0.0
  9
$PLINEWID
 40
0.0
  9
$SPLFRAME
 70
     0
  9
$SPLINETYPE
 70
     6
  9
$SPLINESEGS
 70
     8
  9
$HANDSEED
  5
7CD9
  9
$SURFTAB1
 70
     6
  9
$SURFTAB2
 70
     6
  9
$SURFTYPE
 70
     6
  9
$SURFU
 70
     6
  9
$SURFV
 70
     6
  9
$UCSBASE
  2

  9
$UCSNAME
  2

  9
$UCSORG
 10
0.0
 20
0.0
 30
0.0
  9
$UCSXDIR
 10
1.0
 20
0.0
 30
0.0
  9
$UCSYDIR
 10
0.0
 20
1.0
 30
0.0
  9
$UCSORTHOREF
  2

  9
$UCSORTHOVIEW
 70
     0
  9
$UCSORGTOP
 10
0.0
 20
0.0
 30
0.0
  9
$UCSORGBOTTOM
 10
0.0
 20
0.0
 30
0.0
  9
$UCSORGLEFT
 10
0.0
 20
0.0
 30
0.0
  9
$UCSORGRIGHT
 10
0.0
 20
0.0
 30
0.0
  9
$UCSORGFRONT
 10
0.0
 20
0.0
 30
0.0
  9
$UCSORGBACK
 10
0.0
 20
0.0
 30
0.0
  9
$PUCSBASE
  2

  9
$PUCSNAME
  2

  9
$PUCSORG
 10
0.0
 20
0.0
 30
0.0
  9
$PUCSXDIR
 10
1.0
 20
0.0
 30
0.0
  9
$PUCSYDIR
 10
0.0
 20
1.0
 30
0.0
  9
$PUCSORTHOREF
  2

  9
$PUCSORTHOVIEW
 70
     0
  9
$PUCSORGTOP
 10
0.0
 20
0.0
 30
0.0
  9
$PUCSORGBOTTOM
 10
0.0
 20
0.0
 30
0.0
  9
$PUCSORGLEFT
 10
0.0
 20
0.0
 30
0.0
  9
$PUCSORGRIGHT
 10
0.0
 20
0.0
 30
0.0
  9
$PUCSORGFRONT
 10
0.0
 20
0.0
 30
0.0
  9
$PUCSORGBACK
 10
0.0
 20
0.0
 30
0.0
  9
$USERI1
 70
     0
  9
$USERI2
 70
     0
  9
$USERI3
 70
     0
  9
$USERI4
 70
     0
  9
$USERI5
 70
     0
  9
$USERR1
 40
0.0
  9
$USERR2
 40
0.0
  9
$USERR3
 40
0.0
  9
$USERR4
 40
0.0
  9
$USERR5
 40
0.0
  9
$WORLDVIEW
 70
     1
  9
$SHADEDGE
 70
     3
  9
$SHADEDIF
 70
    70
  9
$TILEMODE
 70
     1
  9
$MAXACTVP
 70
    64
  9
$PINSBASE
 10
0.0
 20
0.0
 30
0.0
  9
$PLIMCHECK
 70
     0
  9
$PEXTMIN
 10
-0.0181266115766903
 20
-0.0128167960643282
 30
-0.0000000349181948
  9
$PEXTMAX
 10
297.0181293776892
 20
210.0128187519015
 30
0.0000000814935746
  9
$PLIMMIN
 10
0.0
 20
0.0
  9
$PLIMMAX
 10
297.0
 20
210.0
  9
$UNITMODE
 70
     0
  9
$VISRETAIN
 70
     1
  9
$PLINEGEN
 70
     0
  9
$PSLTSCALE
 70
     1
  9
$TREEDEPTH
 70
  3020
  9
$CMLSTYLE
  2
Standard
  9
$CMLJUST
 70
     0
  9
$CMLSCALE
 40
20.0
  9
$PROXYGRAPHICS
 70
     1
  9
$MEASUREMENT
 70
     1
  9
$CELWEIGHT
370
    -1
  9
$ENDCAPS
280
     0
  9
$JOINSTYLE
280
     0
  9
$LWDISPLAY
290
     0
  9
$INSUNITS
 70
     4
  9
$HYPERLINKBASE
  1

  9
$STYLESHEET
  1

  9
$XEDIT
290
     1
  9
$CEPSNTYPE
380
     0
  9
$PSTYLEMODE
290
     1
  9
$FINGERPRINTGUID
  2
{209DC5D5-328F-6B4A-B73A-C7CDF7123B89}
  9
$VERSIONGUID
  2
{9D51A1AF-0E48-4E4D-AE49-770B178BEDD5}
  9
$EXTNAMES
290
     1
  9
$PSVPSCALE
 40
0.0
  9
$OLESTARTUP
290
     0
  9
$SORTENTS
280
   127
  9
$INDEXCTL
280
     0
  9
$HIDETEXT
280
     1
  9
$XCLIPFRAME
280
     2
  9
$HALOGAP
280
     0
  9
$OBSCOLOR
 70
   257
  9
$OBSLTYPE
280
     0
  9
$INTERSECTIONDISPLAY
280
     0
  9
$INTERSECTIONCOLOR
 70
   257
  9
$DIMASSOC
280
     2
  9
$PROJECTNAME
  1

  9
$CAMERADISPLAY
290
     0
  9
$LENSLENGTH
 40
50.0
  9
$CAMERAHEIGHT
 40
0.0
  9
$STEPSPERSEC
 40
2.0
  9
$STEPSIZE
 40
6.0
  9
$3DDWFPREC
 40
2.0
  9
$PSOLWIDTH
 40
5.0
  9
$PSOLHEIGHT
 40
80.0
  9
$LOFTANG1
 40
1.570796326794896
  9
$LOFTANG2
 40
1.570796326794896
  9
$LOFTMAG1
 40
0.0
  9
$LOFTMAG2
 40
0.0
  9
$LOFTPARAM
 70
     7
  9
$LOFTNORMALS
280
     1
  9
$LATITUDE
 40
37.795
  9
$LONGITUDE
 40
-122.394
  9
$NORTHDIRECTION
 40
0.0
  9
$TIMEZONE
 70
 -8000
  9
$LIGHTGLYPHDISPLAY
280
     1
  9
$TILEMODELIGHTSYNCH
280
     1
  9
$CMATERIAL
347
EC
  9
$SOLIDHIST
280
     0
  9
$SHOWHIST
280
     1
  9
$DWFFRAME
280
     2
  9
$DGNFRAME
280
     0
  9
$REALWORLDSCALE
290
     1
  9
$INTERFERECOLOR
 62
     1
  9
$INTERFEREOBJVS
345
F9
  9
$INTERFEREVPVS
346
F6
  9
$CSHADOW
280
     0
  9
$SHADOWPLANELOCATION
 40
0.0
  0
ENDSEC
  0
SECTION
  2
CLASSES
  0
CLASS
  1
ACDBDICTIONARYWDFLT
  2
AcDbDictionaryWithDefault
  3
ObjectDBX Classes
 90
        0
 91
        1
280
     0
281
     0
  0
CLASS
  1
DICTIONARYVAR
  2
AcDbDictionaryVar
  3
ObjectDBX Classes
 90
        0
 91
       22
280
     0
281
     0
  0
CLASS
  1
TABLESTYLE
  2
AcDbTableStyle
  3
ObjectDBX Classes
 90
     4095
 91
        1
280
     0
281
     0
  0
CLASS
  1
MATERIAL
  2
AcDbMaterial
  3
ObjectDBX Classes
 90
     1153
 91
        3
280
     0
281
     0
  0
CLASS
  1
VISUALSTYLE
  2
AcDbVisualStyle
  3
ObjectDBX Classes
 90
     4095
 91
       24
280
     0
281
     0
  0
CLASS
  1
SCALE
  2
AcDbScale
  3
ObjectDBX Classes
 90
     1153
 91
       17
280
     0
281
     0
  0
CLASS
  1
MLEADERSTYLE
  2
AcDbMLeaderStyle
  3
ACDB_MLEADERSTYLE_CLASS
 90
     4095
 91
        5
280
     0
281
     0
  0
CLASS
  1
CELLSTYLEMAP
  2
AcDbCellStyleMap
  3
ObjectDBX Classes
 90
     1152
 91
        1
280
     0
281
     0
  0
CLASS
  1
EXACXREFPANELOBJECT
  2
ExAcXREFPanelObject
  3
EXAC_ESW
 90
     1025
 91
        0
280
     0
281
     0
  0
CLASS
  1
NPOCOLLECTION
  2
AcDbImpNonPersistentObjectsCollection
  3
ObjectDBX Classes
 90
     1153
 91
        0
280
     0
281
     0
  0
CLASS
  1
LAYER_INDEX
  2
AcDbLayerIndex
  3
ObjectDBX Classes
 90
        0
 91
        0
280
     0
281
     0
  0
CLASS
  1
SPATIAL_INDEX
  2
AcDbSpatialIndex
  3
ObjectDBX Classes
 90
        0
 91
        0
280
     0
281
     0
  0
CLASS
  1
IDBUFFER
  2
AcDbIdBuffer
  3
ObjectDBX Classes
 90
        0
 91
        0
280
     0
281
     0
  0
CLASS
  1
ACDBSECTIONVIEWSTYLE
  2
AcDbSectionViewStyle
  3
ObjectDBX Classes
 90
     1025
 91
        2
280
     0
281
     0
  0
CLASS
  1
ACDBDETAILVIEWSTYLE
  2
AcDbDetailViewStyle
  3
ObjectDBX Classes
 90
     1025
 91
        2
280
     0
281
     0
  0
CLASS
  1
SORTENTSTABLE
  2
AcDbSortentsTable
  3
ObjectDBX Classes
 90
        0
 91
        1
280
     0
281
     0
  0
CLASS
  1
ACDB_MTEXTOBJECTCONTEXTDATA_CLASS
  2
AcDbMTextObjectContextData
  3
ObjectDBX Classes
 90
     1153
 91
        7
280
     0
281
     0
  0
CLASS
  1
ACDB_TEXTOBJECTCONTEXTDATA_CLASS
  2
AcDbTextObjectContextData
  3
ObjectDBX Classes
 90
     1153
 91
       11
280
     0
281
     0
  0
CLASS
  1
DIMASSOC
  2
AcDbDimAssoc
  3
"AcDbDimAssoc|Product Desc:     AcDim ARX App For Dimension|Company:          Autodesk, Inc.|WEB Address:      www.autodesk.com"
 90
        0
 91
        0
280
     0
281
     0
  0
CLASS
  1
MULTILEADER
  2
AcDbMLeader
  3
ACDB_MLEADER_CLASS
 90
     1025
 91
        0
280
     0
281
     1
  0
CLASS
  1
ACDB_ALDIMOBJECTCONTEXTDATA_CLASS
  2
AcDbAlignedDimensionObjectContextData
  3
ObjectDBX Classes
 90
     1153
 91
        7
280
     0
281
     0
  0
CLASS
  1
ACDB_LEADEROBJECTCONTEXTDATA_CLASS
  2
AcDbLeaderObjectContextData
  3
ObjectDBX Classes
 90
     1153
 91
        0
280
     0
281
     0
  0
CLASS
  1
ACDB_MLEADEROBJECTCONTEXTDATA_CLASS
  2
AcDbMLeaderObjectContextData
  3
ObjectDBX Classes
 90
     1153
 91
        0
280
     0
281
     0
  0
CLASS
  1
ACDB_HATCHVIEWCONTEXTDATA_CLASS
  2
AcDbHatchViewContextData
  3
ObjectDBX Classes
 90
     1153
 91
        0
280
     0
281
     0
  0
CLASS
  1
ACDB_HATCHSCALECONTEXTDATA_CLASS
  2
AcDbHatchScaleContextData
  3
ObjectDBX Classes
 90
     1153
 91
        0
280
     0
281
     0
  0
CLASS
  1
ACAD_EVALUATION_GRAPH
  2
AcDbEvalGraph
  3
ObjectDBX Classes
 90
     1153
 91
        0
280
     0
281
     0
  0
CLASS
  1
ACAECUSTOBJ
  2
AcAeEditorObj
  3
AcAeEditorObj
 90
     1024
 91
        0
280
     0
281
     0
  0
CLASS
  1
PLOTSETTINGS
  2
AcDbPlotSettings
  3
ObjectDBX Classes
 90
        0
 91
        2
280
     0
281
     0
  0
ENDSEC
  0
SECTION
  2
TABLES
  0
TABLE
  2
VPORT
  5
8
330
0
100
AcDbSymbolTable
 70
     1
  0
VPORT
  5
EA
330
8
100
AcDbSymbolTableRecord
100
AcDbViewportTableRecord
  2
*Active
 70
     0
 10
0.0
 20
0.0
 11
1.0
 21
1.0
 12
3037.500042435971
 22
2194.549458552032
 13
0.0
 23
0.0
 14
10.0
 24
10.0
 15
10.0
 25
10.0
 16
0.0
 26
0.0
 36
1.0
 17
0.0
 27
0.0
 37
0.0
 40
4262.949309634975
 41
1.613899613899613
 42
50.0
 43
0.0
 44
0.0
 50
0.0
 51
0.0
 71
     0
 72
  1000
 73
     1
 74
     3
 75
     0
 76
     0
 77
     0
 78
     0
281
     0
 65
     1
110
0.0
120
0.0
130
0.0
111
1.0
121
0.0
131
0.0
112
0.0
122
1.0
132
0.0
 79
     0
146
0.0
348
F5
 60
     3
 61
     5
292
     1
282
     1
141
0.0
142
0.0
 63
   250
421
  3355443
1001
ACAD_NAV_VCDISPLAY
1070
     3
  0
ENDTAB
  0
TABLE
  2
LTYPE
  5
5
330
0
100
AcDbSymbolTable
 70
     9
  0
LTYPE
  5
14
330
5
100
AcDbSymbolTableRecord
100
AcDbLinetypeTableRecord
  2
ByBlock
 70
     0
  3

 72
    65
 73
     0
 40
0.0
  0
LTYPE
  5
15
330
5
100
AcDbSymbolTableRecord
100
AcDbLinetypeTableRecord
  2
ByLayer
 70
     0
  3

 72
    65
 73
     0
 40
0.0
  0
LTYPE
  5
16
330
5
100
AcDbSymbolTableRecord
100
AcDbLinetypeTableRecord
  2
Continuous
 70
     0
  3
Solid line
 72
    65
 73
     0
 40
0.0
  0
LTYPE
  5
2C4
330
5
100
AcDbSymbolTableRecord
100
AcDbLinetypeTableRecord
  2
ACAD_ISO10W100
 70
     0
  3
ISO dash dot __ . __ . __ . __ . __ . __ . __ .
 72
    65
 73
     4
 40
18.0
 49
12.0
 74
     0
 49
-3.0
 74
     0
 49
0.0
 74
     0
 49
-3.0
 74
     0
  0
LTYPE
  5
456
330
5
100
AcDbSymbolTableRecord
100
AcDbLinetypeTableRecord
  2
ACAD_ISO02W100
 70
     0
  3
ISO dash __ __ __ __ __ __ __ __ __ __ __ __ __
 72
    65
 73
     2
 40
15.0
 49
12.0
 74
     0
 49
-3.0
 74
     0
  0
LTYPE
  5
457
330
5
100
AcDbSymbolTableRecord
100
AcDbLinetypeTableRecord
  2
ACAD_ISO03W100
 70
     0
  3
ISO dash space __    __    __    __    __    __
 72
    65
 73
     2
 40
30.0
 49
12.0
 74
     0
 49
-18.0
 74
     0
  0
LTYPE
  5
4057
330
5
100
AcDbSymbolTableRecord
100
AcDbLinetypeTableRecord
  2
DASHED1
 70
     0
  3
--  --  --  --  --  --  --  --  
 72
    65
 73
     2
 40
2.5
 49
1.25
 74
     0
 49
-1.25
 74
     0
  0
LTYPE
  5
4058
330
5
100
AcDbSymbolTableRecord
100
AcDbLinetypeTableRecord
  2
DASHED2
 70
     0
  3
----    ----    ----    ----    
 72
    65
 73
     2
 40
5.0
 49
2.5
 74
     0
 49
-2.5
 74
     0
  0
LTYPE
  5
4059
330
5
100
AcDbSymbolTableRecord
100
AcDbLinetypeTableRecord
  2
DASHED3
 70
     0
  3
------  ------  ------  ------  
 72
    65
 73
     2
 40
5.0
 49
3.75
 74
     0
 49
-1.25
 74
     0
  0
LTYPE
  5
405A
330
5
100
AcDbSymbolTableRecord
100
AcDbLinetypeTableRecord
  2
CENTER1
 70
     0
  3
----- - ----- - ----- - ----- - 
 72
    65
 73
     4
 40
10.0
 49
6.25
 74
     0
 49
-1.25
 74
     0
 49
1.25
 74
     0
 49
-1.25
 74
     0
  0
LTYPE
  5
405B
330
5
100
AcDbSymbolTableRecord
100
AcDbLinetypeTableRecord
  2
PHANTOM1
 70
     0
  3
--- - - --- - - --- - - --- - - 
 72
    65
 73
     6
 40
10.0
 49
3.25
 74
     0
 49
-1.25
 74
     0
 49
1.25
 74
     0
 49
-1.25
 74
     0
 49
1.25
 74
     0
 49
-1.25
 74
     0
  0
ENDTAB
  0
TABLE
  2
LAYER
  5
2
102
{ACAD_XDICTIONARY
360
1FF
102
}
330
0
100
AcDbSymbolTable
 70
    11
  0
LAYER
  5
10
102
{ACAD_XDICTIONARY
360
13C
102
}
330
2
100
AcDbSymbolTableRecord
100
AcDbLayerTableRecord
  2
0
 70
     0
 62
     7
  6
Continuous
370
    -3
390
F
347
EE
348
0
  0
LAYER
  5
458
330
2
100
AcDbSymbolTableRecord
100
AcDbLayerTableRecord
  2
Defpoints
 70
     0
 62
     7
  6
Continuous
290
     0
370
    -3
390
F
347
EE
348
0
  0
LAYER
  5
459
102
{ACAD_XDICTIONARY
360
45A
102
}
330
2
100
AcDbSymbolTableRecord
100
AcDbLayerTableRecord
  2
躯体
 70
     0
 62
     2
  6
Continuous
370
    -3
390
F
347
EE
348
0
  0
LAYER
  5
45B
102
{ACAD_XDICTIONARY
360
45C
102
}
330
2
100
AcDbSymbolTableRecord
100
AcDbLayerTableRecord
  2
防水層
 70
     0
 62
     4
  6
Continuous
370
    -3
390
F
347
EE
348
0
  0
LAYER
  5
45D
102
{ACAD_XDICTIONARY
360
45E
102
}
330
2
100
AcDbSymbolTableRecord
100
AcDbLayerTableRecord
  2
文字
 70
     0
 62
     8
  6
Continuous
370
    -3
390
F
347
EE
348
0
  0
LAYER
  5
45F
102
{ACAD_XDICTIONARY
360
460
102
}
330
2
100
AcDbSymbolTableRecord
100
AcDbLayerTableRecord
  2
寸法
 70
     0
 62
     8
  6
Continuous
370
    -3
390
F
347
EE
348
0
1001
AcAecLayerStandard
1000

1000

  0
LAYER
  5
1854
102
{ACAD_XDICTIONARY
360
1855
102
}
330
2
100
AcDbSymbolTableRecord
100
AcDbLayerTableRecord
  2
断熱層
 70
     0
 62
     5
  6
Continuous
370
    -3
390
F
347
EE
348
0
1001
AcAecLayerStandard
1000

1000

  0
LAYER
  5
31BC
330
2
100
AcDbSymbolTableRecord
100
AcDbLayerTableRecord
  2
枠
 70
     0
 62
     7
  6
Continuous
370
    -3
390
F
347
EE
348
0
1001
AcAecLayerStandard
1000

1000

  0
LAYER
  5
405C
102
{ACAD_XDICTIONARY
360
405D
102
}
330
2
100
AcDbSymbolTableRecord
100
AcDbLayerTableRecord
  2
金物
 70
     0
 62
    51
  6
Continuous
370
    -3
390
F
347
EE
348
0
1001
AcAecLayerStandard
1000

1000

  0
LAYER
  5
405E
330
2
100
AcDbSymbolTableRecord
100
AcDbLayerTableRecord
  2
ﾊｯﾁ
 70
     0
 62
     8
  6
Continuous
370
    -3
390
F
347
EE
348
0
1001
AcAecLayerStandard
1000

1000

  0
LAYER
  5
7163
330
2
100
AcDbSymbolTableRecord
100
AcDbLayerTableRecord
  2
ﾃﾞｨｽｸ板
 70
     0
 62
     3
  6
Continuous
370
    -3
390
F
347
EE
348
0
1001
AcAecLayerStandard
1000

1000

1001
AcCmTransparency
1071
        0
  0
ENDTAB
  0
TABLE
  2
STYLE
  5
3
330
0
100
AcDbSymbolTable
 70
    10
  0
STYLE
  5
11
330
3
100
AcDbSymbolTableRecord
100
AcDbTextStyleTableRecord
  2
Standard
 70
     0
 40
0.0
 41
1.0
 50
0.0
 71
     0
 42
2.5
  3
arial.ttf
  4

1001
ACAD
1000
Arial
1071
       34
  0
STYLE
  5
132
330
3
100
AcDbSymbolTableRecord
100
AcDbTextStyleTableRecord
  2
Annotative
 70
     0
 40
0.0
 41
1.0
 50
0.0
 71
     0
 42
2.5
  3
arial.ttf
  4

1001
AcadAnnotative
1000
AnnotativeData
1002
{
1070
     1
1070
     1
1002
}
1001
ACAD
1000
Arial
1071
       34
  0
STYLE
  5
298
330
3
100
AcDbSymbolTableRecord
100
AcDbTextStyleTableRecord
  2
NS横文字
 70
     0
 40
0.0
 41
1.0
 50
0.0
 71
     0
 42
10.0
  3

  4

1001
AcadAnnotative
1000
AnnotativeData
1002
{
1070
     1
1070
     1
1002
}
1001
ACAD
1000
MS Gothic
1071
    32817
  0
STYLE
  5
29B
330
3
100
AcDbSymbolTableRecord
100
AcDbTextStyleTableRecord
  2
NS縦文字
 70
     0
 40
0.0
 41
1.0
 50
0.0
 71
     0
 42
2.5
  3

  4

1001
AcadAnnotative
1000
AnnotativeData
1002
{
1070
     1
1070
     1
1002
}
1001
ACAD
1000
@MS Gothic
1071
    32817
  0
STYLE
  5
2C3
330
3
100
AcDbSymbolTableRecord
100
AcDbTextStyleTableRecord
  2

 70
     1
 40
0.0
 41
1.0
 50
0.0
 71
     0
 42
2.5
  3
ltypeshp.shx
  4

  0
STYLE
  5
479
330
3
100
AcDbSymbolTableRecord
100
AcDbTextStyleTableRecord
  2
ﾃﾞｨﾃｰﾙ
 70
     0
 40
0.0
 41
1.0
 50
0.0
 71
     0
 42
0.2
  3
txt.shx
  4
extfont.shx
  0
STYLE
  5
47A
330
3
100
AcDbSymbolTableRecord
100
AcDbTextStyleTableRecord
  2
ディテール
 70
     0
 40
20.0
 41
1.0
 50
0.0
 71
     0
 42
2.5
  3
txt.shx
  4
extfont2.shx
  0
STYLE
  5
31BF
330
3
100
AcDbSymbolTableRecord
100
AcDbTextStyleTableRecord
  2
ﾃﾞｨﾃｰﾙ(ｼﾝｸﾞﾙ)
 70
     0
 40
0.0
 41
1.0
 50
0.0
 71
     0
 42
10.0
  3
txt.shx
  4
extfont.shx
  0
STYLE
  5
31C0
330
3
100
AcDbSymbolTableRecord
100
AcDbTextStyleTableRecord
  2
スタイル2
 70
     0
 40
150.0
 41
1.0
 50
0.0
 71
     0
 42
150.0
  3
swissk.ttf
  4

1001
ACAD
1000
Swis721 Blk BT
1071
       34
  0
ENDTAB
  0
TABLE
  2
VIEW
  5
6
330
0
100
AcDbSymbolTable
 70
     2
  0
ENDTAB
  0
TABLE
  2
UCS
  5
7
330
0
100
AcDbSymbolTable
 70
     0
  0
ENDTAB
  0
TABLE
  2
APPID
  5
9
330
0
100
AcDbSymbolTable
 70
    18
  0
APPID
  5
12
330
9
100
AcDbSymbolTableRecord
100
AcDbRegAppTableRecord
  2
ACAD
 70
     0
  0
APPID
  5
9E
330
9
100
AcDbSymbolTableRecord
100
AcDbRegAppTableRecord
  2
ACAD_PSEXT
 70
     0
  0
APPID
  5
133
330
9
100
AcDbSymbolTableRecord
100
AcDbRegAppTableRecord
  2
AcadAnnoPO
 70
     0
  0
APPID
  5
134
330
9
100
AcDbSymbolTableRecord
100
AcDbRegAppTableRecord
  2
AcadAnnotative
 70
     0
  0
APPID
  5
135
330
9
100
AcDbSymbolTableRecord
100
AcDbRegAppTableRecord
  2
ACAD_DSTYLE_DIMJAG
 70
     0
  0
APPID
  5
136
330
9
100
AcDbSymbolTableRecord
100
AcDbRegAppTableRecord
  2
ACAD_DSTYLE_DIMTALN
 70
     0
  0
APPID
  5
165
330
9
100
AcDbSymbolTableRecord
100
AcDbRegAppTableRecord
  2
ACAD_MLEADERVER
 70
     0
  0
APPID
  5
217
330
9
100
AcDbSymbolTableRecord
100
AcDbRegAppTableRecord
  2
ACAD_NAV_VCDISPLAY
 70
     0
  0
APPID
  5
29E
330
9
100
AcDbSymbolTableRecord
100
AcDbRegAppTableRecord
  2
ACAD_DSTYLE_DIMBREAK
 70
     0
  0
APPID
  5
2C0
330
9
100
AcDbSymbolTableRecord
100
AcDbRegAppTableRecord
  2
AcAecLayerStandard
 70
     0
  0
APPID
  5
2C1
330
9
100
AcDbSymbolTableRecord
100
AcDbRegAppTableRecord
  2
AcCmTransparency
 70
     0
  0
APPID
  5
2C5
330
9
100
AcDbSymbolTableRecord
100
AcDbRegAppTableRecord
  2
ACAD_EXEMPT_FROM_CAD_STANDARDS
 70
     0
  0
APPID
  5
47E
330
9
100
AcDbSymbolTableRecord
100
AcDbRegAppTableRecord
  2
ACAD_DSTYLE_DIMJOGGED_JOGANGLE_SYMBOL
 70
     0
  0
APPID
  5
47F
330
9
100
AcDbSymbolTableRecord
100
AcDbRegAppTableRecord
  2
GradientColor1ACI
 70
     0
  0
APPID
  5
480
330
9
100
AcDbSymbolTableRecord
100
AcDbRegAppTableRecord
  2
GradientColor2ACI
 70
     0
  0
APPID
  5
DB3
330
9
100
AcDbSymbolTableRecord
100
AcDbRegAppTableRecord
  2
ACAD_DSTYLE_DIMRADIAL_EXTENSION
 70
     0
  0
APPID
  5
1D60
330
9
100
AcDbSymbolTableRecord
100
AcDbRegAppTableRecord
  2
AcLayerTools
 70
     0
  0
APPID
  5
2C5F
330
9
100
AcDbSymbolTableRecord
100
AcDbRegAppTableRecord
  2
ACAUTHENVIRON
 70
     0
  0
ENDTAB
  0
TABLE
  2
DIMSTYLE
  5
A
330
0
100
AcDbSymbolTable
 70
     9
100
AcDbDimStyleTable
 71
     4
340
2A5
340
47C
340
27
340
137
  0
DIMSTYLE
105
1B0
330
A
100
AcDbSymbolTableRecord
100
AcDbDimStyleTableRecord
  2
Standard
 70
     0
340
11
  0
DIMSTYLE
105
137
330
A
100
AcDbSymbolTableRecord
100
AcDbDimStyleTableRecord
  2
Annotative
 70
     0
 40
0.0
 41
2.5
 42
0.625
 43
3.75
 44
1.25
 73
     0
 74
     0
 77
     1
 78
     8
140
2.5
141
2.5
143
0.03937007874016
147
0.625
171
     3
172
     1
271
     2
272
     2
274
     3
278
    44
283
     0
284
     8
340
11
1001
AcadAnnotative
1000
AnnotativeData
1002
{
1070
     1
1070
     1
1002
}
1001
ACAD_DSTYLE_DIMJAG
1070
   388
1040
1.5
1001
ACAD_DSTYLE_DIMTALN
1070
   392
1070
     0
  0
DIMSTYLE
105
27
330
A
100
AcDbSymbolTableRecord
100
AcDbDimStyleTableRecord
  2
ISO-25
 70
     0
 41
2.5
 42
0.625
 43
3.75
 44
1.25
 73
     0
 74
     0
 77
     1
 78
     8
140
2.5
141
2.5
143
0.03937007874016
147
0.625
171
     3
172
     1
271
     2
272
     2
274
     3
278
    44
283
     0
284
     8
340
11
  0
DIMSTYLE
105
2A5
102
{ACAD_REACTORS
330
7741
330
7746
330
774B
330
7750
330
7755
330
7762
330
7767
102
}
330
A
100
AcDbSymbolTableRecord
100
AcDbDimStyleTableRecord
  2
NS寸法
 70
     0
 41
10.0
 42
2.0
 43
3.75
 44
1.25
 73
     0
 74
     0
 77
     1
 78
     8
140
20.0
141
2.5
143
0.03937007874016
147
1.0
171
     3
172
     1
271
     2
272
     2
274
     3
278
    44
283
     0
284
     8
340
11
342
29F
1001
ACAD_DSTYLE_DIMBREAK
1070
   391
1040
3.75
1001
AcadAnnotative
1000
AnnotativeData
1002
{
1070
     1
1070
     1
1002
}
1001
ACAD_DSTYLE_DIMJAG
1070
   388
1040
1.5
1001
ACAD_DSTYLE_DIMTALN
1070
   392
1070
     0
  0
DIMSTYLE
105
47B
330
A
100
AcDbSymbolTableRecord
100
AcDbDimStyleTableRecord
  2
ﾃﾞｨﾃｰﾙ
 70
     0
 41
5.0
 42
20.0
 43
20.0
 44
0.0
 49
0.18
 50
90.0
 73
     0
 74
     0
 77
     1
 78
     8
 79
     2
140
20.0
141
0.0
147
5.0
172
     1
174
     1
279
     2
340
479
341
3AA
1001
ACAD_DSTYLE_DIMJAG
1070
   388
1040
1.5
1001
ACAD_DSTYLE_DIMTALN
1070
   392
1070
     0
1001
ACAD_DSTYLE_DIMJOGGED_JOGANGLE_SYMBOL
1070
   384
1040
1.570796326794896
  0
DIMSTYLE
105
47C
330
A
100
AcDbSymbolTableRecord
100
AcDbDimStyleTableRecord
  2
ﾃﾞｨﾃｰﾙ（角）
 70
     0
 41
2.0
 42
30.0
 43
20.0
 44
0.0
 49
0.18
 50
90.0
 73
     0
 74
     0
 77
     1
 78
     8
 79
     2
140
10.0
141
0.0
147
1.0
172
     1
174
     1
279
     2
340
11
342
3AA
1001
ACAD_DSTYLE_DIMJOGGED_JOGANGLE_SYMBOL
1070
   384
1040
1.570796326794896
  0
DIMSTYLE
105
47D
330
A
100
AcDbSymbolTableRecord
100
AcDbDimStyleTableRecord
  2
ﾃﾞｨﾃｰﾙ2
 70
     0
 41
5.0
 42
10.0
 43
10.0
 44
0.0
 49
0.18
 50
90.0
 73
     0
 74
     0
 77
     1
 78
     8
 79
     2
140
20.0
141
0.0
147
5.0
172
     1
174
     1
279
     2
340
479
341
453
1001
ACAD_DSTYLE_DIMBREAK
1070
   391
1040
0.125
1001
ACAD_DSTYLE_DIMJAG
1070
   388
1040
1.5
1001
ACAD_DSTYLE_DIMTALN
1070
   392
1070
     0
1001
ACAD_DSTYLE_DIMJOGGED_JOGANGLE_SYMBOL
1070
   384
1040
1.570796326794896
  0
DIMSTYLE
105
31C1
330
A
100
AcDbSymbolTableRecord
100
AcDbDimStyleTableRecord
  2
ﾃﾞｨﾃｰﾙ（ｼﾝｸﾞﾙ）
 70
     0
 40
0.5
 41
5.0
 42
20.0
 43
20.0
 44
0.0
 49
0.18
 50
90.0
 73
     0
 74
     0
 77
     1
 78
     8
 79
     2
140
20.0
141
0.0
147
5.0
172
     1
174
     1
279
     2
340
31BF
1001
ACAD_DSTYLE_DIMJOGGED_JOGANGLE_SYMBOL
1070
   384
1040
1.570796326794896
  0
ENDTAB
  0
TABLE
  2
BLOCK_RECORD
  5
1
330
0
100
AcDbSymbolTable
 70
    12
  0
BLOCK_RECORD
  5
1F
102
{ACAD_XDICTIONARY
360
1CE
102
}
330
1
100
AcDbSymbolTableRecord
100
AcDbBlockTableRecord
  2
*Model_Space
340
22
 70
     0
280
     1
281
     0
  0
BLOCK_RECORD
  5
349F
330
1
100
AcDbSymbolTableRecord
100
AcDbBlockTableRecord
  2
*Paper_Space
340
34A0
 70
     0
280
     1
281
     0
  0
BLOCK_RECORD
  5
29F
330
1
100
AcDbSymbolTableRecord
100
AcDbBlockTableRecord
  2
_Open
340
0
102
{BLKREFS
331
7C78
331
7C80
331
7C81
331
7C89
331
7C8A
331
7C92
331
7C93
331
7C9B
331
7C9C
331
7CA4
331
7CA5
331
7C6E
331
7C6F
331
7C77
102
}
 70
     0
280
     1
281
     0
  0
BLOCK_RECORD
  5
3AA
330
1
100
AcDbSymbolTableRecord
100
AcDbBlockTableRecord
  2
_Dot
340
0
 70
     0
280
     1
281
     0
  0
BLOCK_RECORD
  5
453
330
1
100
AcDbSymbolTableRecord
100
AcDbBlockTableRecord
  2
_None
340
0
 70
     0
280
     1
281
     0
  0
BLOCK_RECORD
  5
3FD4
330
1
100
AcDbSymbolTableRecord
100
AcDbBlockTableRecord
  2
*Paper_Space3
340
3FD5
 70
     0
280
     1
281
     0
  0
BLOCK_RECORD
  5
77C3
330
1
100
AcDbSymbolTableRecord
100
AcDbBlockTableRecord
  2
*D4
340
0
 70
     0
280
     1
281
     0
  0
BLOCK_RECORD
  5
77CF
330
1
100
AcDbSymbolTableRecord
100
AcDbBlockTableRecord
  2
*D5
340
0
 70
     0
280
     1
281
     0
  0
BLOCK_RECORD
  5
77DB
330
1
100
AcDbSymbolTableRecord
100
AcDbBlockTableRecord
  2
*D6
340
0
 70
     0
280
     1
281
     0
  0
BLOCK_RECORD
  5
77E7
330
1
100
AcDbSymbolTableRecord
100
AcDbBlockTableRecord
  2
*D7
340
0
 70
     0
280
     1
281
     0
  0
BLOCK_RECORD
  5
77F3
330
1
100
AcDbSymbolTableRecord
100
AcDbBlockTableRecord
  2
*D8
340
0
 70
     0
280
     1
281
     0
  0
BLOCK_RECORD
  5
780B
330
1
100
AcDbSymbolTableRecord
100
AcDbBlockTableRecord
  2
*D9
340
0
 70
     0
280
     1
281
     0
  0
BLOCK_RECORD
  5
7817
330
1
100
AcDbSymbolTableRecord
100
AcDbBlockTableRecord
  2
*D10
340
0
 70
     0
280
     1
281
     0
  0
ENDTAB
  0
ENDSEC
  0
SECTION
  2
BLOCKS
  0
BLOCK
  5
20
330
1F
100
AcDbEntity
  8
0
100
AcDbBlockBegin
  2
*Model_Space
 70
     0
 10
0.0
 20
0.0
 30
0.0
  3
*Model_Space
  1

  0
ENDBLK
  5
21
330
1F
100
AcDbEntity
  8
0
100
AcDbBlockEnd
  0
BLOCK
  5
34A1
330
349F
100
AcDbEntity
 67
     1
  8
0
100
AcDbBlockBegin
  2
*Paper_Space
 70
     0
 10
0.0
 20
0.0
 30
0.0
  3
*Paper_Space
  1

  0
ENDBLK
  5
34A2
330
349F
100
AcDbEntity
 67
     1
  8
0
100
AcDbBlockEnd
  0
BLOCK
  5
2A3
330
29F
100
AcDbEntity
  8
0
100
AcDbBlockBegin
  2
_Open
 70
     0
 10
0.0
 20
0.0
 30
0.0
  3
_Open
  1

  0
LINE
  5
2A0
330
29F
100
AcDbEntity
  8
0
  6
ByBlock
 62
     0
370
    -2
100
AcDbLine
 10
-1.0
 20
0.1666666666666666
 30
0.0
 11
0.0
 21
0.0
 31
0.0
  0
LINE
  5
2A1
330
29F
100
AcDbEntity
  8
0
  6
ByBlock
 62
     0
370
    -2
100
AcDbLine
 10
-1.0
 20
-0.1666666666666666
 30
0.0
 11
0.0
 21
0.0
 31
0.0
  0
LINE
  5
2A2
330
29F
100
AcDbEntity
  8
0
  6
ByBlock
 62
     0
370
    -2
100
AcDbLine
 10
0.0
 20
0.0
 30
0.0
 11
-1.0
 21
0.0
 31
0.0
  0
ENDBLK
  5
2A4
330
29F
100
AcDbEntity
  8
0
100
AcDbBlockEnd
  0
BLOCK
  5
3AB
330
3AA
100
AcDbEntity
  8
0
100
AcDbBlockBegin
  2
_Dot
 70
     0
 10
0.0
 20
0.0
 30
0.0
  3
_Dot
  1

  0
LWPOLYLINE
  5
3AC
330
3AA
100
AcDbEntity
  8
0
  6
ByBlock
 62
     0
100
AcDbPolyline
 90
        2
 70
     1
 43
0.5
 10
-0.25
 20
0.0
 42
1.0
 10
0.25
 20
0.0
 42
1.0
  0
LINE
  5
3AD
330
3AA
100
AcDbEntity
  8
0
  6
ByBlock
 62
     0
370
    -2
100
AcDbLine
 10
-0.5
 20
0.0
 30
0.0
 11
-1.0
 21
0.0
 31
0.0
  0
ENDBLK
  5
3AE
330
3AA
100
AcDbEntity
  8
0
100
AcDbBlockEnd
  0
BLOCK
  5
454
330
453
100
AcDbEntity
  8
0
 62
     1
100
AcDbBlockBegin
  2
_None
 70
     0
 10
0.0
 20
0.0
 30
0.0
  3
_None
  1

  0
ENDBLK
  5
455
330
453
100
AcDbEntity
  8
0
 62
     1
100
AcDbBlockEnd
  0
BLOCK
  5
3FD6
330
3FD4
100
AcDbEntity
 67
     1
  8
0
100
AcDbBlockBegin
  2
*Paper_Space3
 70
     0
 10
0.0
 20
0.0
 30
0.0
  3
*Paper_Space3
  1

  0
VIEWPORT
  5
3FE2
102
{ACAD_XDICTIONARY
360
3FE3
102
}
330
3FD4
100
AcDbEntity
 67
     1
  8
0
100
AcDbViewport
 10
105.0028812669753
 20
148.500000691507
 30
0.0
 40
828.0170675023994
 41
299.597156044392
 68
     0
 69
     0
 12
105.0028812669753
 22
148.500000691507
 13
0.0
 23
0.0
 14
10.0
 24
10.0
 15
10.0
 25
10.0
 16
0.0
 26
0.0
 36
1.0
 17
0.0
 27
0.0
 37
0.0
 42
50.0
 43
0.0
 44
0.0
 45
299.597156044392
 50
0.0
 51
0.0
 72
  1000
 90
   557088
  1

281
     0
 71
     1
 74
     0
110
0.0
120
0.0
130
0.0
111
1.0
121
0.0
131
0.0
112
0.0
122
1.0
132
0.0
 79
     0
146
0.0
170
     0
 61
     5
348
F5
292
     1
282
     1
141
0.0
142
0.0
 63
   250
421
  3355443
  0
VIEWPORT
  5
4023
102
{ACAD_XDICTIONARY
360
4024
102
}
330
3FD4
100
AcDbEntity
 67
     1
  8
0
100
AcDbViewport
 10
105.0
 20
148.5
 30
0.0
 40
210.0
 41
297.0
 68
     0
 69
     0
 12
375.5330085889872
 22
79.03553390593241
 13
0.0
 23
0.0
 14
10.0
 24
10.0
 15
10.0
 25
10.0
 16
0.0
 26
0.0
 36
1.0
 17
0.0
 27
0.0
 37
0.0
 42
50.0
 43
0.0
 44
0.0
 45
2.837157155526824
 50
0.0
 51
0.0
 72
  1000
 90
   819296
  1

281
     0
 71
     1
 74
     0
110
0.0
120
0.0
130
0.0
111
1.0
121
0.0
131
0.0
112
0.0
122
1.0
132
0.0
 79
     0
146
0.0
170
     0
 61
     5
348
F5
292
     1
282
     1
141
0.0
142
0.0
 63
   250
421
  3355443
  0
ENDBLK
  5
3FD7
330
3FD4
100
AcDbEntity
 67
     1
  8
0
100
AcDbBlockEnd
  0
BLOCK
  5
77C4
330
77C3
100
AcDbEntity
  8
0
100
AcDbBlockBegin
  2
*D4
 70
     1
 10
0.0
 20
0.0
 30
0.0
  3
*D4
  1

  0
LINE
  5
7CA1
330
77C3
100
AcDbEntity
  8
寸法
 62
     0
440
 16777216
370
    -2
100
AcDbLine
 10
474.3345850154057
 20
3638.27843340934
 30
0.0
 11
374.7597958743557
 21
3638.27843340934
 31
0.0
  0
LINE
  5
7CA2
330
77C3
100
AcDbEntity
  8
寸法
 62
     0
440
 16777216
370
    -2
100
AcDbLine
 10
483.1444811411294
 20
3338.338333409341
 30
0.0
 11
374.7597958743558
 21
3338.338333409341
 31
0.0
  0
LINE
  5
7CA3
330
77C3
100
AcDbEntity
  8
寸法
 62
     0
440
 16777216
370
    -2
100
AcDbLine
 10
376.0097958743557
 20
3628.278433409341
 30
0.0
 11
376.0097958743557
 21
3348.338333409341
 31
0.0
  0
INSERT
  5
7CA4
330
77C3
100
AcDbEntity
  8
寸法
 62
     0
440
 16777216
370
    -2
100
AcDbBlockReference
  2
_Open
 10
376.0097958743557
 20
3638.27843340934
 30
0.0
 41
10.0
 42
10.0
 43
10.0
 50
90.0
  0
INSERT
  5
7CA5
330
77C3
100
AcDbEntity
  8
寸法
 62
     0
440
 16777216
370
    -2
100
AcDbBlockReference
  2
_Open
 10
376.0097958743557
 20
3338.338333409341
 30
0.0
 41
10.0
 42
10.0
 43
10.0
 50
270.0
  0
MTEXT
  5
7CA6
330
77C3
100
AcDbEntity
  8
寸法
 62
     0
440
 16777216
370
     0
100
AcDbMText
 10
364.7915148375217
 20
3488.30838340934
 30
0.0
 40
20.0
 41
0.0
 46
0.0
 71
     5
 72
     1
  1
300
 11
0.0000000000000001
 21
1.0
 31
0.0
 73
     1
 44
1.0
  0
POINT
  5
7CA7
330
77C3
100
AcDbEntity
  8
Defpoints
 62
     0
440
 16777216
100
AcDbPoint
 10
476.3345850154057
 20
3638.27843340934
 30
0.0
  0
POINT
  5
7CA8
330
77C3
100
AcDbEntity
  8
Defpoints
 62
     0
440
 16777216
100
AcDbPoint
 10
485.1444811411295
 20
3338.338333409341
 30
0.0
  0
POINT
  5
7CA9
330
77C3
100
AcDbEntity
  8
Defpoints
 62
     0
440
 16777216
100
AcDbPoint
 10
376.0097958743557
 20
3338.338333409341
 30
0.0
  0
ENDBLK
  5
77C5
330
77C3
100
AcDbEntity
  8
0
100
AcDbBlockEnd
  0
BLOCK
  5
77D0
330
77CF
100
AcDbEntity
  8
0
100
AcDbBlockBegin
  2
*D5
 70
     1
 10
0.0
 20
0.0
 30
0.0
  3
*D5
  1

  0
LINE
  5
7C98
330
77CF
100
AcDbEntity
  8
寸法
 62
     0
440
 16777216
370
    -2
100
AcDbLine
 10
858.1223205604533
 20
3809.861033409343
 30
0.0
 11
931.0693553634333
 21
3809.861033409343
 31
0.0
  0
LINE
  5
7C99
330
77CF
100
AcDbEntity
  8
寸法
 62
     0
440
 16777216
370
    -2
100
AcDbLine
 10
858.0836205604541
 20
3638.338333409342
 30
0.0
 11
931.0693553634333
 21
3638.338333409342
 31
0.0
  0
LINE
  5
7C9A
330
77CF
100
AcDbEntity
  8
寸法
 62
     0
440
 16777216
370
    -2
100
AcDbLine
 10
929.8193553634332
 20
3799.861033409343
 30
0.0
 11
929.8193553634332
 21
3648.338333409343
 31
0.0
  0
INSERT
  5
7C9B
330
77CF
100
AcDbEntity
  8
寸法
 62
     0
440
 16777216
370
    -2
100
AcDbBlockReference
  2
_Open
 10
929.8193553634332
 20
3809.861033409343
 30
0.0
 41
10.0
 42
10.0
 43
10.0
 50
90.0
  0
INSERT
  5
7C9C
330
77CF
100
AcDbEntity
  8
寸法
 62
     0
440
 16777216
370
    -2
100
AcDbBlockReference
  2
_Open
 10
929.8193553634332
 20
3638.338333409342
 30
0.0
 41
10.0
 42
10.0
 43
10.0
 50
270.0
  0
MTEXT
  5
7C9D
330
77CF
100
AcDbEntity
  8
寸法
 62
     0
440
 16777216
370
     0
100
AcDbMText
 10
918.6078956090002
 20
3724.099683409342
 30
0.0
 40
20.0
 41
0.0
 46
0.0
 71
     5
 72
     1
  1
170
 11
0.0000000000000001
 21
1.0
 31
0.0
 73
     1
 44
1.0
  0
POINT
  5
7C9E
330
77CF
100
AcDbEntity
  8
Defpoints
 62
     0
440
 16777216
100
AcDbPoint
 10
856.1223205604532
 20
3809.861033409343
 30
0.0
  0
POINT
  5
7C9F
330
77CF
100
AcDbEntity
  8
Defpoints
 62
     0
440
 16777216
100
AcDbPoint
 10
856.0836205604541
 20
3638.338333409342
 30
0.0
  0
POINT
  5
7CA0
330
77CF
100
AcDbEntity
  8
Defpoints
 62
     0
440
 16777216
100
AcDbPoint
 10
929.8193553634332
 20
3638.338333409342
 30
0.0
  0
ENDBLK
  5
77D1
330
77CF
100
AcDbEntity
  8
0
100
AcDbBlockEnd
  0
BLOCK
  5
77DC
330
77DB
100
AcDbEntity
  8
0
100
AcDbBlockBegin
  2
*D6
 70
     1
 10
0.0
 20
0.0
 30
0.0
  3
*D6
  1

  0
LINE
  5
7C8F
330
77DB
100
AcDbEntity
  8
寸法
 62
     0
440
 16777216
370
    -2
100
AcDbLine
 10
504.0978857574773
 20
3919.88698489992
 30
0.0
 11
504.0978857574773
 21
4040.4356363905
 31
0.0
  0
LINE
  5
7C90
330
77DB
100
AcDbEntity
  8
寸法
 62
     0
440
 16777216
370
    -2
100
AcDbLine
 10
794.0978857574773
 20
3919.88698489992
 30
0.0
 11
794.0978857574773
 21
4040.4356363905
 31
0.0
  0
LINE
  5
7C91
330
77DB
100
AcDbEntity
  8
寸法
 62
     0
440
 16777216
370
    -2
100
AcDbLine
 10
514.0978857574773
 20
4039.1856363905
 30
0.0
 11
784.0978857574773
 21
4039.1856363905
 31
0.0
  0
INSERT
  5
7C92
330
77DB
100
AcDbEntity
  8
寸法
 62
     0
440
 16777216
370
    -2
100
AcDbBlockReference
  2
_Open
 10
504.0978857574773
 20
4039.1856363905
 30
0.0
 41
10.0
 42
10.0
 43
10.0
 50
180.0
  0
INSERT
  5
7C93
330
77DB
100
AcDbEntity
  8
寸法
 62
     0
440
 16777216
370
    -2
100
AcDbBlockReference
  2
_Open
 10
794.0978857574773
 20
4039.1856363905
 30
0.0
 41
10.0
 42
10.0
 43
10.0
  0
MTEXT
  5
7C94
330
77DB
100
AcDbEntity
  8
寸法
 62
     0
440
 16777216
370
     0
100
AcDbMText
 10
649.0978857574773
 20
4050.397096144934
 30
0.0
 40
20.0
 41
0.0
 46
0.0
 71
     5
 72
     1
  1
290
 73
     1
 44
1.0
  0
POINT
  5
7C95
330
77DB
100
AcDbEntity
  8
Defpoints
 62
     0
440
 16777216
100
AcDbPoint
 10
504.0978857574773
 20
3917.88698489992
 30
0.0
  0
POINT
  5
7C96
330
77DB
100
AcDbEntity
  8
Defpoints
 62
     0
440
 16777216
100
AcDbPoint
 10
794.0978857574773
 20
3917.88698489992
 30
0.0
  0
POINT
  5
7C97
330
77DB
100
AcDbEntity
  8
Defpoints
 62
     0
440
 16777216
100
AcDbPoint
 10
794.0978857574773
 20
4039.1856363905
 30
0.0
  0
ENDBLK
  5
77DD
330
77DB
100
AcDbEntity
  8
0
100
AcDbBlockEnd
  0
BLOCK
  5
77E8
330
77E7
100
AcDbEntity
  8
0
100
AcDbBlockBegin
  2
*D7
 70
     1
 10
0.0
 20
0.0
 30
0.0
  3
*D7
  1

  0
LINE
  5
7C86
330
77E7
100
AcDbEntity
  8
寸法
 62
     0
440
 16777216
370
    -2
100
AcDbLine
 10
794.0978857574773
 20
3977.464672695773
 30
0.0
 11
794.0978857574773
 21
4003.342322359692
 31
0.0
  0
LINE
  5
7C87
330
77E7
100
AcDbEntity
  8
寸法
 62
     0
440
 16777216
370
    -2
100
AcDbLine
 10
704.0291857574775
 20
4004.092322359692
 30
0.0
 11
704.0291857574775
 21
4003.342322359692
 31
0.0
  0
LINE
  5
7C88
330
77E7
100
AcDbEntity
  8
寸法
 62
     0
440
 16777216
370
    -2
100
AcDbLine
 10
784.0978857574773
 20
4002.092322359692
 30
0.0
 11
714.0291857574775
 21
4002.092322359692
 31
0.0
  0
INSERT
  5
7C89
330
77E7
100
AcDbEntity
  8
寸法
 62
     0
440
 16777216
370
    -2
100
AcDbBlockReference
  2
_Open
 10
794.0978857574773
 20
4002.092322359692
 30
0.0
 41
10.0
 42
10.0
 43
10.0
  0
INSERT
  5
7C8A
330
77E7
100
AcDbEntity
  8
寸法
 62
     0
440
 16777216
370
    -2
100
AcDbBlockReference
  2
_Open
 10
704.0291857574775
 20
4002.092322359692
 30
0.0
 41
10.0
 42
10.0
 43
10.0
 50
180.0
  0
MTEXT
  5
7C8B
330
77E7
100
AcDbEntity
  8
寸法
 62
     0
440
 16777216
370
     0
100
AcDbMText
 10
749.0635357574774
 20
4013.303782114126
 30
0.0
 40
20.0
 41
0.0
 46
0.0
 71
     5
 72
     1
  1
90
 73
     1
 44
1.0
  0
POINT
  5
7C8C
330
77E7
100
AcDbEntity
  8
Defpoints
 62
     0
440
 16777216
100
AcDbPoint
 10
794.0978857574773
 20
3975.464672695773
 30
0.0
  0
POINT
  5
7C8D
330
77E7
100
AcDbEntity
  8
Defpoints
 62
     0
440
 16777216
100
AcDbPoint
 10
704.0291857574775
 20
4002.092322359692
 30
0.0
  0
POINT
  5
7C8E
330
77E7
100
AcDbEntity
  8
Defpoints
 62
     0
440
 16777216
100
AcDbPoint
 10
704.0291857574775
 20
4002.092322359692
 30
0.0
  0
ENDBLK
  5
77E9
330
77E7
100
AcDbEntity
  8
0
100
AcDbBlockEnd
  0
BLOCK
  5
77F4
330
77F3
100
AcDbEntity
  8
0
100
AcDbBlockBegin
  2
*D8
 70
     1
 10
0.0
 20
0.0
 30
0.0
  3
*D8
  1

  0
LINE
  5
7C7D
330
77F3
100
AcDbEntity
  8
寸法
 62
     0
440
 16777216
370
    -2
100
AcDbLine
 10
2479.433480879332
 20
3985.683999507261
 30
0.0
 11
2479.433480879332
 21
4043.585388554456
 31
0.0
  0
LINE
  5
7C7E
330
77F3
100
AcDbEntity
  8
寸法
 62
     0
440
 16777216
370
    -2
100
AcDbLine
 10
2709.364780879332
 20
3985.683999507261
 30
0.0
 11
2709.364780879332
 21
4043.585388554456
 31
0.0
  0
LINE
  5
7C7F
330
77F3
100
AcDbEntity
  8
寸法
 62
     0
440
 16777216
370
    -2
100
AcDbLine
 10
2489.433480879332
 20
4042.335388554455
 30
0.0
 11
2699.364780879332
 21
4042.335388554455
 31
0.0
  0
INSERT
  5
7C80
330
77F3
100
AcDbEntity
  8
寸法
 62
     0
440
 16777216
370
    -2
100
AcDbBlockReference
  2
_Open
 10
2479.433480879332
 20
4042.335388554455
 30
0.0
 41
10.0
 42
10.0
 43
10.0
 50
180.0
  0
INSERT
  5
7C81
330
77F3
100
AcDbEntity
  8
寸法
 62
     0
440
 16777216
370
    -2
100
AcDbBlockReference
  2
_Open
 10
2709.364780879332
 20
4042.335388554455
 30
0.0
 41
10.0
 42
10.0
 43
10.0
  0
MTEXT
  5
7C82
330
77F3
100
AcDbEntity
  8
寸法
 62
     0
440
 16777216
370
     0
100
AcDbMText
 10
2594.399130879332
 20
4053.55366959129
 30
0.0
 40
20.0
 41
0.0
 46
0.0
 71
     5
 72
     1
  1
230
 73
     1
 44
1.0
  0
POINT
  5
7C83
330
77F3
100
AcDbEntity
  8
Defpoints
 62
     0
440
 16777216
100
AcDbPoint
 10
2479.433480879332
 20
3983.683999507262
 30
0.0
  0
POINT
  5
7C84
330
77F3
100
AcDbEntity
  8
Defpoints
 62
     0
440
 16777216
100
AcDbPoint
 10
2709.364780879332
 20
3983.683999507262
 30
0.0
  0
POINT
  5
7C85
330
77F3
100
AcDbEntity
  8
Defpoints
 62
     0
440
 16777216
100
AcDbPoint
 10
2709.364780879332
 20
4042.335388554455
 30
0.0
  0
ENDBLK
  5
77F5
330
77F3
100
AcDbEntity
  8
0
100
AcDbBlockEnd
  0
BLOCK
  5
780C
330
780B
100
AcDbEntity
  8
0
100
AcDbBlockBegin
  2
*D9
 70
     1
 10
0.0
 20
0.0
 30
0.0
  3
*D9
  1

  0
LINE
  5
7C74
330
780B
100
AcDbEntity
  8
寸法
 62
     0
440
 16777216
370
    -2
100
AcDbLine
 10
744.8179257574775
 20
3290.921940301953
 30
0.0
 11
744.8179257574775
 21
3244.608446037709
 31
0.0
  0
LINE
  5
7C75
330
780B
100
AcDbEntity
  8
寸法
 62
     0
440
 16777216
370
    -2
100
AcDbLine
 10
704.8838857574773
 20
3290.495172192499
 30
0.0
 11
704.8838857574773
 21
3244.608446037709
 31
0.0
  0
LINE
  5
7C76
330
780B
100
AcDbEntity
  8
寸法
 62
     0
440
 16777216
370
    -2
100
AcDbLine
 10
734.8179257574774
 20
3245.85844603771
 30
0.0
 11
714.8838857574774
 21
3245.85844603771
 31
0.0
  0
INSERT
  5
7C77
330
780B
100
AcDbEntity
  8
寸法
 62
     0
440
 16777216
370
    -2
100
AcDbBlockReference
  2
_Open
 10
744.8179257574775
 20
3245.85844603771
 30
0.0
 41
10.0
 42
10.0
 43
10.0
  0
INSERT
  5
7C78
330
780B
100
AcDbEntity
  8
寸法
 62
     0
440
 16777216
370
    -2
100
AcDbBlockReference
  2
_Open
 10
704.8838857574773
 20
3245.85844603771
 30
0.0
 41
10.0
 42
10.0
 43
10.0
 50
180.0
  0
MTEXT
  5
7C79
330
780B
100
AcDbEntity
  8
寸法
 62
     0
440
 16777216
370
     0
100
AcDbMText
 10
724.8509057574774
 20
3257.069905792143
 30
0.0
 40
20.0
 41
0.0
 46
0.0
 71
     5
 72
     1
  1
40
 73
     1
 44
1.0
  0
POINT
  5
7C7A
330
780B
100
AcDbEntity
  8
Defpoints
 62
     0
440
 16777216
100
AcDbPoint
 10
744.8179257574775
 20
3292.921940301952
 30
0.0
  0
POINT
  5
7C7B
330
780B
100
AcDbEntity
  8
Defpoints
 62
     0
440
 16777216
100
AcDbPoint
 10
704.8838857574773
 20
3292.495172192499
 30
0.0
  0
POINT
  5
7C7C
330
780B
100
AcDbEntity
  8
Defpoints
 62
     0
440
 16777216
100
AcDbPoint
 10
704.8838857574773
 20
3245.85844603771
 30
0.0
  0
ENDBLK
  5
780D
330
780B
100
AcDbEntity
  8
0
100
AcDbBlockEnd
  0
BLOCK
  5
7818
330
7817
100
AcDbEntity
  8
0
100
AcDbBlockBegin
  2
*D10
 70
     1
 10
0.0
 20
0.0
 30
0.0
  3
*D10
  1

  0
LINE
  5
7C6B
330
7817
100
AcDbEntity
  8
寸法
 62
     0
440
 16777216
370
    -2
100
AcDbLine
 10
2720.153540879332
 20
3314.195333674928
 30
0.0
 11
2720.153540879332
 21
3267.881839410686
 31
0.0
  0
LINE
  5
7C6C
330
7817
100
AcDbEntity
  8
寸法
 62
     0
440
 16777216
370
    -2
100
AcDbLine
 10
2680.219500879332
 20
3313.768565565475
 30
0.0
 11
2680.219500879332
 21
3267.881839410686
 31
0.0
  0
LINE
  5
7C6D
330
7817
100
AcDbEntity
  8
寸法
 62
     0
440
 16777216
370
    -2
100
AcDbLine
 10
2710.153540879332
 20
3269.131839410686
 30
0.0
 11
2690.219500879332
 21
3269.131839410686
 31
0.0
  0
INSERT
  5
7C6E
330
7817
100
AcDbEntity
  8
寸法
 62
     0
440
 16777216
370
    -2
100
AcDbBlockReference
  2
_Open
 10
2720.153540879332
 20
3269.131839410686
 30
0.0
 41
10.0
 42
10.0
 43
10.0
  0
INSERT
  5
7C6F
330
7817
100
AcDbEntity
  8
寸法
 62
     0
440
 16777216
370
    -2
100
AcDbBlockReference
  2
_Open
 10
2680.219500879332
 20
3269.131839410686
 30
0.0
 41
10.0
 42
10.0
 43
10.0
 50
180.0
  0
MTEXT
  5
7C70
330
7817
100
AcDbEntity
  8
寸法
 62
     0
440
 16777216
370
     0
100
AcDbMText
 10
2700.186520879332
 20
3280.34329916512
 30
0.0
 40
20.0
 41
0.0
 46
0.0
 71
     5
 72
     1
  1
40
 73
     1
 44
1.0
  0
POINT
  5
7C71
330
7817
100
AcDbEntity
  8
Defpoints
 62
     0
440
 16777216
100
AcDbPoint
 10
2720.153540879332
 20
3316.195333674929
 30
0.0
  0
POINT
  5
7C72
330
7817
100
AcDbEntity
  8
Defpoints
 62
     0
440
 16777216
100
AcDbPoint
 10
2680.219500879332
 20
3315.768565565476
 30
0.0
  0
POINT
  5
7C73
330
7817
100
AcDbEntity
  8
Defpoints
 62
     0
440
 16777216
100
AcDbPoint
 10
2680.219500879332
 20
3269.131839410686
 30
0.0
  0
ENDBLK
  5
7819
330
7817
100
AcDbEntity
  8
0
100
AcDbBlockEnd
  0
ENDSEC
  0
SECTION
  2
ENTITIES
  0
HATCH
  5
1A98
330
1F
100
AcDbEntity
  8
断熱層
100
AcDbHatch
 10
0.0
 20
0.0
 30
0.0
210
0.0
220
0.0
230
1.0
  2
ANSI37
 70
     0
 71
     0
 91
        1
 92
        1
 93
        2
 72
     1
 10
376.5231293186581
 20
78.04541317626072
 11
374.5428878593162
 21
80.02565463560413
 72
     2
 10
376.9974746830557
 20
80.49999999999995
 40
2.499999999999943
 50
190.9375030835813
 51
259.0624969163791
 73
     1
 97
        0
 75
     0
 76
     1
 52
0.0
 41
5.0
 77
     0
 78
     2
 53
45.0
 43
20739.56311116091
 44
-703.0713436109799
 45
-11.22532015133644
 46
11.22532015133644
 79
     0
 53
135.0
 43
20739.56311116091
 44
-703.0713436109799
 45
-11.22532015133644
 46
-11.22532015133644
 79
     0
 98
        1
 10
794.6319006576632
 20
92.77927700190048
1001
ACAD
1010
0.0
1020
0.0
1030
0.0
  0
LINE
  5
746C
330
1F
100
AcDbEntity
  8
枠
  6
ByBlock
370
     0
100
AcDbLine
 10
5342.245938104533
 20
211.0421835824654
 30
0.0
 11
5342.245938104533
 21
-0.000000000001819
 31
0.0
  0
LINE
  5
746D
330
1F
100
AcDbEntity
  8
枠
  6
ByBlock
370
     0
100
AcDbLine
 10
4668.052109450291
 20
211.0421835824654
 30
0.0
 11
6075.0
 21
211.0421835824654
 31
0.0
  0
LINE
  5
746E
330
1F
100
AcDbEntity
  8
枠
  6
ByBlock
370
     0
100
AcDbLine
 10
6075.0
 20
140.6947890550127
 30
0.0
 11
5342.245938104642
 21
140.6947890550127
 31
0.0
  0
LINE
  5
746F
330
1F
100
AcDbEntity
  8
枠
  6
ByBlock
370
     0
100
AcDbLine
 10
5342.245938104642
 20
70.34739452750546
 30
0.0
 11
6075.0
 21
70.34739452745089
 31
0.0
  0
MTEXT
  5
7470
102
{ACAD_XDICTIONARY
360
7471
102
}
330
1F
100
AcDbEntity
  8
枠
  6
ByBlock
370
     0
100
AcDbMText
 10
4702.353552711866
 20
137.9214042685271
 30
0.0
 40
58.33333333125
 41
866.4242430939792
 46
0.0
 71
     1
 72
     5
  1
{\fMS Gothic|b0|i0|c128|p49;日新工業株式会社}
  7
NS横文字
 73
     1
 44
1.0
1001
ACAD
1000
ACAD_MTEXT_DEFINED_HEIGHT_BEGIN
1070
    46
1040
0.0
1000
ACAD_MTEXT_DEFINED_HEIGHT_END
1001
AcadAnnotative
1000
AnnotativeData
1002
{
1070
     1
1070
     1
1002
}
  0
LINE
  5
7475
330
1F
100
AcDbEntity
  8
枠
  6
ByBlock
370
     0
100
AcDbLine
 10
4668.052109450291
 20
211.0421835824654
 30
0.0
 11
0.0
 21
211.0421835824654
 31
0.0
  0
LINE
  5
7476
330
1F
100
AcDbEntity
  8
枠
  6
ByBlock
370
     0
100
AcDbLine
 10
4668.052109450291
 20
211.0421835824654
 30
0.0
 11
4668.052109450291
 21
-0.000000000001819
 31
0.0
  0
LINE
  5
7477
330
1F
100
AcDbEntity
  8
枠
  6
ByBlock
370
     0
100
AcDbLine
 10
3993.85828079583
 20
-0.000000000001819
 30
0.0
 11
0.0
 21
-0.000000000001819
 31
0.0
  0
LINE
  5
7478
330
1F
100
AcDbEntity
  8
枠
  6
ByBlock
370
     0
100
AcDbLine
 10
4668.052109450182
 20
52.7605506925629
 30
0.0
 11
0.0
 21
52.7605506925629
 31
0.0
  0
LINE
  5
7479
330
1F
100
AcDbEntity
  8
枠
  6
ByBlock
370
     0
100
AcDbLine
 10
4668.052109450182
 20
105.5211013851276
 30
0.0
 11
0.0
 21
105.5211013851276
 31
0.0
  0
LINE
  5
747A
330
1F
100
AcDbEntity
  8
枠
  6
ByBlock
370
     0
100
AcDbLine
 10
4668.052109450182
 20
158.2816520776377
 30
0.0
 11
0.0
 21
158.2816520776923
 31
0.0
  0
LWPOLYLINE
  5
747B
330
1F
100
AcDbEntity
  8
枠
  6
Continuous
370
     0
100
AcDbPolyline
 90
        4
 70
     1
 43
0.0
 10
0.0
 20
0.0
 10
6075.0
 20
0.0
 10
6075.0
 20
4230.0
 10
0.0
 20
4230.0
  0
LINE
  5
747C
330
1F
100
AcDbEntity
  8
枠
  6
Continuous
370
     0
100
AcDbLine
 10
2025.0
 20
211.0421835824654
 30
0.0
 11
2025.0
 21
4229.999999999998
 31
0.0
  0
LINE
  5
747D
330
1F
100
AcDbEntity
  8
枠
  6
Continuous
370
     0
100
AcDbLine
 10
4049.999999999891
 20
211.0421835824654
 30
0.0
 11
4050.0
 21
4229.999999999998
 31
0.0
  0
LINE
  5
747E
330
1F
100
AcDbEntity
  8
枠
  6
Continuous
370
     0
100
AcDbLine
 10
6075.0
 20
2894.999999999998
 30
0.0
 11
0.0
 21
2894.999999999998
 31
0.0
  0
LINE
  5
747F
330
1F
100
AcDbEntity
  8
枠
  6
Continuous
370
     0
100
AcDbLine
 10
6075.0
 20
1559.999999999998
 30
0.0
 11
0.0
 21
1559.999999999998
 31
0.0
  0
LINE
  5
7480
330
1F
100
AcDbEntity
  8
枠
  6
ByBlock
370
     0
100
AcDbLine
 10
6075.0
 20
4159.652605472546
 30
0.0
 11
0.0000000001091394
 21
4159.652605472546
 31
0.0
  0
LINE
  5
7481
330
1F
100
AcDbEntity
  8
枠
  6
ByBlock
370
     0
100
AcDbLine
 10
6075.0
 20
2824.652605472545
 30
0.0
 11
0.0000000001091394
 21
2824.652605472545
 31
0.0
  0
LINE
  5
7482
330
1F
100
AcDbEntity
  8
枠
  6
Continuous
370
     0
100
AcDbLine
 10
6075.0
 20
1489.652605472545
 30
0.0
 11
0.0000000001091394
 21
1489.652605472545
 31
0.0
  0
MTEXT
  5
7483
102
{ACAD_XDICTIONARY
360
7484
102
}
330
1F
100
AcDbEntity
  8
枠
  6
ByBlock
370
     0
100
AcDbMText
 10
1786.364364633628
 20
4213.299391155561
 30
0.0
 40
29.166666665625
 41
238.6356353663725
 46
0.0
 71
     1
 72
     5
  1
５Ｃ－２０１
  7
NS横文字
 73
     1
 44
1.0
1001
ACAD
1000
ACAD_MTEXT_DEFINED_HEIGHT_BEGIN
1070
    46
1040
0.0
1000
ACAD_MTEXT_DEFINED_HEIGHT_END
1001
AcadAnnotative
1000
AnnotativeData
1002
{
1070
     1
1070
     1
1002
}
  0
MTEXT
  5
7488
102
{ACAD_XDICTIONARY
360
7489
102
}
330
1F
100
AcDbEntity
  8
枠
  6
ByBlock
370
     0
100
AcDbMText
 10
3811.364364633628
 20
4213.299391155561
 30
0.0
 40
29.166666665625
 41
238.6356353663725
 46
0.0
 71
     1
 72
     5
  1
５Ｃ－２０２
  7
NS横文字
 73
     1
 44
1.0
1001
ACAD
1000
ACAD_MTEXT_DEFINED_HEIGHT_BEGIN
1070
    46
1040
0.0
1000
ACAD_MTEXT_DEFINED_HEIGHT_END
1001
AcadAnnotative
1000
AnnotativeData
1002
{
1070
     1
1070
     1
1002
}
  0
LINE
  5
7497
330
1F
100
AcDbEntity
  8
金物
  6
Continuous
370
     0
100
AcDbLine
 10
754.3838857574773
 20
3338.886963409339
 30
0.0
 11
754.3838857574773
 21
3339.18724340934
 31
0.0
  0
LINE
  5
7498
330
1F
100
AcDbEntity
  8
文字
  6
Continuous
370
     0
100
AcDbLine
 10
959.7922857574776
 20
3604.190633409339
 30
0.0
 11
1334.544185757477
 21
3604.190633409339
 31
0.0
  0
LINE
  5
7499
330
1F
100
AcDbEntity
  8
文字
  6
Continuous
370
     0
100
AcDbLine
 10
1226.756685757478
 20
3339.431383409339
 30
0.0
 11
1384.198585757478
 21
3536.71496340934
 31
0.0
  0
LINE
  5
749A
330
1F
100
AcDbEntity
  8
文字
  6
Continuous
370
     0
100
AcDbLine
 10
1384.906385757478
 20
3536.71496340934
 30
0.0
 11
1762.723585757478
 21
3536.71496340934
 31
0.0
  0
LINE
  5
749B
330
1F
100
AcDbEntity
  8
躯体
  6
Continuous
370
     0
100
AcDbLine
 10
779.1752857574774
 20
3809.861033409339
 30
0.0
 11
794.0978857574773
 21
3793.338333409339
 31
0.0
  0
LINE
  5
749C
330
1F
100
AcDbEntity
  8
躯体
  6
Continuous
370
     0
100
AcDbLine
 10
794.0978857574773
 20
3653.338333409339
 30
0.0
 11
794.0978857574773
 21
3793.338333409339
 31
0.0
  0
LINE
  5
749D
330
1F
100
AcDbEntity
  8
躯体
  6
Continuous
370
     0
100
AcDbLine
 10
794.0978857574773
 20
3653.338333409339
 30
0.0
 11
779.0978857574773
 21
3638.338333409339
 31
0.0
  0
LINE
  5
749E
330
1F
100
AcDbEntity
  8
躯体
  6
Continuous
370
     0
100
AcDbLine
 10
759.0751857574778
 20
3657.681133409339
 30
0.0
 11
744.0751857574777
 21
3657.681133409339
 31
0.0
  0
LINE
  5
749F
330
1F
100
AcDbEntity
  8
躯体
  6
Continuous
370
     0
100
AcDbLine
 10
779.0978857574773
 20
3638.338333409339
 30
0.0
 11
759.0751857574778
 21
3638.338333409339
 31
0.0
  0
LINE
  5
74A0
330
1F
100
AcDbEntity
  8
躯体
  6
Continuous
370
     0
100
AcDbLine
 10
759.0751857574778
 20
3638.338333409339
 30
0.0
 11
759.0751857574778
 21
3657.681133409339
 31
0.0
  0
LINE
  5
74A1
330
1F
100
AcDbEntity
  8
防水層
  6
Continuous
370
     0
100
AcDbLine
 10
780.1438857574776
 20
3811.772533409339
 30
0.0
 11
796.0978857574773
 21
3794.107733409339
 31
0.0
  0
LINE
  5
74A2
330
1F
100
AcDbEntity
  8
防水層
  6
Continuous
370
     0
100
AcDbLine
 10
796.0978857574773
 20
3652.509833409339
 30
0.0
 11
796.0978857574773
 21
3794.107733409339
 31
0.0
  0
LINE
  5
74A3
330
1F
100
AcDbEntity
  8
防水層
  6
Continuous
370
     0
100
AcDbLine
 10
796.0978857574773
 20
3652.509833409339
 30
0.0
 11
780.5120857574784
 21
3636.924033409338
 31
0.0
  0
LINE
  5
74A4
330
1F
100
AcDbEntity
  8
防水層
  6
Continuous
370
     0
100
AcDbLine
 10
779.0978857574773
 20
3638.338333409339
 30
0.0
 11
780.5120857574784
 21
3636.924033409338
 31
0.0
  0
TEXT
  5
74A5
102
{ACAD_XDICTIONARY
360
74A6
102
}
330
1F
100
AcDbEntity
  8
文字
  6
Continuous
370
     0
100
AcDbText
 10
902.1211857574781
 20
3846.587030693776
 30
0.0
 40
20.0
  1
変性シリコンシーリング１５mm×１０mm
  7
NS横文字
100
AcDbText
1001
AcadAnnotative
1000
AnnotativeData
1002
{
1070
     1
1070
     1
1002
}
  0
LINE
  5
74AA
330
1F
100
AcDbEntity
  8
文字
  6
Continuous
370
     0
100
AcDbLine
 10
896.7531857574776
 20
3835.902733409339
 30
0.0
 11
1269.289785757477
 21
3835.902733409339
 31
0.0
  0
TEXT
  5
74AB
102
{ACAD_XDICTIONARY
360
74AC
102
}
330
1F
100
AcDbEntity
  8
文字
  6
Continuous
370
     0
100
AcDbText
 10
952.7695857574782
 20
3991.380630693776
 30
0.0
 40
20.0
  1
ウレタン塗膜防水
  7
NS横文字
100
AcDbText
1001
AcadAnnotative
1000
AnnotativeData
1002
{
1070
     1
1070
     1
1002
}
  0
LINE
  5
74B0
330
1F
100
AcDbEntity
  8
文字
  6
Continuous
370
     0
100
AcDbLine
 10
952.7695857574782
 20
3980.896533409339
 30
0.0
 11
1206.946285757478
 21
3980.896533409339
 31
0.0
  0
LINE
  5
74B1
330
1F
100
AcDbEntity
  8
ﾊｯﾁ
  6
Continuous
370
     0
100
AcDbLine
 10
1231.368285757479
 20
3338.50199340934
 30
0.0
 11
1051.204585757477
 21
3158.338333409339
 31
0.0
  0
LINE
  5
74B2
330
1F
100
AcDbEntity
  8
ﾊｯﾁ
  6
Continuous
370
     0
100
AcDbLine
 10
1241.974885757478
 20
3338.50199340934
 30
0.0
 11
1061.811185757477
 21
3158.338333409339
 31
0.0
  0
LINE
  5
74B3
330
1F
100
AcDbEntity
  8
ﾊｯﾁ
  6
Continuous
370
     0
100
AcDbLine
 10
877.6511857574769
 20
3338.338333409339
 30
0.0
 11
568.8238857574779
 21
3029.51094340934
 31
0.0
  0
LINE
  5
74B4
330
1F
100
AcDbEntity
  8
ﾊｯﾁ
  6
Continuous
370
     0
100
AcDbLine
 10
888.2577857574778
 20
3338.338333409339
 30
0.0
 11
579.4304957574768
 21
3029.51094340934
 31
0.0
  0
LINE
  5
74B5
330
1F
100
AcDbEntity
  8
ﾊｯﾁ
  6
Continuous
370
     0
100
AcDbLine
 10
898.864385757477
 20
3338.338333409339
 30
0.0
 11
590.0370957574778
 21
3029.51094340934
 31
0.0
  0
LINE
  5
74B6
330
1F
100
AcDbEntity
  8
躯体
  6
Continuous
370
     0
100
AcDbLine
 10
939.6028857574783
 20
3158.338333409339
 30
0.0
 11
939.6028857574783
 21
3029.51094340934
 31
0.0
  0
LINE
  5
74B7
330
1F
100
AcDbEntity
  8
躯体
  6
Continuous
370
     0
100
AcDbLine
 10
744.0751857574777
 20
3657.681133409339
 30
0.0
 11
739.0597857574776
 21
3638.278433409339
 31
0.0
  0
LINE
  5
74B8
330
1F
100
AcDbEntity
  8
金物
  6
DASHED2
370
     0
100
AcDbLine
 10
704.7394857574781
 20
3595.41233340934
 30
0.0
 11
706.1891857574774
 21
3592.09883340934
 31
0.0
  0
LINE
  5
74B9
330
1F
100
AcDbEntity
  8
金物
  6
Continuous
370
     0
100
AcDbLine
 10
717.0291857574775
 20
3623.26753340934
 30
0.0
 11
705.0291857574775
 21
3623.26753340934
 31
0.0
  0
ARC
  5
74BA
330
1F
100
AcDbEntity
  8
ﾊｯﾁ
  6
Continuous
370
     0
100
AcDbCircle
 10
746.2716857574778
 20
3629.328333409339
 30
0.0
 40
30.0
100
AcDbArc
 50
162.6639799999829
 51
191.6553999999882
  0
ARC
  5
74BB
330
1F
100
AcDbEntity
  8
ﾊｯﾁ
  6
Continuous
370
     0
100
AcDbCircle
 10
746.2716857574778
 20
3629.328333409339
 30
0.0
 40
30.0
100
AcDbArc
 50
162.6639799999829
 51
191.6553999999882
  0
LINE
  5
74BC
330
1F
100
AcDbEntity
  8
ﾊｯﾁ
  6
Continuous
370
     0
100
AcDbLine
 10
711.2056857574771
 20
3638.267533409339
 30
0.0
 11
704.0291857574775
 21
3631.091033409339
 31
0.0
  0
LINE
  5
74BD
330
1F
100
AcDbEntity
  8
ﾊｯﾁ
  6
Continuous
370
     0
100
AcDbLine
 10
717.3659857574785
 20
3637.356733409339
 30
0.0
 11
704.0291857574775
 21
3624.019933409339
 31
0.0
  0
LINE
  5
74BE
330
1F
100
AcDbEntity
  8
ﾊｯﾁ
  6
Continuous
370
     0
100
AcDbLine
 10
715.6237857574779
 20
3638.267533409339
 30
0.0
 11
717.1914857574774
 21
3636.699833409339
 31
0.0
  0
LINE
  5
74BF
330
1F
100
AcDbEntity
  8
ﾊｯﾁ
  6
Continuous
370
     0
100
AcDbLine
 10
708.5526857574769
 20
3638.267533409339
 30
0.0
 11
716.2955857574779
 21
3630.524633409339
 31
0.0
  0
LINE
  5
74C0
330
1F
100
AcDbEntity
  8
ﾊｯﾁ
  6
Continuous
370
     0
100
AcDbLine
 10
704.0291857574775
 20
3635.719933409339
 30
0.0
 11
716.4815857574776
 21
3623.26753340934
 31
0.0
  0
LINE
  5
74C1
330
1F
100
AcDbEntity
  8
ﾊｯﾁ
  6
Continuous
370
     0
100
AcDbLine
 10
716.2720857574786
 20
3629.191733409339
 30
0.0
 11
710.347785757478
 21
3623.26753340934
 31
0.0
  0
LINE
  5
74C2
330
1F
100
AcDbEntity
  8
ﾊｯﾁ
  6
Continuous
370
     0
100
AcDbLine
 10
704.0291857574775
 20
3628.64893340934
 30
0.0
 11
709.4105857574777
 21
3623.26753340934
 31
0.0
  0
LINE
  5
74C3
330
1F
100
AcDbEntity
  8
金物
  6
Continuous
370
     0
100
AcDbLine
 10
706.1291857574778
 20
3573.267533409339
 30
0.0
 11
705.0291857574775
 21
3573.267533409339
 31
0.0
  0
LINE
  5
74C4
330
1F
100
AcDbEntity
  8
金物
  6
Continuous
370
     0
100
AcDbLine
 10
717.0291857574775
 20
3622.167533409339
 30
0.0
 11
706.1291857574778
 21
3622.167533409339
 31
0.0
  0
LINE
  5
74C5
330
1F
100
AcDbEntity
  8
金物
  6
Continuous
370
     0
100
AcDbLine
 10
717.0291857574775
 20
3623.26753340934
 30
0.0
 11
717.0291857574775
 21
3622.167533409339
 31
0.0
  0
LINE
  5
74C6
330
1F
100
AcDbEntity
  8
防水層
  6
Continuous
370
     0
100
AcDbLine
 10
708.1291857574779
 20
3622.167533409339
 30
0.0
 11
708.1291857574779
 21
3611.508633409338
 31
0.0
  0
LINE
  5
74C7
330
1F
100
AcDbEntity
  8
防水層
  6
Continuous
370
     0
100
AcDbLine
 10
708.1291857574779
 20
3611.505533409339
 30
0.0
 11
708.1291857574779
 21
3573.267533409339
 31
0.0
  0
LINE
  5
74C8
330
1F
100
AcDbEntity
  8
金物
  6
DASHED2
370
     0
100
AcDbLine
 10
658.4858857574781
 20
3601.456833409339
 30
0.0
 11
658.4858857574781
 21
3595.45683340934
 31
0.0
  0
LINE
  5
74C9
330
1F
100
AcDbEntity
  8
金物
  6
DASHED2
370
     0
100
AcDbLine
 10
704.872485757478
 20
3601.456833409339
 30
0.0
 11
658.4858857574781
 21
3601.456833409339
 31
0.0
  0
LINE
  5
74CA
330
1F
100
AcDbEntity
  8
金物
  6
DASHED2
370
     0
100
AcDbLine
 10
704.872485757478
 20
3601.456833409339
 30
0.0
 11
706.1891857574774
 21
3604.936733409339
 31
0.0
  0
LINE
  5
74CB
330
1F
100
AcDbEntity
  8
金物
  6
DASHED2
370
     0
100
AcDbLine
 10
658.4858857574781
 20
3595.45683340934
 30
0.0
 11
704.7200857574771
 21
3595.45683340934
 31
0.0
  0
LINE
  5
74CC
330
1F
100
AcDbEntity
  8
金物
  6
Continuous
370
     0
100
AcDbLine
 10
705.0291857574775
 20
3594.750233409339
 30
0.0
 11
705.0291857574775
 21
3573.267533409339
 31
0.0
  0
LINE
  5
74CD
330
1F
100
AcDbEntity
  8
金物
  6
Continuous
370
     0
100
AcDbLine
 10
705.0291857574775
 20
3623.26753340934
 30
0.0
 11
705.0291857574775
 21
3601.871033409338
 31
0.0
  0
LINE
  5
74CE
330
1F
100
AcDbEntity
  8
金物
  6
Continuous
370
     0
100
AcDbLine
 10
706.1291857574778
 20
3592.23593340934
 30
0.0
 11
706.1291857574778
 21
3573.267533409339
 31
0.0
  0
LINE
  5
74CF
330
1F
100
AcDbEntity
  8
金物
  6
Continuous
370
     0
100
AcDbLine
 10
706.1291857574778
 20
3622.167533409339
 30
0.0
 11
706.1291857574778
 21
3604.778233409339
 31
0.0
  0
LINE
  5
74D0
330
1F
100
AcDbEntity
  8
金物
  6
DASHED2
370
     0
100
AcDbLine
 10
706.1891857574774
 20
3592.09883340934
 30
0.0
 11
706.1891857574774
 21
3604.936733409339
 31
0.0
  0
LINE
  5
74D1
330
1F
100
AcDbEntity
  8
防水層
  6
Continuous
370
     0
100
AcDbLine
 10
705.992585757478
 20
3573.267533409339
 30
0.0
 11
704.1513857574773
 21
3568.368233409339
 31
0.0
  0
LINE
  5
74D2
330
1F
100
AcDbEntity
  8
防水層
  6
Continuous
370
     0
100
AcDbLine
 10
708.1291857574779
 20
3573.267533409339
 30
0.0
 11
706.0978857574773
 21
3567.86233340934
 31
0.0
  0
LINE
  5
74D3
330
1F
100
AcDbEntity
  8
躯体
  6
Continuous
370
     0
100
AcDbLine
 10
739.0597857574776
 20
3638.278433409339
 30
0.0
 11
704.0291857574775
 21
3638.278433409339
 31
0.0
  0
LINE
  5
74D4
330
1F
100
AcDbEntity
  8
文字
  6
Continuous
370
     0
100
AcDbLine
 10
709.3611857574778
 20
3630.066933409339
 30
0.0
 11
896.7531857574776
 21
3835.902733409339
 31
0.0
  0
POINT
  5
74D5
330
1F
100
AcDbEntity
  8
ﾊｯﾁ
370
     0
100
AcDbPoint
 10
709.3611857574778
 20
3630.066933409339
 30
0.0
  0
TEXT
  5
74D6
102
{ACAD_XDICTIONARY
360
74D7
102
}
330
1F
100
AcDbEntity
  8
文字
  6
Continuous
370
     0
100
AcDbText
 10
960.8873857574781
 20
3615.067630693776
 30
0.0
 40
20.0
  1
メカファインＭＦシート２０（機械固定工法）
  7
NS横文字
100
AcDbText
1001
AcadAnnotative
1000
AnnotativeData
1002
{
1070
     1
1070
     1
1002
}
  0
LINE
  5
74DB
330
1F
100
AcDbEntity
  8
文字
  6
Continuous
370
     0
100
AcDbLine
 10
704.9339857574778
 20
3494.575033409339
 30
0.0
 11
959.7922857574776
 21
3604.190633409339
 31
0.0
  0
TEXT
  5
74DC
102
{ACAD_XDICTIONARY
360
74DD
102
}
330
1F
100
AcDbEntity
  8
文字
  6
Continuous
370
     0
100
AcDbText
 10
1386.851885757478
 20
3547.431250693776
 30
0.0
 40
20.0
  1
メカファインＭＦシート２０（機械固定工法）
  7
NS横文字
100
AcDbText
1001
AcadAnnotative
1000
AnnotativeData
1002
{
1070
     1
1070
     1
1002
}
  0
LINE
  5
74E1
330
1F
100
AcDbEntity
  8
ﾊｯﾁ
  6
Continuous
370
     0
100
AcDbLine
 10
704.0291857574775
 20
3871.823033409338
 30
0.0
 11
504.0978857574773
 21
3671.89163340934
 31
0.0
  0
LINE
  5
74E2
330
1F
100
AcDbEntity
  8
ﾊｯﾁ
  6
Continuous
370
     0
100
AcDbLine
 10
704.0291857574775
 20
3861.216433409339
 30
0.0
 11
504.0978857574773
 21
3661.28503340934
 31
0.0
  0
LINE
  5
74E3
330
1F
100
AcDbEntity
  8
ﾊｯﾁ
  6
Continuous
370
     0
100
AcDbLine
 10
704.0291857574775
 20
3850.60983340934
 30
0.0
 11
504.0978857574773
 21
3650.678433409339
 31
0.0
  0
LINE
  5
74E4
330
1F
100
AcDbEntity
  8
防水層
  6
Continuous
370
     0
100
AcDbLine
 10
780.1438857574776
 20
3811.772533409339
 30
0.0
 11
704.0291857574775
 21
3819.539333409339
 31
0.0
  0
LINE
  5
74E5
330
1F
100
AcDbEntity
  8
躯体
  6
Continuous
370
     0
100
AcDbLine
 10
779.1752857574774
 20
3809.861033409339
 30
0.0
 11
704.0291857574775
 21
3817.528933409338
 31
0.0
  0
LINE
  5
74E6
330
1F
100
AcDbEntity
  8
躯体
  6
Continuous
370
     0
100
AcDbLine
 10
704.0291857574775
 20
3638.278433409339
 30
0.0
 11
704.1513857574773
 21
3338.338333409339
 31
0.0
  0
LINE
  5
74E7
330
1F
100
AcDbEntity
  8
躯体
  6
Continuous
370
     0
100
AcDbLine
 10
704.0291857574775
 20
3832.528933409339
 30
0.0
 11
704.0291857574775
 21
3901.534133409339
 31
0.0
  0
LINE
  5
74E8
330
1F
100
AcDbEntity
  8
躯体
  6
Continuous
370
     0
100
AcDbLine
 10
504.0978857574773
 20
3338.338333409339
 30
0.0
 11
504.0978857574773
 21
3901.534133409339
 31
0.0
  0
LINE
  5
74E9
330
1F
100
AcDbEntity
  8
ﾊｯﾁ
  6
Continuous
370
     0
100
AcDbLine
 10
704.1513857574773
 20
3507.785253409339
 30
0.0
 11
354.7044857574783
 21
3158.338333409339
 31
0.0
  0
LINE
  5
74EA
330
1F
100
AcDbEntity
  8
ﾊｯﾁ
  6
Continuous
370
     0
100
AcDbLine
 10
704.1513857574773
 20
3497.178653409339
 30
0.0
 11
365.3110857574775
 21
3158.338333409339
 31
0.0
  0
LINE
  5
74EB
330
1F
100
AcDbEntity
  8
躯体
  6
Continuous
370
     0
100
AcDbLine
 10
504.0978857574773
 20
3029.51094340934
 30
0.0
 11
504.0978857574773
 21
3158.338333409339
 31
0.0
  0
LINE
  5
74EC
330
1F
100
AcDbEntity
  8
躯体
  6
Continuous
370
     0
100
AcDbLine
 10
504.0978857574773
 20
3338.338333409339
 30
0.0
 11
350.3882157574772
 21
3338.338333409339
 31
0.0
  0
LINE
  5
74ED
330
1F
100
AcDbEntity
  8
躯体
  6
Continuous
370
     0
100
AcDbLine
 10
504.0978857574773
 20
3158.338333409339
 30
0.0
 11
350.3882157574772
 21
3158.338333409339
 31
0.0
  0
LINE
  5
74EE
330
1F
100
AcDbEntity
  8
ﾊｯﾁ
  6
Continuous
370
     0
100
AcDbLine
 10
704.1513857574773
 20
3518.391853409339
 30
0.0
 11
350.3882157574772
 21
3164.628663409339
 31
0.0
  0
LINE
  5
74EF
330
1F
100
AcDbEntity
  8
躯体
  6
Continuous
370
     0
100
AcDbLine
 10
704.0291857574775
 20
3817.528933409338
 30
0.0
 11
689.0291857574775
 21
3817.528933409338
 31
0.0
  0
LINE
  5
74F0
330
1F
100
AcDbEntity
  8
躯体
  6
Continuous
370
     0
100
AcDbLine
 10
689.0291857574775
 20
3817.528933409338
 30
0.0
 11
689.0291857574775
 21
3832.528933409339
 31
0.0
  0
LINE
  5
74F1
330
1F
100
AcDbEntity
  8
躯体
  6
Continuous
370
     0
100
AcDbLine
 10
689.0291857574775
 20
3832.528933409339
 30
0.0
 11
704.0291857574775
 21
3832.528933409339
 31
0.0
  0
LINE
  5
74F2
330
1F
100
AcDbEntity
  8
ﾊｯﾁ
  6
Continuous
370
     0
100
AcDbLine
 10
689.0291857574775
 20
3819.851833409339
 30
0.0
 11
691.3520857574767
 21
3817.528933409338
 31
0.0
  0
LINE
  5
74F3
330
1F
100
AcDbEntity
  8
ﾊｯﾁ
  6
Continuous
370
     0
100
AcDbLine
 10
689.0291857574775
 20
3826.922833409339
 30
0.0
 11
698.4230857574784
 21
3817.528933409338
 31
0.0
  0
LINE
  5
74F4
330
1F
100
AcDbEntity
  8
ﾊｯﾁ
  6
Continuous
370
     0
100
AcDbLine
 10
704.0291857574775
 20
3822.780533409339
 30
0.0
 11
698.7775857574779
 21
3817.528933409338
 31
0.0
  0
LINE
  5
74F5
330
1F
100
AcDbEntity
  8
ﾊｯﾁ
  6
Continuous
370
     0
100
AcDbLine
 10
704.0291857574775
 20
3829.851633409339
 30
0.0
 11
691.7064857574769
 21
3817.528933409338
 31
0.0
  0
LINE
  5
74F6
330
1F
100
AcDbEntity
  8
ﾊｯﾁ
  6
Continuous
370
     0
100
AcDbLine
 10
697.5652857574787
 20
3832.528933409339
 30
0.0
 11
704.0291857574775
 21
3826.065033409339
 31
0.0
  0
LINE
  5
74F7
330
1F
100
AcDbEntity
  8
ﾊｯﾁ
  6
Continuous
370
     0
100
AcDbLine
 10
699.635485757477
 20
3832.528933409339
 30
0.0
 11
689.0291857574775
 21
3821.922733409338
 31
0.0
  0
LINE
  5
74F8
330
1F
100
AcDbEntity
  8
ﾊｯﾁ
  6
Continuous
370
     0
100
AcDbLine
 10
690.4941857574776
 20
3832.528933409339
 30
0.0
 11
704.0291857574775
 21
3818.993933409339
 31
0.0
  0
LINE
  5
74F9
330
1F
100
AcDbEntity
  8
ﾊｯﾁ
  6
Continuous
370
     0
100
AcDbLine
 10
692.5643857574778
 20
3832.528933409339
 30
0.0
 11
689.0291857574775
 21
3828.993733409339
 31
0.0
  0
LINE
  5
74FA
330
1F
100
AcDbEntity
  8
文字
  6
Continuous
370
     0
100
AcDbLine
 10
746.3812857574776
 20
3814.04133340934
 30
0.0
 11
952.7695857574782
 21
3980.896533409339
 31
0.0
  0
ARC
  5
74FB
330
1F
100
AcDbEntity
  8
金物
  6
Continuous
370
     0
100
AcDbCircle
 10
704.8838857574773
 20
3341.195733409339
 30
0.0
 40
0.5
100
AcDbArc
 50
87.54095600000175
 51
180.0
  0
LINE
  5
74FC
330
1F
100
AcDbEntity
  8
金物
  6
Continuous
370
     0
100
AcDbLine
 10
704.3838857574773
 20
3338.969413409339
 30
0.0
 11
704.3838857574773
 21
3341.195733409339
 31
0.0
  0
ARC
  5
74FD
330
1F
100
AcDbEntity
  8
金物
  6
Continuous
370
     0
100
AcDbCircle
 10
704.8838857574773
 20
3338.969413409339
 30
0.0
 40
0.5
100
AcDbArc
 50
180.0
 51
270.0
  0
ARC
  5
74FE
330
1F
100
AcDbEntity
  8
金物
  6
Continuous
370
     0
100
AcDbCircle
 10
705.8838857574774
 20
3340.151873409339
 30
0.0
 40
0.4
100
AcDbArc
 50
87.54095600000175
 51
180.0
  0
LINE
  5
74FF
330
1F
100
AcDbEntity
  8
金物
  6
Continuous
370
     0
100
AcDbLine
 10
705.4838857574777
 20
3339.969413409339
 30
0.0
 11
705.4838857574777
 21
3340.151873409339
 31
0.0
  0
ARC
  5
7500
330
1F
100
AcDbEntity
  8
金物
  6
Continuous
370
     0
100
AcDbCircle
 10
705.8838857574774
 20
3339.969413409339
 30
0.0
 40
0.4
100
AcDbArc
 50
180.0
 51
270.0
  0
LINE
  5
7501
330
1F
100
AcDbEntity
  8
金物
  6
Continuous
370
     0
100
AcDbLine
 10
713.9838857574777
 20
3339.569413409339
 30
0.0
 11
705.8838857574774
 21
3339.569413409339
 31
0.0
  0
ARC
  5
7502
330
1F
100
AcDbEntity
  8
金物
  6
Continuous
370
     0
100
AcDbCircle
 10
713.9838857574777
 20
3339.169413409339
 30
0.0
 40
0.4
100
AcDbArc
 50
0.0
 51
90.0
  0
LINE
  5
7503
330
1F
100
AcDbEntity
  8
金物
  6
Continuous
370
     0
100
AcDbLine
 10
713.9838857574777
 20
3338.469413409339
 30
0.0
 11
704.8838857574773
 21
3338.469413409339
 31
0.0
  0
ARC
  5
7504
330
1F
100
AcDbEntity
  8
金物
  6
Continuous
370
     0
100
AcDbCircle
 10
713.9838857574777
 20
3338.869413409339
 30
0.0
 40
0.4
100
AcDbArc
 50
270.0
 51
0.0
  0
ARC
  5
7505
330
1F
100
AcDbEntity
  8
金物
  6
Continuous
370
     0
100
AcDbCircle
 10
753.9838857574777
 20
3339.18724340934
 30
0.0
 40
0.4
100
AcDbArc
 50
0.0
 51
87.54095600000175
  0
ARC
  5
7506
330
1F
100
AcDbEntity
  8
金物
  6
Continuous
370
     0
100
AcDbCircle
 10
753.9838857574777
 20
3338.886963409339
 30
0.0
 40
0.4
100
AcDbArc
 50
267.540950000031
 51
0.0
  0
LINE
  5
7507
330
1F
100
AcDbEntity
  8
防水層
  6
Continuous
370
     0
100
AcDbLine
 10
1255.646185757478
 20
3340.338333409339
 30
0.0
 11
757.0156857574784
 21
3340.338333409339
 31
0.0
  0
LINE
  5
7508
330
1F
100
AcDbEntity
  8
防水層
  6
Continuous
370
     0
100
AcDbLine
 10
754.5792857574779
 20
3341.563883409339
 30
0.0
 11
757.0156857574784
 21
3340.338333409339
 31
0.0
  0
LINE
  5
7509
330
1F
100
AcDbEntity
  8
防水層
  6
Continuous
370
     0
100
AcDbLine
 10
754.2360857574785
 20
3339.49772340934
 30
0.0
 11
756.5409857574778
 21
3338.338333409339
 31
0.0
  0
LINE
  5
750A
330
1F
100
AcDbEntity
  8
防水層
  6
Continuous
370
     0
100
AcDbLine
 10
704.9911857574771
 20
3343.693433409339
 30
0.0
 11
704.9886857574783
 21
3341.691703409339
 31
0.0
  0
LINE
  5
750B
330
1F
100
AcDbEntity
  8
防水層
  6
Continuous
370
     0
100
AcDbLine
 10
754.5792857574779
 20
3341.563883409339
 30
0.0
 11
706.826585757477
 21
3343.614613409339
 31
0.0
  0
LINE
  5
750C
330
1F
100
AcDbEntity
  8
防水層
  6
Continuous
370
     0
100
AcDbLine
 10
706.0978857574773
 20
3567.86233340934
 30
0.0
 11
706.0978857574773
 21
3345.64775340934
 31
0.0
  0
LINE
  5
750D
330
1F
100
AcDbEntity
  8
防水層
  6
Continuous
370
     0
100
AcDbLine
 10
706.826585757477
 20
3343.614613409339
 30
0.0
 11
704.1513857574773
 21
3343.729503409339
 31
0.0
  0
LINE
  5
750E
330
1F
100
AcDbEntity
  8
金物
  6
DASHED2
370
     0
100
AcDbLine
 10
722.6201857574778
 20
3290.595393409339
 30
0.0
 11
728.6201857574779
 21
3290.595393409339
 31
0.0
  0
LINE
  5
750F
330
1F
100
AcDbEntity
  8
金物
  6
DASHED2
370
     0
100
AcDbLine
 10
718.3718857574786
 20
3341.137183409339
 30
0.0
 11
722.6287857574771
 21
3338.030743409338
 31
0.0
  0
LINE
  5
7510
330
1F
100
AcDbEntity
  8
金物
  6
DASHED2
370
     0
100
AcDbLine
 10
722.6201857574778
 20
3338.037033409339
 30
0.0
 11
722.6201857574778
 21
3290.595393409339
 31
0.0
  0
LINE
  5
7511
330
1F
100
AcDbEntity
  8
金物
  6
DASHED2
370
     0
100
AcDbLine
 10
728.6201857574779
 20
3338.133333409339
 30
0.0
 11
732.6384857574776
 21
3340.446863409339
 31
0.0
  0
LINE
  5
7512
330
1F
100
AcDbEntity
  8
金物
  6
DASHED2
370
     0
100
AcDbLine
 10
728.6201857574779
 20
3290.595393409339
 30
0.0
 11
728.6201857574779
 21
3338.133333409339
 31
0.0
  0
LINE
  5
7513
330
1F
100
AcDbEntity
  8
金物
  6
Continuous
370
     0
100
AcDbLine
 10
718.401285757478
 20
3341.115693409339
 30
0.0
 11
704.9053857574781
 21
3341.695273409339
 31
0.0
  0
LINE
  5
7514
330
1F
100
AcDbEntity
  8
金物
  6
Continuous
370
     0
100
AcDbLine
 10
754.0010857574779
 20
3339.586873409339
 30
0.0
 11
732.731285757478
 21
3340.500303409339
 31
0.0
  0
LINE
  5
7515
330
1F
100
AcDbEntity
  8
金物
  6
DASHED2
370
     0
100
AcDbLine
 10
718.401285757478
 20
3341.115693409339
 30
0.0
 11
732.6384857574776
 21
3340.446863409339
 31
0.0
  0
LINE
  5
7516
330
1F
100
AcDbEntity
  8
金物
  6
Continuous
370
     0
100
AcDbLine
 10
720.0044857574775
 20
3339.945833409339
 30
0.0
 11
705.9010857574776
 21
3340.551503409339
 31
0.0
  0
LINE
  5
7517
330
1F
100
AcDbEntity
  8
躯体
  6
Continuous
370
     0
100
AcDbLine
 10
722.2072857574785
 20
3338.338333409339
 30
0.0
 11
704.1513857574773
 21
3338.338333409339
 31
0.0
  0
LINE
  5
7518
330
1F
100
AcDbEntity
  8
金物
  6
Continuous
370
     0
100
AcDbLine
 10
753.9666857574775
 20
3338.487333409339
 30
0.0
 11
730.9516857574781
 21
3339.475713409339
 31
0.0
  0
LINE
  5
7519
330
1F
100
AcDbEntity
  8
防水層
  6
Continuous
370
     0
100
AcDbLine
 10
745.5031857574777
 20
3343.799753409339
 30
0.0
 11
745.0386857574776
 21
3343.335223409339
 31
0.0
  0
LINE
  5
751A
330
1F
100
AcDbEntity
  8
防水層
  6
Continuous
370
     0
100
AcDbLine
 10
745.6165857574778
 20
3343.735953409338
 30
0.0
 11
746.2898857574782
 21
3343.062613409339
 31
0.0
  0
LINE
  5
751B
330
1F
100
AcDbEntity
  8
防水層
  6
Continuous
370
     0
100
AcDbLine
 10
746.2473857574768
 20
3343.129743409339
 30
0.0
 11
745.0890857574777
 21
3341.971443409339
 31
0.0
  0
LINE
  5
751C
330
1F
100
AcDbEntity
  8
防水層
  6
Continuous
370
     0
100
AcDbLine
 10
745.0242857574776
 20
3342.913993409339
 30
0.0
 11
746.0062857574776
 21
3341.932053409339
 31
0.0
  0
ARC
  5
751D
330
1F
100
AcDbEntity
  8
防水層
  6
Continuous
370
     0
100
AcDbCircle
 10
744.5796857574787
 20
3342.025733409339
 30
0.0
 40
2.0
100
AcDbArc
 50
356.6131799999921
 51
76.10017099998572
  0
LINE
  5
751E
330
1F
100
AcDbEntity
  8
防水層
  6
Continuous
370
     0
100
AcDbLine
 10
744.8197857574777
 20
3343.984843409339
 30
0.0
 11
706.0978857574773
 21
3345.64775340934
 31
0.0
  0
LINE
  5
751F
330
1F
100
AcDbEntity
  8
防水層
  6
Continuous
370
     0
100
AcDbLine
 10
745.0603857574769
 20
3343.974513409339
 30
0.0
 11
744.8220857574779
 21
3343.984753409339
 31
0.0
  0
LINE
  5
7520
330
1F
100
AcDbEntity
  8
防水層
  6
Continuous
370
     0
100
AcDbLine
 10
744.8220857574779
 20
3343.984753409339
 30
0.0
 11
744.8197857574777
 21
3343.984843409339
 31
0.0
  0
LINE
  5
7521
330
1F
100
AcDbEntity
  8
防水層
  6
Continuous
370
     0
100
AcDbLine
 10
745.0603857574769
 20
3343.974513409339
 30
0.0
 11
744.9923857574776
 21
3341.97559340934
 31
0.0
  0
LINE
  5
7522
330
1F
100
AcDbEntity
  8
躯体
  6
Continuous
370
     0
100
AcDbLine
 10
939.6028857574783
 20
3158.338333409339
 30
0.0
 11
1712.589885757479
 21
3158.338333409339
 31
0.0
  0
LINE
  5
7523
330
1F
100
AcDbEntity
  8
ﾊｯﾁ
  6
Continuous
370
     0
100
AcDbLine
 10
1595.364585757477
 20
3338.338333409339
 30
0.0
 11
1415.364585757477
 21
3158.338333409339
 31
0.0
  0
LINE
  5
7524
330
1F
100
AcDbEntity
  8
躯体
  6
Continuous
370
     0
100
AcDbLine
 10
1713.493016765023
 20
3338.338333409339
 30
0.0
 11
728.9762857574769
 21
3338.338333409339
 31
0.0
  0
LINE
  5
7525
330
1F
100
AcDbEntity
  8
ﾊｯﾁ
  6
Continuous
370
     0
100
AcDbLine
 10
1605.97118575748
 20
3338.338333409339
 30
0.0
 11
1425.971185757478
 21
3158.338333409339
 31
0.0
  0
LINE
  5
7526
330
1F
100
AcDbEntity
  8
ﾊｯﾁ
  6
Continuous
370
     0
100
AcDbLine
 10
1616.577785757479
 20
3338.338333409339
 30
0.0
 11
1436.577785757477
 21
3158.338333409339
 31
0.0
  0
LINE
  5
7527
330
1F
100
AcDbEntity
  8
ﾃﾞｨｽｸ板
  6
Continuous
370
     0
100
AcDbLine
 10
1347.340185757477
 20
3338.598243409339
 30
0.0
 11
1347.340185757477
 21
3340.098243409339
 31
0.0
  0
LINE
  5
7528
330
1F
100
AcDbEntity
  8
ﾃﾞｨｽｸ板
  6
DASHED2
370
     0
100
AcDbLine
 10
1301.079085757477
 20
3315.178113409339
 30
0.0
 11
1307.079085757477
 21
3315.178113409339
 31
0.0
  0
LINE
  5
7529
330
1F
100
AcDbEntity
  8
ﾃﾞｨｽｸ板
  6
DASHED2
370
     0
100
AcDbLine
 10
1298.880285757477
 20
3339.985583409339
 30
0.0
 11
1301.079085757477
 21
3338.57806340934
 31
0.0
  0
LINE
  5
752A
330
1F
100
AcDbEntity
  8
ﾃﾞｨｽｸ板
  6
DASHED2
370
     0
100
AcDbLine
 10
1307.079085757477
 20
3338.57806340934
 30
0.0
 11
1309.596285757478
 21
3339.985583409339
 31
0.0
  0
LINE
  5
752B
330
1F
100
AcDbEntity
  8
ﾃﾞｨｽｸ板
  6
Continuous
370
     0
100
AcDbLine
 10
1298.704285757478
 20
3340.098243409339
 30
0.0
 11
1260.340185757477
 21
3340.098243409339
 31
0.0
  0
LINE
  5
752C
330
1F
100
AcDbEntity
  8
ﾃﾞｨｽｸ板
  6
DASHED2
370
     0
100
AcDbLine
 10
1301.079085757477
 20
3338.57806340934
 30
0.0
 11
1301.079085757477
 21
3315.178113409339
 31
0.0
  0
LINE
  5
752D
330
1F
100
AcDbEntity
  8
ﾃﾞｨｽｸ板
  6
DASHED2
370
     0
100
AcDbLine
 10
1307.079085757477
 20
3315.178113409339
 30
0.0
 11
1307.079085757477
 21
3338.57806340934
 31
0.0
  0
LINE
  5
752E
330
1F
100
AcDbEntity
  8
ﾃﾞｨｽｸ板
  6
Continuous
370
     0
100
AcDbLine
 10
1347.340185757477
 20
3340.098243409339
 30
0.0
 11
1309.797785757477
 21
3340.098243409339
 31
0.0
  0
LINE
  5
752F
330
1F
100
AcDbEntity
  8
ﾃﾞｨｽｸ板
  6
DASHED2
370
     0
100
AcDbLine
 10
1298.880285757477
 20
3339.985583409339
 30
0.0
 11
1309.596285757478
 21
3339.985583409339
 31
0.0
  0
LINE
  5
7530
330
1F
100
AcDbEntity
  8
ﾊｯﾁ
  6
Continuous
370
     0
100
AcDbLine
 10
1252.417785757478
 20
3338.338333409339
 30
0.0
 11
1072.417785757478
 21
3158.338333409339
 31
0.0
  0
LINE
  5
7531
330
1F
100
AcDbEntity
  8
防水層
  6
Continuous
370
     0
100
AcDbLine
 10
1260.340185757477
 20
3340.098243409339
 30
0.0
 11
1256.050185757478
 21
3338.338333409339
 31
0.0
  0
LINE
  5
7532
330
1F
100
AcDbEntity
  8
防水層
  6
Continuous
370
     0
100
AcDbLine
 10
1260.340185757477
 20
3342.098243409338
 30
0.0
 11
1255.646185757478
 21
3340.338333409339
 31
0.0
  0
LINE
  5
7533
330
1F
100
AcDbEntity
  8
防水層
  6
Continuous
370
     0
100
AcDbLine
 10
1347.340185757477
 20
3340.098243409339
 30
0.0
 11
1353.808285757477
 21
3338.338333409339
 31
0.0
  0
LINE
  5
7534
330
1F
100
AcDbEntity
  8
防水層
  6
Continuous
370
     0
100
AcDbLine
 10
1347.340185757477
 20
3342.098243409338
 30
0.0
 11
1353.157885757478
 21
3340.578063409339
 31
0.0
  0
LINE
  5
7535
330
1F
100
AcDbEntity
  8
防水層
  6
Continuous
370
     0
100
AcDbLine
 10
1353.157885757478
 20
3340.578063409339
 30
0.0
 11
1713.4205505028
 21
3340.578063409339
 31
0.0
  0
LINE
  5
7536
330
1F
100
AcDbEntity
  8
防水層
  6
Continuous
370
     0
100
AcDbLine
 10
1347.340185757477
 20
3342.098243409338
 30
0.0
 11
1260.340185757477
 21
3342.098243409338
 31
0.0
  0
LINE
  5
7537
330
1F
100
AcDbEntity
  8
ﾃﾞｨｽｸ板
  6
Continuous
370
     0
100
AcDbLine
 10
1347.340185757477
 20
3338.598243409339
 30
0.0
 11
1307.079085757477
 21
3338.598243409339
 31
0.0
  0
LINE
  5
7538
330
1F
100
AcDbEntity
  8
ﾃﾞｨｽｸ板
  6
Continuous
370
     0
100
AcDbLine
 10
1301.079085757477
 20
3338.57806340934
 30
0.0
 11
1260.340185757477
 21
3338.57806340934
 31
0.0
  0
LINE
  5
7539
330
1F
100
AcDbEntity
  8
ﾃﾞｨｽｸ板
  6
Continuous
370
     0
100
AcDbLine
 10
1260.340185757477
 20
3340.098243409339
 30
0.0
 11
1260.340185757477
 21
3338.57806340934
 31
0.0
  0
LINE
  5
753A
330
1F
100
AcDbEntity
  8
寸法
  6
Continuous
370
     0
100
AcDbLine
 10
704.1513857574773
 20
3173.884213409339
 30
0.0
 11
704.1513857574773
 21
3223.884213409338
 31
0.0
  0
LINE
  5
753B
330
1F
100
AcDbEntity
  8
寸法
  6
Continuous
370
     0
100
AcDbLine
 10
1304.151385757477
 20
3173.884213409339
 30
0.0
 11
1304.151385757477
 21
3223.884213409338
 31
0.0
  0
LINE
  5
753C
330
1F
100
AcDbEntity
  8
寸法
  6
Continuous
370
     0
100
AcDbLine
 10
704.1513857574773
 20
3173.884213409339
 30
0.0
 11
1304.151385757477
 21
3173.884213409339
 31
0.0
  0
TEXT
  5
753D
102
{ACAD_XDICTIONARY
360
753E
102
}
330
1F
100
AcDbEntity
  8
寸法
  6
Continuous
370
     0
100
AcDbText
 10
985.4013857574773
 20
3178.884213409339
 30
0.0
 40
25.0
  1
600
  7
NS横文字
100
AcDbText
1001
AcadAnnotative
1000
AnnotativeData
1002
{
1070
     1
1070
     1
1002
}
  0
LINE
  5
7542
330
1F
100
AcDbEntity
  8
文字
  6
Continuous
370
     0
100
AcDbLine
 10
697.5267857574781
 20
3825.220833409338
 30
0.0
 11
955.1223857574768
 21
4048.382033409338
 31
0.0
  0
TEXT
  5
7543
102
{ACAD_XDICTIONARY
360
7544
102
}
330
1F
100
AcDbEntity
  8
文字
  6
Continuous
370
     0
100
AcDbText
 10
952.4735857574778
 20
4059.317130693775
 30
0.0
 40
20.0
  1
ウレタンシーリング１５mm×１０mm
  7
NS横文字
100
AcDbText
1001
AcadAnnotative
1000
AnnotativeData
1002
{
1070
     1
1070
     1
1002
}
  0
LINE
  5
7548
330
1F
100
AcDbEntity
  8
文字
  6
Continuous
370
     0
100
AcDbLine
 10
955.1223857574768
 20
4048.382033409338
 30
0.0
 11
1278.275685757479
 21
4048.382033409338
 31
0.0
  0
ARC
  5
7640
330
1F
100
AcDbEntity
  8
ﾃﾞｨｽｸ板
  6
Continuous
370
     0
100
AcDbCircle
 10
3235.975780879333
 20
3363.071636782315
 30
0.0
 40
0.3
100
AcDbArc
 50
90.0
 51
180.0
  0
LINE
  5
7641
330
1F
100
AcDbEntity
  8
ﾊｯﾁ
  6
Continuous
370
     0
100
AcDbLine
 10
2679.226745199096
 20
3541.40499110208
 30
0.0
 11
2325.723810879332
 21
3187.902056782315
 31
0.0
  0
LINE
  5
7642
330
1F
100
AcDbEntity
  8
金物
  6
DASHED2
370
     0
100
AcDbLine
 10
2680.208100879332
 20
3624.730276782315
 30
0.0
 11
2633.821560879333
 21
3624.730276782315
 31
0.0
  0
LINE
  5
7643
330
1F
100
AcDbEntity
  8
金物
  6
DASHED2
370
     0
100
AcDbLine
 10
2633.821560879333
 20
3618.730276782315
 30
0.0
 11
2680.055690879332
 21
3618.730276782315
 31
0.0
  0
LINE
  5
7644
330
1F
100
AcDbEntity
  8
金物
  6
DASHED2
370
     0
100
AcDbLine
 10
2680.208100879332
 20
3624.730276782315
 30
0.0
 11
2681.524810879333
 21
3628.210156782315
 31
0.0
  0
LINE
  5
7645
330
1F
100
AcDbEntity
  8
金物
  6
DASHED2
370
     0
100
AcDbLine
 10
2681.524810879333
 20
3615.372276782315
 30
0.0
 11
2681.524810879333
 21
3628.210156782315
 31
0.0
  0
LINE
  5
7646
330
1F
100
AcDbEntity
  8
金物
  6
Continuous
370
     0
100
AcDbLine
 10
2681.464840879333
 20
3645.440976782314
 30
0.0
 11
2681.464840879333
 21
3628.051656782315
 31
0.0
  0
LINE
  5
7647
330
1F
100
AcDbEntity
  8
金物
  6
DASHED2
370
     0
100
AcDbLine
 10
2680.075150879333
 20
3618.685786782315
 30
0.0
 11
2681.524810879333
 21
3615.372276782315
 31
0.0
  0
LINE
  5
7648
330
1F
100
AcDbEntity
  8
金物
  6
Continuous
370
     0
100
AcDbLine
 10
2681.464840879333
 20
3615.509346782314
 30
0.0
 11
2681.464840879333
 21
3596.540976782315
 31
0.0
  0
LINE
  5
7649
330
1F
100
AcDbEntity
  8
文字
  6
Continuous
370
     0
100
AcDbLine
 10
2684.696870879332
 20
3653.340326782315
 30
0.0
 11
2872.088780879332
 21
3859.176126782315
 31
0.0
  0
LINE
  5
764A
330
1F
100
AcDbEntity
  8
文字
  6
Continuous
370
     0
100
AcDbLine
 10
2872.088780879332
 20
3859.176126782315
 30
0.0
 11
3244.625380879332
 21
3859.176126782315
 31
0.0
  0
TEXT
  5
764B
102
{ACAD_XDICTIONARY
360
764C
102
}
330
1F
100
AcDbEntity
  8
文字
  6
Continuous
370
     0
100
AcDbText
 10
2877.456780879333
 20
3869.860424066752
 30
0.0
 40
20.0
  1
変性シリコンシーリング１５mm×１０mm
  7
NS横文字
100
AcDbText
1001
AcadAnnotative
1000
AnnotativeData
1002
{
1070
     1
1070
     1
1002
}
  0
LINE
  5
7650
330
1F
100
AcDbEntity
  8
金物
  6
Continuous
370
     0
100
AcDbLine
 10
2729.719530879333
 20
3362.160356782315
 30
0.0
 11
2729.719530879333
 21
3362.460636782315
 31
0.0
  0
LINE
  5
7651
330
1F
100
AcDbEntity
  8
躯体
  6
Continuous
370
     0
100
AcDbLine
 10
2679.317440879333
 20
3361.611726782315
 30
0.0
 11
2679.198940879333
 21
3596.523706782315
 31
0.0
  0
LINE
  5
7652
330
1F
100
AcDbEntity
  8
文字
  6
Continuous
370
     0
100
AcDbLine
 10
3202.092280879333
 20
3362.704776782315
 30
0.0
 11
3359.534180879333
 21
3559.988356782315
 31
0.0
  0
LINE
  5
7653
330
1F
100
AcDbEntity
  8
文字
  6
Continuous
370
     0
100
AcDbLine
 10
3360.241980879333
 20
3559.988356782315
 30
0.0
 11
3738.059180879333
 21
3559.988356782315
 31
0.0
  0
LINE
  5
7654
330
1F
100
AcDbEntity
  8
ﾊｯﾁ
  6
Continuous
370
     0
100
AcDbLine
 10
3206.703880879334
 20
3361.775386782315
 30
0.0
 11
3026.540180879332
 21
3181.611726782315
 31
0.0
  0
LINE
  5
7655
330
1F
100
AcDbEntity
  8
ﾊｯﾁ
  6
Continuous
370
     0
100
AcDbLine
 10
3217.310480879333
 20
3361.775386782315
 30
0.0
 11
3037.146780879331
 21
3181.611726782315
 31
0.0
  0
LINE
  5
7656
330
1F
100
AcDbEntity
  8
ﾊｯﾁ
  6
Continuous
370
     0
100
AcDbLine
 10
2852.986780879332
 20
3361.611726782315
 30
0.0
 11
2544.159480879333
 21
3052.784336782315
 31
0.0
  0
LINE
  5
7657
330
1F
100
AcDbEntity
  8
ﾊｯﾁ
  6
Continuous
370
     0
100
AcDbLine
 10
2863.593380879333
 20
3361.611726782315
 30
0.0
 11
2554.766090879331
 21
3052.784336782315
 31
0.0
  0
LINE
  5
7658
330
1F
100
AcDbEntity
  8
ﾊｯﾁ
  6
Continuous
370
     0
100
AcDbLine
 10
2874.199980879332
 20
3361.611726782315
 30
0.0
 11
2565.372690879332
 21
3052.784336782315
 31
0.0
  0
LINE
  5
7659
330
1F
100
AcDbEntity
  8
躯体
  6
Continuous
370
     0
100
AcDbLine
 10
2914.938480879333
 20
3181.611726782315
 30
0.0
 11
2914.938480879333
 21
3052.784336782315
 31
0.0
  0
LINE
  5
765A
330
1F
100
AcDbEntity
  8
金物
  6
Continuous
370
     0
100
AcDbLine
 10
2681.464840879333
 20
3596.540976782315
 30
0.0
 11
2680.364840879333
 21
3596.540976782315
 31
0.0
  0
LINE
  5
765B
330
1F
100
AcDbEntity
  8
金物
  6
Continuous
370
     0
100
AcDbLine
 10
2692.364840879333
 20
3645.440976782314
 30
0.0
 11
2681.464840879333
 21
3645.440976782314
 31
0.0
  0
LINE
  5
765C
330
1F
100
AcDbEntity
  8
金物
  6
Continuous
370
     0
100
AcDbLine
 10
2692.364840879333
 20
3646.540976782315
 30
0.0
 11
2692.364840879333
 21
3645.440976782314
 31
0.0
  0
LINE
  5
765D
330
1F
100
AcDbEntity
  8
防水層
  6
Continuous
370
     0
100
AcDbLine
 10
2683.464840879333
 20
3645.440976782314
 30
0.0
 11
2683.464840879333
 21
3634.782076782315
 31
0.0
  0
LINE
  5
765E
330
1F
100
AcDbEntity
  8
防水層
  6
Continuous
370
     0
100
AcDbLine
 10
2683.464840879333
 20
3634.778976782315
 30
0.0
 11
2683.464840879333
 21
3596.540976782315
 31
0.0
  0
LINE
  5
765F
330
1F
100
AcDbEntity
  8
金物
  6
DASHED2
370
     0
100
AcDbLine
 10
2633.821560879333
 20
3624.730276782315
 30
0.0
 11
2633.821560879333
 21
3618.730276782315
 31
0.0
  0
LINE
  5
7660
330
1F
100
AcDbEntity
  8
金物
  6
Continuous
370
     0
100
AcDbLine
 10
2680.364840879333
 20
3618.023636782315
 30
0.0
 11
2680.364840879333
 21
3596.540976782315
 31
0.0
  0
LINE
  5
7661
330
1F
100
AcDbEntity
  8
防水層
  6
Continuous
370
     0
100
AcDbLine
 10
2681.328260879333
 20
3596.540976782315
 30
0.0
 11
2679.487000879332
 21
3591.641636782315
 31
0.0
  0
LINE
  5
7662
330
1F
100
AcDbEntity
  8
防水層
  6
Continuous
370
     0
100
AcDbLine
 10
2683.464840879333
 20
3596.540976782315
 30
0.0
 11
2681.433480879332
 21
3591.135796782315
 31
0.0
  0
TEXT
  5
7663
102
{ACAD_XDICTIONARY
360
7664
102
}
330
1F
100
AcDbEntity
  8
文字
  6
Continuous
370
     0
100
AcDbText
 10
2936.222980879333
 20
3638.341094066752
 30
0.0
 40
20.0
  1
メカファインＭＦシート２０（機械固定工法）
  7
NS横文字
100
AcDbText
1001
AcadAnnotative
1000
AnnotativeData
1002
{
1070
     1
1070
     1
1002
}
  0
TEXT
  5
7668
102
{ACAD_XDICTIONARY
360
7669
102
}
330
1F
100
AcDbEntity
  8
文字
  6
Continuous
370
     0
100
AcDbText
 10
3362.187480879333
 20
3570.704644066752
 30
0.0
 40
20.0
  1
メカファインＭＦシート２０（機械固定工法）
  7
NS横文字
100
AcDbText
1001
AcadAnnotative
1000
AnnotativeData
1002
{
1070
     1
1070
     1
1002
}
  0
LINE
  5
766D
330
1F
100
AcDbEntity
  8
ﾊｯﾁ
  6
Continuous
370
     0
100
AcDbLine
 10
2679.364840879332
 20
3895.096426782315
 30
0.0
 11
2479.433480879332
 21
3695.165116782315
 31
0.0
  0
LINE
  5
766E
330
1F
100
AcDbEntity
  8
ﾊｯﾁ
  6
Continuous
370
     0
100
AcDbLine
 10
2679.364840879332
 20
3884.489826782315
 30
0.0
 11
2479.433480879332
 21
3684.558506782315
 31
0.0
  0
LINE
  5
766F
330
1F
100
AcDbEntity
  8
ﾊｯﾁ
  6
Continuous
370
     0
100
AcDbLine
 10
2679.364840879332
 20
3873.883226782315
 30
0.0
 11
2479.433480879332
 21
3673.951906782315
 31
0.0
  0
LINE
  5
7670
330
1F
100
AcDbEntity
  8
躯体
  6
Continuous
370
     0
100
AcDbLine
 10
2479.433480879332
 20
3361.611726782315
 30
0.0
 11
2479.433480879332
 21
3924.807526782315
 31
0.0
  0
LINE
  5
7671
330
1F
100
AcDbEntity
  8
ﾊｯﾁ
  6
Continuous
370
     0
100
AcDbLine
 10
2679.232092939951
 20
3530.803738842934
 30
0.0
 11
2330.040080879333
 21
3181.611726782315
 31
0.0
  0
LINE
  5
7672
330
1F
100
AcDbEntity
  8
ﾊｯﾁ
  6
Continuous
370
     0
100
AcDbLine
 10
2679.237440680806
 20
3520.202486583789
 30
0.0
 11
2340.646680879332
 21
3181.611726782315
 31
0.0
  0
LINE
  5
7673
330
1F
100
AcDbEntity
  8
躯体
  6
Continuous
370
     0
100
AcDbLine
 10
2479.433480879332
 20
3052.784336782315
 30
0.0
 11
2479.433480879332
 21
3181.611726782315
 31
0.0
  0
LINE
  5
7674
330
1F
100
AcDbEntity
  8
躯体
  6
Continuous
370
     0
100
AcDbLine
 10
2479.433480879332
 20
3181.611726782315
 30
0.0
 11
2325.723810879332
 21
3181.611726782315
 31
0.0
  0
ARC
  5
7675
330
1F
100
AcDbEntity
  8
金物
  6
Continuous
370
     0
100
AcDbCircle
 10
2680.219530879333
 20
3364.469126782315
 30
0.0
 40
0.5
100
AcDbArc
 50
87.54095600000164
 51
180.0
  0
LINE
  5
7676
330
1F
100
AcDbEntity
  8
金物
  6
Continuous
370
     0
100
AcDbLine
 10
2679.719530879333
 20
3362.242806782315
 30
0.0
 11
2679.719530879333
 21
3364.469126782315
 31
0.0
  0
ARC
  5
7677
330
1F
100
AcDbEntity
  8
金物
  6
Continuous
370
     0
100
AcDbCircle
 10
2680.219530879333
 20
3362.242806782315
 30
0.0
 40
0.5
100
AcDbArc
 50
180.0
 51
270.0
  0
ARC
  5
7678
330
1F
100
AcDbEntity
  8
金物
  6
Continuous
370
     0
100
AcDbCircle
 10
2681.219530879332
 20
3363.425266782315
 30
0.0
 40
0.4
100
AcDbArc
 50
87.54095600000164
 51
180.0
  0
LINE
  5
7679
330
1F
100
AcDbEntity
  8
金物
  6
Continuous
370
     0
100
AcDbLine
 10
2680.819530879333
 20
3363.242806782315
 30
0.0
 11
2680.819530879333
 21
3363.425266782315
 31
0.0
  0
ARC
  5
767A
330
1F
100
AcDbEntity
  8
金物
  6
Continuous
370
     0
100
AcDbCircle
 10
2681.219530879332
 20
3363.242806782315
 30
0.0
 40
0.4
100
AcDbArc
 50
180.0
 51
270.0
  0
LINE
  5
767B
330
1F
100
AcDbEntity
  8
金物
  6
Continuous
370
     0
100
AcDbLine
 10
2689.319530879333
 20
3362.842806782315
 30
0.0
 11
2681.219530879332
 21
3362.842806782315
 31
0.0
  0
ARC
  5
767C
330
1F
100
AcDbEntity
  8
金物
  6
Continuous
370
     0
100
AcDbCircle
 10
2689.319530879333
 20
3362.442806782315
 30
0.0
 40
0.4
100
AcDbArc
 50
0.0
 51
90.0
  0
LINE
  5
767D
330
1F
100
AcDbEntity
  8
金物
  6
Continuous
370
     0
100
AcDbLine
 10
2689.719530879333
 20
3362.142806782315
 30
0.0
 11
2689.719530879333
 21
3362.442806782315
 31
0.0
  0
LINE
  5
767E
330
1F
100
AcDbEntity
  8
金物
  6
Continuous
370
     0
100
AcDbLine
 10
2689.319530879333
 20
3361.742806782315
 30
0.0
 11
2680.219530879333
 21
3361.742806782315
 31
0.0
  0
ARC
  5
767F
330
1F
100
AcDbEntity
  8
金物
  6
Continuous
370
     0
100
AcDbCircle
 10
2689.319530879333
 20
3362.142806782315
 30
0.0
 40
0.4
100
AcDbArc
 50
270.0
 51
0.0
  0
ARC
  5
7680
330
1F
100
AcDbEntity
  8
金物
  6
Continuous
370
     0
100
AcDbCircle
 10
2729.319530879333
 20
3362.460636782315
 30
0.0
 40
0.4
100
AcDbArc
 50
0.0
 51
87.54095600000164
  0
ARC
  5
7681
330
1F
100
AcDbEntity
  8
金物
  6
Continuous
370
     0
100
AcDbCircle
 10
2729.319530879333
 20
3362.160356782315
 30
0.0
 40
0.4
100
AcDbArc
 50
267.5409500000311
 51
0.0
  0
LINE
  5
7682
330
1F
100
AcDbEntity
  8
防水層
  6
Continuous
370
     0
100
AcDbLine
 10
3230.800480879332
 20
3363.611726782315
 30
0.0
 11
2732.351290879333
 21
3363.611726782315
 31
0.0
  0
LINE
  5
7683
330
1F
100
AcDbEntity
  8
防水層
  6
Continuous
370
     0
100
AcDbLine
 10
2729.914880879333
 20
3364.837276782315
 30
0.0
 11
2732.351290879333
 21
3363.611726782315
 31
0.0
  0
LINE
  5
7684
330
1F
100
AcDbEntity
  8
防水層
  6
Continuous
370
     0
100
AcDbLine
 10
2729.571720879332
 20
3362.771116782314
 30
0.0
 11
2731.876610879332
 21
3361.611726782315
 31
0.0
  0
LINE
  5
7685
330
1F
100
AcDbEntity
  8
防水層
  6
Continuous
370
     0
100
AcDbLine
 10
2680.326800879333
 20
3366.966826782315
 30
0.0
 11
2680.324320879332
 21
3364.965096782315
 31
0.0
  0
LINE
  5
7686
330
1F
100
AcDbEntity
  8
防水層
  6
Continuous
370
     0
100
AcDbLine
 10
2729.914880879333
 20
3364.837276782315
 30
0.0
 11
2682.162200879333
 21
3366.888006782315
 31
0.0
  0
LINE
  5
7687
330
1F
100
AcDbEntity
  8
金物
  6
DASHED2
370
     0
100
AcDbLine
 10
2697.955850879333
 20
3313.868786782315
 30
0.0
 11
2703.955850879333
 21
3313.868786782315
 31
0.0
  0
LINE
  5
7688
330
1F
100
AcDbEntity
  8
金物
  6
DASHED2
370
     0
100
AcDbLine
 10
2693.707500879333
 20
3364.410576782315
 30
0.0
 11
2697.964470879333
 21
3361.304136782315
 31
0.0
  0
LINE
  5
7689
330
1F
100
AcDbEntity
  8
金物
  6
DASHED2
370
     0
100
AcDbLine
 10
2697.955850879333
 20
3361.310426782315
 30
0.0
 11
2697.955850879333
 21
3313.868786782315
 31
0.0
  0
LINE
  5
768A
330
1F
100
AcDbEntity
  8
金物
  6
DASHED2
370
     0
100
AcDbLine
 10
2703.955850879333
 20
3361.406726782315
 30
0.0
 11
2707.974090879332
 21
3363.720256782315
 31
0.0
  0
LINE
  5
768B
330
1F
100
AcDbEntity
  8
金物
  6
DASHED2
370
     0
100
AcDbLine
 10
2703.955850879333
 20
3313.868786782315
 30
0.0
 11
2703.955850879333
 21
3361.406726782315
 31
0.0
  0
LINE
  5
768C
330
1F
100
AcDbEntity
  8
金物
  6
Continuous
370
     0
100
AcDbLine
 10
2693.736940879333
 20
3364.389086782315
 30
0.0
 11
2680.240980879333
 21
3364.968666782316
 31
0.0
  0
LINE
  5
768D
330
1F
100
AcDbEntity
  8
金物
  6
Continuous
370
     0
100
AcDbLine
 10
2729.336690879332
 20
3362.860266782315
 30
0.0
 11
2708.066900879332
 21
3363.773696782315
 31
0.0
  0
LINE
  5
768E
330
1F
100
AcDbEntity
  8
金物
  6
DASHED2
370
     0
100
AcDbLine
 10
2693.736940879333
 20
3364.389086782315
 30
0.0
 11
2707.974090879332
 21
3363.720256782315
 31
0.0
  0
LINE
  5
768F
330
1F
100
AcDbEntity
  8
金物
  6
Continuous
370
     0
100
AcDbLine
 10
2695.340080879332
 20
3363.219226782315
 30
0.0
 11
2681.236690879332
 21
3363.824896782315
 31
0.0
  0
LINE
  5
7690
330
1F
100
AcDbEntity
  8
躯体
  6
Continuous
370
     0
100
AcDbLine
 10
2697.542970879333
 20
3361.611726782315
 30
0.0
 11
2679.317440879333
 21
3361.611726782315
 31
0.0
  0
LINE
  5
7691
330
1F
100
AcDbEntity
  8
金物
  6
Continuous
370
     0
100
AcDbLine
 10
2729.302370879332
 20
3361.760726782315
 30
0.0
 11
2706.287350879333
 21
3362.749106782315
 31
0.0
  0
LINE
  5
7692
330
1F
100
AcDbEntity
  8
防水層
  6
Continuous
370
     0
100
AcDbLine
 10
2720.838810879332
 20
3367.073146782316
 30
0.0
 11
2720.374280879332
 21
3366.608616782315
 31
0.0
  0
LINE
  5
7693
330
1F
100
AcDbEntity
  8
防水層
  6
Continuous
370
     0
100
AcDbLine
 10
2720.952200879332
 20
3367.009346782315
 30
0.0
 11
2721.625550879333
 21
3366.336006782315
 31
0.0
  0
LINE
  5
7694
330
1F
100
AcDbEntity
  8
防水層
  6
Continuous
370
     0
100
AcDbLine
 10
2721.583000879333
 20
3366.403136782314
 30
0.0
 11
2720.424710879332
 21
3365.244836782315
 31
0.0
  0
LINE
  5
7695
330
1F
100
AcDbEntity
  8
防水層
  6
Continuous
370
     0
100
AcDbLine
 10
2720.359950879333
 20
3366.187386782315
 30
0.0
 11
2721.341890879332
 21
3365.205446782315
 31
0.0
  0
ARC
  5
7696
330
1F
100
AcDbEntity
  8
防水層
  6
Continuous
370
     0
100
AcDbCircle
 10
2719.915320879332
 20
3365.299126782315
 30
0.0
 40
2.0
100
AcDbArc
 50
356.6131799999893
 51
76.100170999987
  0
LINE
  5
7697
330
1F
100
AcDbEntity
  8
防水層
  6
Continuous
370
     0
100
AcDbLine
 10
2720.396020879332
 20
3367.247906782316
 30
0.0
 11
2720.157710879332
 21
3367.258146782315
 31
0.0
  0
LINE
  5
7698
330
1F
100
AcDbEntity
  8
防水層
  6
Continuous
370
     0
100
AcDbLine
 10
2720.157710879332
 20
3367.258146782315
 30
0.0
 11
2720.155470879332
 21
3367.258236782316
 31
0.0
  0
LINE
  5
7699
330
1F
100
AcDbEntity
  8
防水層
  6
Continuous
370
     0
100
AcDbLine
 10
2720.396020879332
 20
3367.247906782316
 30
0.0
 11
2720.328030879333
 21
3365.248986782315
 31
0.0
  0
LINE
  5
769A
330
1F
100
AcDbEntity
  8
躯体
  6
Continuous
370
     0
100
AcDbLine
 10
2914.938480879333
 20
3181.611726782315
 30
0.0
 11
3687.925480879332
 21
3181.611726782315
 31
0.0
  0
LINE
  5
769B
330
1F
100
AcDbEntity
  8
ﾊｯﾁ
  6
Continuous
370
     0
100
AcDbLine
 10
3570.700180879332
 20
3361.611726782315
 30
0.0
 11
3390.700180879332
 21
3181.611726782315
 31
0.0
  0
LINE
  5
769C
330
1F
100
AcDbEntity
  8
躯体
  6
Continuous
370
     0
100
AcDbLine
 10
3688.751966295
 20
3361.611726782315
 30
0.0
 11
2704.311900879333
 21
3361.611726782315
 31
0.0
  0
LINE
  5
769D
330
1F
100
AcDbEntity
  8
ﾊｯﾁ
  6
Continuous
370
     0
100
AcDbLine
 10
3581.306780879333
 20
3361.611726782315
 30
0.0
 11
3401.306780879333
 21
3181.611726782315
 31
0.0
  0
LINE
  5
769E
330
1F
100
AcDbEntity
  8
ﾊｯﾁ
  6
Continuous
370
     0
100
AcDbLine
 10
3591.913380879333
 20
3361.611726782315
 30
0.0
 11
3411.913380879332
 21
3181.611726782315
 31
0.0
  0
LINE
  5
769F
330
1F
100
AcDbEntity
  8
ﾃﾞｨｽｸ板
  6
DASHED2
370
     0
100
AcDbLine
 10
3276.414680879332
 20
3338.451506782315
 30
0.0
 11
3282.414680879333
 21
3338.451506782315
 31
0.0
  0
LINE
  5
76A0
330
1F
100
AcDbEntity
  8
ﾃﾞｨｽｸ板
  6
DASHED2
370
     0
100
AcDbLine
 10
3274.215880879332
 20
3363.258976782315
 30
0.0
 11
3276.414680879332
 21
3361.851456782315
 31
0.0
  0
LINE
  5
76A1
330
1F
100
AcDbEntity
  8
ﾃﾞｨｽｸ板
  6
DASHED2
370
     0
100
AcDbLine
 10
3282.414680879333
 20
3361.851456782315
 30
0.0
 11
3284.931880879332
 21
3363.258976782315
 31
0.0
  0
LINE
  5
76A2
330
1F
100
AcDbEntity
  8
ﾃﾞｨｽｸ板
  6
DASHED2
370
     0
100
AcDbLine
 10
3276.414680879332
 20
3361.851456782315
 30
0.0
 11
3276.414680879332
 21
3338.451506782315
 31
0.0
  0
LINE
  5
76A3
330
1F
100
AcDbEntity
  8
ﾃﾞｨｽｸ板
  6
DASHED2
370
     0
100
AcDbLine
 10
3282.414680879333
 20
3338.451506782315
 30
0.0
 11
3282.414680879333
 21
3361.851456782315
 31
0.0
  0
LINE
  5
76A4
330
1F
100
AcDbEntity
  8
ﾃﾞｨｽｸ板
  6
DASHED2
370
     0
100
AcDbLine
 10
3274.215880879332
 20
3363.258976782315
 30
0.0
 11
3284.931880879332
 21
3363.258976782315
 31
0.0
  0
LINE
  5
76A5
330
1F
100
AcDbEntity
  8
ﾊｯﾁ
  6
Continuous
370
     0
100
AcDbLine
 10
3227.753380879332
 20
3361.611726782315
 30
0.0
 11
3047.753380879333
 21
3181.611726782315
 31
0.0
  0
POINT
  5
76A6
330
1F
100
AcDbEntity
  8
文字
  6
Continuous
370
     0
100
AcDbPoint
 10
2679.487000879332
 20
3197.157606782316
 30
0.0
  0
POINT
  5
76A7
330
1F
100
AcDbEntity
  8
文字
  6
Continuous
370
     0
100
AcDbPoint
 10
3279.486980879332
 20
3197.157606782316
 30
0.0
  0
LINE
  5
76A8
330
1F
100
AcDbEntity
  8
文字
  6
Continuous
370
     0
100
AcDbLine
 10
2679.487000879332
 20
3197.157606782316
 30
0.0
 11
2679.487000879332
 21
3247.157606782315
 31
0.0
  0
LINE
  5
76A9
330
1F
100
AcDbEntity
  8
文字
  6
Continuous
370
     0
100
AcDbLine
 10
3279.486980879332
 20
3197.157606782316
 30
0.0
 11
3279.486980879332
 21
3247.157606782315
 31
0.0
  0
LINE
  5
76AA
330
1F
100
AcDbEntity
  8
文字
  6
Continuous
370
     0
100
AcDbLine
 10
2679.487000879332
 20
3197.157606782316
 30
0.0
 11
3279.486980879332
 21
3197.157606782316
 31
0.0
  0
TEXT
  5
76AB
102
{ACAD_XDICTIONARY
360
76AC
102
}
330
1F
100
AcDbEntity
  8
文字
  6
Continuous
370
     0
100
AcDbText
 10
2960.736980879332
 20
3202.157606782316
 30
0.0
 40
25.0
  1
600
  7
NS横文字
100
AcDbText
1001
AcadAnnotative
1000
AnnotativeData
1002
{
1070
     1
1070
     1
1002
}
  0
LINE
  5
76B0
330
1F
100
AcDbEntity
  8
金物
  6
Continuous
370
     0
100
AcDbLine
 10
2680.060100879333
 20
3646.540976782315
 30
0.0
 11
2680.060100879333
 21
3634.732446782315
 31
0.0
  0
LINE
  5
76B1
330
1F
100
AcDbEntity
  8
金物
  6
Continuous
370
     0
100
AcDbLine
 10
2680.060100879333
 20
3616.491346782316
 30
0.0
 11
2679.198940879333
 21
3616.491346782316
 31
0.0
  0
LINE
  5
76B2
330
1F
100
AcDbEntity
  8
躯体
  6
Continuous
370
     0
100
AcDbLine
 10
2709.198940879332
 20
3711.534626782315
 30
0.0
 11
2679.198940879333
 21
3711.534626782315
 31
0.0
  0
LINE
  5
76B3
330
1F
100
AcDbEntity
  8
躯体
  6
Continuous
370
     0
100
AcDbLine
 10
2709.198940879332
 20
3925.557226782316
 30
0.0
 11
2709.198940879332
 21
3711.534626782315
 31
0.0
  0
LINE
  5
76B4
330
1F
100
AcDbEntity
  8
ﾊｯﾁ
  6
Continuous
370
     0
100
AcDbLine
 10
2684.390120879332
 20
3659.644866782315
 30
0.0
 11
2679.198940879333
 21
3654.453686782315
 31
0.0
  0
LINE
  5
76B5
330
1F
100
AcDbEntity
  8
ﾊｯﾁ
  6
Continuous
370
     0
100
AcDbLine
 10
2690.954770879333
 20
3652.067376782315
 30
0.0
 11
2685.378730879333
 21
3646.491346782315
 31
0.0
  0
LINE
  5
76B6
330
1F
100
AcDbEntity
  8
金物
  6
Continuous
370
     0
100
AcDbLine
 10
2689.198940879333
 20
3701.534646782315
 30
0.0
 11
2679.198940879333
 21
3701.534646782315
 31
0.0
  0
ARC
  5
76B7
330
1F
100
AcDbEntity
  8
金物
  6
Continuous
370
     0
100
AcDbCircle
 10
2715.598940879332
 20
3581.934646782315
 30
0.0
 40
0.4
100
AcDbArc
 50
180.0
 51
270.0
  0
ARC
  5
76B8
330
1F
100
AcDbEntity
  8
金物
  6
Continuous
370
     0
100
AcDbCircle
 10
2717.098940879332
 20
3583.434646782315
 30
0.0
 40
0.4
100
AcDbArc
 50
180.0
 51
270.0
  0
LINE
  5
76B9
330
1F
100
AcDbEntity
  8
金物
  6
Continuous
370
     0
100
AcDbLine
 10
2717.298940879333
 20
3583.034646782315
 30
0.0
 11
2717.098940879332
 21
3583.034646782315
 31
0.0
  0
LINE
  5
76BA
330
1F
100
AcDbEntity
  8
金物
  6
Continuous
370
     0
100
AcDbLine
 10
2717.698940879333
 20
3583.434646782315
 30
0.0
 11
2717.698940879333
 21
3658.046056782314
 31
0.0
  0
ARC
  5
76BB
330
1F
100
AcDbEntity
  8
金物
  6
Continuous
370
     0
100
AcDbCircle
 10
2717.298940879333
 20
3583.434646782315
 30
0.0
 40
0.4
100
AcDbArc
 50
270.0
 51
0.0
  0
LINE
  5
76BC
330
1F
100
AcDbEntity
  8
金物
  6
Continuous
370
     0
100
AcDbLine
 10
2716.698940879333
 20
3587.634646782316
 30
0.0
 11
2716.698940879333
 21
3583.434646782315
 31
0.0
  0
ARC
  5
76BD
330
1F
100
AcDbEntity
  8
金物
  6
Continuous
370
     0
100
AcDbCircle
 10
2716.298940879333
 20
3587.634646782316
 30
0.0
 40
0.4
100
AcDbArc
 50
0.0
 51
90.0
  0
LINE
  5
76BE
330
1F
100
AcDbEntity
  8
金物
  6
Continuous
370
     0
100
AcDbLine
 10
2715.598940879332
 20
3588.034646782315
 30
0.0
 11
2716.298940879333
 21
3588.034646782315
 31
0.0
  0
LINE
  5
76BF
330
1F
100
AcDbEntity
  8
金物
  6
Continuous
370
     0
100
AcDbLine
 10
2715.198940879333
 20
3587.634646782316
 30
0.0
 11
2715.198940879333
 21
3581.934646782315
 31
0.0
  0
ARC
  5
76C0
330
1F
100
AcDbEntity
  8
金物
  6
Continuous
370
     0
100
AcDbCircle
 10
2715.598940879332
 20
3587.634646782316
 30
0.0
 40
0.4
100
AcDbArc
 50
90.0
 51
180.0
  0
LINE
  5
76C1
330
1F
100
AcDbEntity
  8
金物
  6
Continuous
370
     0
100
AcDbLine
 10
2718.798940879333
 20
3581.534646782315
 30
0.0
 11
2715.598940879332
 21
3581.534646782315
 31
0.0
  0
ARC
  5
76C2
330
1F
100
AcDbEntity
  8
金物
  6
Continuous
370
     0
100
AcDbCircle
 10
2718.798940879333
 20
3581.934646782315
 30
0.0
 40
0.4
100
AcDbArc
 50
270.0
 51
0.0
  0
LINE
  5
76C3
330
1F
100
AcDbEntity
  8
金物
  6
Continuous
370
     0
100
AcDbLine
 10
2719.198940879333
 20
3661.225276782315
 30
0.0
 11
2719.198940879333
 21
3581.934646782315
 31
0.0
  0
ARC
  5
76C4
330
1F
100
AcDbEntity
  8
金物
  6
Continuous
370
     0
100
AcDbCircle
 10
2718.798940879333
 20
3661.225276782315
 30
0.0
 40
0.4
100
AcDbArc
 50
0.0
 51
75.43972400000909
  0
LINE
  5
76C5
330
1F
100
AcDbEntity
  8
金物
  6
Continuous
370
     0
100
AcDbLine
 10
2717.399500879332
 20
3660.452266782315
 30
0.0
 11
2679.198940879333
 21
3670.374486782316
 31
0.0
  0
LINE
  5
76C6
330
1F
100
AcDbEntity
  8
金物
  6
Continuous
370
     0
100
AcDbLine
 10
2717.698940879333
 20
3660.065106782314
 30
0.0
 11
2717.698940879333
 21
3658.046056782314
 31
0.0
  0
ARC
  5
76C7
330
1F
100
AcDbEntity
  8
金物
  6
Continuous
370
     0
100
AcDbCircle
 10
2717.298940879333
 20
3660.065106782314
 30
0.0
 40
0.4
100
AcDbArc
 50
0.0
 51
75.43972400000909
  0
LINE
  5
76C8
330
1F
100
AcDbEntity
  8
金物
  6
Continuous
370
     0
100
AcDbLine
 10
2680.998380879334
 20
3671.456876782315
 30
0.0
 11
2718.899500879332
 21
3661.612426782316
 31
0.0
  0
ARC
  5
76C9
330
1F
100
AcDbEntity
  8
金物
  6
Continuous
370
     0
100
AcDbCircle
 10
2681.098940879332
 20
3671.844026782316
 30
0.0
 40
0.4
100
AcDbArc
 50
180.0
 51
255.4397199999612
  0
LINE
  5
76CA
330
1F
100
AcDbEntity
  8
金物
  6
Continuous
370
     0
100
AcDbLine
 10
2689.198940879333
 20
3700.434646782315
 30
0.0
 11
2689.198940879333
 21
3701.534646782315
 31
0.0
  0
ARC
  5
76CB
330
1F
100
AcDbEntity
  8
金物
  6
Continuous
370
     0
100
AcDbCircle
 10
2688.798940879333
 20
3700.434646782315
 30
0.0
 40
0.4
100
AcDbArc
 50
270.0
 51
0.0
  0
LINE
  5
76CC
330
1F
100
AcDbEntity
  8
金物
  6
Continuous
370
     0
100
AcDbLine
 10
2681.098940879332
 20
3700.034646782315
 30
0.0
 11
2688.798940879333
 21
3700.034646782315
 31
0.0
  0
ARC
  5
76CD
330
1F
100
AcDbEntity
  8
金物
  6
Continuous
370
     0
100
AcDbCircle
 10
2681.098940879332
 20
3699.634646782315
 30
0.0
 40
0.4
100
AcDbArc
 50
90.0
 51
180.0
  0
LINE
  5
76CE
330
1F
100
AcDbEntity
  8
ﾊｯﾁ
  6
Continuous
370
     0
100
AcDbLine
 10
2679.198940879333
 20
3702.011776782315
 30
0.0
 11
2679.676070879332
 21
3701.534646782315
 31
0.0
  0
LINE
  5
76CF
330
1F
100
AcDbEntity
  8
ﾊｯﾁ
  6
Continuous
370
     0
100
AcDbLine
 10
2679.198940879333
 20
3709.082836782315
 30
0.0
 11
2686.747140879332
 21
3701.534646782315
 31
0.0
  0
LINE
  5
76D0
330
1F
100
AcDbEntity
  8
ﾊｯﾁ
  6
Continuous
370
     0
100
AcDbLine
 10
2689.198940879333
 20
3707.153446782315
 30
0.0
 11
2683.580140879332
 21
3701.534646782315
 31
0.0
  0
LINE
  5
76D1
330
1F
100
AcDbEntity
  8
ﾊｯﾁ
  6
Continuous
370
     0
100
AcDbLine
 10
2686.509080879333
 20
3711.534626782315
 30
0.0
 11
2679.198940879333
 21
3704.224516782315
 31
0.0
  0
LINE
  5
76D2
330
1F
100
AcDbEntity
  8
ﾊｯﾁ
  6
Continuous
370
     0
100
AcDbLine
 10
2683.818200879332
 20
3711.534626782315
 30
0.0
 11
2689.198940879333
 21
3706.153906782315
 31
0.0
  0
LINE
  5
76D3
330
1F
100
AcDbEntity
  8
金物
  6
DASHED2
370
     0
100
AcDbLine
 10
2630.989060879332
 20
3681.300016782315
 30
0.0
 11
2680.989060879332
 21
3681.300016782315
 31
0.0
  0
LINE
  5
76D4
330
1F
100
AcDbEntity
  8
金物
  6
DASHED2
370
     0
100
AcDbLine
 10
2680.989060879332
 20
3687.300016782315
 30
0.0
 11
2630.989060879332
 21
3687.300016782315
 31
0.0
  0
LINE
  5
76D5
330
1F
100
AcDbEntity
  8
金物
  6
DASHED2
370
     0
100
AcDbLine
 10
2630.989060879332
 20
3687.300016782315
 30
0.0
 11
2630.989060879332
 21
3681.300016782315
 31
0.0
  0
ARC
  5
76D6
330
1F
100
AcDbEntity
  8
金物
  6
Continuous
370
     0
100
AcDbCircle
 10
2680.415790879332
 20
3684.300016782315
 30
0.0
 40
6.0
100
AcDbArc
 50
276.4740699999634
 51
83.52592100001093
  0
ARC
  5
76D7
330
1F
100
AcDbEntity
  8
金物
  6
Continuous
370
     0
100
AcDbCircle
 10
2680.415790879332
 20
3684.300016782315
 30
0.0
 40
6.0
100
AcDbArc
 50
276.4740699999634
 51
83.52592100001093
  0
ARC
  5
76D8
330
1F
100
AcDbEntity
  8
ﾊｯﾁ
  6
Continuous
370
     0
100
AcDbCircle
 10
2676.987060879332
 20
3646.598996782316
 30
0.0
 40
15.0
100
AcDbArc
 50
359.5888099999884
 51
81.52031299998187
  0
LINE
  5
76D9
330
1F
100
AcDbEntity
  8
ﾊｯﾁ
  6
Continuous
370
     0
100
AcDbLine
 10
2679.198940879333
 20
3658.804926782315
 30
0.0
 11
2691.512530879332
 21
3646.491346782315
 31
0.0
  0
LINE
  5
76DA
330
1F
100
AcDbEntity
  8
ﾊｯﾁ
  6
Continuous
370
     0
100
AcDbLine
 10
2679.198940879333
 20
3651.733856782315
 30
0.0
 11
2684.441460879332
 21
3646.491346782315
 31
0.0
  0
LINE
  5
76DB
330
1F
100
AcDbEntity
  8
ﾊｯﾁ
  6
Continuous
370
     0
100
AcDbLine
 10
2688.283720879332
 20
3656.467406782315
 30
0.0
 11
2679.198940879333
 21
3647.382626782315
 31
0.0
  0
LINE
  5
76DC
330
1F
100
AcDbEntity
  8
金物
  6
Continuous
370
     0
100
AcDbLine
 10
2692.364840879333
 20
3646.540976782315
 30
0.0
 11
2680.060100879334
 21
3646.540976782315
 31
0.0
  0
LINE
  5
76DD
330
1F
100
AcDbEntity
  8
金物
  6
Continuous
370
     0
100
AcDbLine
 10
2680.060100879333
 20
3634.732446782315
 30
0.0
 11
2680.060100879333
 21
3628.732446782315
 31
0.0
  0
LINE
  5
76DE
330
1F
100
AcDbEntity
  8
文字
  6
Continuous
370
     0
100
AcDbLine
 10
2687.199000879333
 20
3707.361356782315
 30
0.0
 11
2830.258980879333
 21
3966.614526782315
 31
0.0
  0
TEXT
  5
76DF
102
{ACAD_XDICTIONARY
360
76E0
102
}
330
1F
100
AcDbEntity
  8
文字
  6
Continuous
370
     0
100
AcDbText
 10
2834.984480879331
 20
3977.105324066753
 30
0.0
 40
20.0
  1
変性シリコンシーリング１５mm×１０mm
  7
NS横文字
100
AcDbText
1001
AcadAnnotative
1000
AnnotativeData
1002
{
1070
     1
1070
     1
1002
}
  0
LINE
  5
76E4
330
1F
100
AcDbEntity
  8
文字
  6
Continuous
370
     0
100
AcDbLine
 10
2830.258980879333
 20
3966.614526782315
 30
0.0
 11
3199.889280879332
 21
3966.614526782315
 31
0.0
  0
LINE
  5
76E5
330
1F
100
AcDbEntity
  8
文字
  6
Continuous
370
     0
100
AcDbLine
 10
2894.897580879333
 20
3627.464036782316
 30
0.0
 11
3309.879780879331
 21
3627.464036782316
 31
0.0
  0
LINE
  5
76E6
330
1F
100
AcDbEntity
  8
文字
  6
Continuous
370
     0
100
AcDbLine
 10
2680.123220879332
 20
3388.402256782315
 30
0.0
 11
2894.897580879333
 21
3627.464036782316
 31
0.0
  0
LINE
  5
76E7
330
1F
100
AcDbEntity
  8
躯体
  6
Continuous
370
     0
100
AcDbLine
 10
2479.369300879333
 20
3361.611726782315
 30
0.0
 11
2325.723810879332
 21
3361.611726782315
 31
0.0
  0
LINE
  5
76E8
330
1F
100
AcDbEntity
  8
防水層
  6
Continuous
370
     0
100
AcDbLine
 10
2681.433480879332
 20
3369.879126782315
 30
0.0
 11
2681.433480879332
 21
3591.135796782315
 31
0.0
  0
LINE
  5
76E9
330
1F
100
AcDbEntity
  8
防水層
  6
Continuous
370
     0
100
AcDbLine
 10
2682.390570879332
 20
3368.880046782315
 30
0.0
 11
2720.155470879332
 21
3367.258236782316
 31
0.0
  0
ARC
  5
76EA
330
1F
100
AcDbEntity
  8
防水層
  6
Continuous
370
     0
100
AcDbCircle
 10
2682.433480879332
 20
3369.879126782315
 30
0.0
 40
1.0
100
AcDbArc
 50
180.0
 51
267.5409500000311
  0
LINE
  5
76EB
330
1F
100
AcDbEntity
  8
防水層
  6
Continuous
370
     0
100
AcDbLine
 10
2680.444100879333
 20
3366.961796782315
 30
0.0
 11
2682.162200879333
 21
3366.888006782315
 31
0.0
  0
ARC
  5
76EC
330
1F
100
AcDbEntity
  8
防水層
  6
Continuous
370
     0
100
AcDbCircle
 10
2680.487000879332
 20
3367.960866782315
 30
0.0
 40
1.0
100
AcDbArc
 50
180.0
 51
267.5409500000311
  0
LINE
  5
76ED
330
1F
100
AcDbEntity
  8
ﾃﾞｨｽｸ板
  6
Continuous
370
     0
100
AcDbLine
 10
3235.675780879332
 20
3362.151456782316
 30
0.0
 11
3235.675780879332
 21
3363.071636782315
 31
0.0
  0
LINE
  5
76EE
330
1F
100
AcDbEntity
  8
ﾃﾞｨｽｸ板
  6
Continuous
370
     0
100
AcDbLine
 10
3235.975780879333
 20
3361.851456782315
 30
0.0
 11
3276.414680879332
 21
3361.851456782315
 31
0.0
  0
ARC
  5
76EF
330
1F
100
AcDbEntity
  8
ﾃﾞｨｽｸ板
  6
Continuous
370
     0
100
AcDbCircle
 10
3235.975780879333
 20
3362.151456782316
 30
0.0
 40
0.3
100
AcDbArc
 50
180.0
 51
270.0
  0
ARC
  5
76F0
330
1F
100
AcDbEntity
  8
ﾃﾞｨｽｸ板
  6
Continuous
370
     0
100
AcDbCircle
 10
3322.375780879332
 20
3363.071636782315
 30
0.0
 40
0.3
100
AcDbArc
 50
0.0
 51
90.0
  0
LINE
  5
76F1
330
1F
100
AcDbEntity
  8
ﾃﾞｨｽｸ板
  6
Continuous
370
     0
100
AcDbLine
 10
3322.375780879332
 20
3361.871636782315
 30
0.0
 11
3282.414680879333
 21
3361.871636782315
 31
0.0
  0
LINE
  5
76F2
330
1F
100
AcDbEntity
  8
ﾃﾞｨｽｸ板
  6
Continuous
370
     0
100
AcDbLine
 10
3322.675780879332
 20
3362.171636782315
 30
0.0
 11
3322.675780879332
 21
3363.071636782315
 31
0.0
  0
ARC
  5
76F3
330
1F
100
AcDbEntity
  8
ﾃﾞｨｽｸ板
  6
Continuous
370
     0
100
AcDbCircle
 10
3322.375780879332
 20
3362.171636782315
 30
0.0
 40
0.3
100
AcDbArc
 50
270.0
 51
0.0
  0
ARC
  5
76F4
330
1F
100
AcDbEntity
  8
防水層
  6
Continuous
370
     0
100
AcDbCircle
 10
3230.800480879332
 20
3364.611726782315
 30
0.0
 40
1.0
100
AcDbArc
 50
270.0
 51
290.5526100000353
  0
LINE
  5
76F5
330
1F
100
AcDbEntity
  8
防水層
  6
Continuous
370
     0
100
AcDbLine
 10
3235.505980879332
 20
3365.307986782315
 30
0.0
 11
3231.151580879332
 21
3363.675366782315
 31
0.0
  0
ARC
  5
76F6
330
1F
100
AcDbEntity
  8
防水層
  6
Continuous
370
     0
100
AcDbCircle
 10
3235.857080879332
 20
3364.371636782315
 30
0.0
 40
1.0
100
AcDbArc
 50
90.0
 51
110.5526100000353
  0
LINE
  5
76F7
330
1F
100
AcDbEntity
  8
防水層
  6
Continuous
370
     0
100
AcDbLine
 10
3235.493380879332
 20
3363.296806782315
 30
0.0
 11
3231.385780879333
 21
3361.611726782315
 31
0.0
  0
LINE
  5
76F8
330
1F
100
AcDbEntity
  8
ﾃﾞｨｽｸ板
  6
Continuous
370
     0
100
AcDbLine
 10
3235.872880879333
 20
3363.371636782315
 30
0.0
 11
3274.039880879332
 21
3363.371636782315
 31
0.0
  0
ARC
  5
76F9
330
1F
100
AcDbEntity
  8
防水層
  6
Continuous
370
     0
100
AcDbCircle
 10
3235.872880879333
 20
3362.371636782314
 30
0.0
 40
1.0
100
AcDbArc
 50
90.0
 51
112.3052899999961
  0
LINE
  5
76FA
330
1F
100
AcDbEntity
  8
防水層
  6
Continuous
370
     0
100
AcDbLine
 10
3328.621980879332
 20
3363.851456782315
 30
0.0
 11
3688.793612663802
 21
3363.851456782315
 31
0.0
  0
ARC
  5
76FB
330
1F
100
AcDbEntity
  8
防水層
  6
Continuous
370
     0
100
AcDbCircle
 10
3328.621980879332
 20
3364.851456782315
 30
0.0
 40
1.0
100
AcDbArc
 50
255.3560000000449
 51
270.0
  0
LINE
  5
76FC
330
1F
100
AcDbEntity
  8
防水層
  6
Continuous
370
     0
100
AcDbLine
 10
3322.800080879333
 20
3365.339146782315
 30
0.0
 11
3328.369180879332
 21
3363.883936782315
 31
0.0
  0
ARC
  5
76FD
330
1F
100
AcDbEntity
  8
防水層
  6
Continuous
370
     0
100
AcDbCircle
 10
3322.547280879333
 20
3364.371636782315
 30
0.0
 40
1.0
100
AcDbArc
 50
75.35600900002075
 51
90.0
  0
LINE
  5
76FE
330
1F
100
AcDbEntity
  8
ﾃﾞｨｽｸ板
  6
Continuous
370
     0
100
AcDbLine
 10
3322.542080879332
 20
3363.371636782315
 30
0.0
 11
3285.133380879332
 21
3363.371636782315
 31
0.0
  0
LINE
  5
76FF
330
1F
100
AcDbEntity
  8
防水層
  6
Continuous
370
     0
100
AcDbLine
 10
3322.804680879332
 20
3363.336556782315
 30
0.0
 11
3329.143880879332
 21
3361.611726782315
 31
0.0
  0
ARC
  5
7700
330
1F
100
AcDbEntity
  8
防水層
  6
Continuous
370
     0
100
AcDbCircle
 10
3322.542080879332
 20
3362.371636782314
 30
0.0
 40
1.0
100
AcDbArc
 50
74.77886500000491
 51
90.0
  0
LINE
  5
7701
330
1F
100
AcDbEntity
  8
躯体
  6
Continuous
370
     0
100
AcDbLine
 10
2679.198940879333
 20
3711.534626782315
 30
0.0
 11
2679.198940879333
 21
3687.300016782315
 31
0.0
  0
LINE
  5
7702
330
1F
100
AcDbEntity
  8
金物
  6
Continuous
370
     0
100
AcDbLine
 10
2680.698940879333
 20
3699.634646782315
 30
0.0
 11
2680.698940879333
 21
3687.300016782315
 31
0.0
  0
LINE
  5
7703
330
1F
100
AcDbEntity
  8
金物
  6
Continuous
370
     0
100
AcDbLine
 10
2680.698940879333
 20
3681.300016782315
 30
0.0
 11
2680.698940879333
 21
3671.844026782316
 31
0.0
  0
LINE
  5
7704
330
1F
100
AcDbEntity
  8
躯体
  6
Continuous
370
     0
100
AcDbLine
 10
2679.198940879333
 20
3681.300016782315
 30
0.0
 11
2679.198940879333
 21
3624.730276782315
 31
0.0
  0
LINE
  5
7705
330
1F
100
AcDbEntity
  8
金物
  6
Continuous
370
     0
100
AcDbLine
 10
2680.060100879333
 20
3628.732446782315
 30
0.0
 11
2680.060100879333
 21
3624.730276782315
 31
0.0
  0
LINE
  5
7706
330
1F
100
AcDbEntity
  8
躯体
  6
Continuous
370
     0
100
AcDbLine
 10
2679.198940879333
 20
3618.730276782315
 30
0.0
 11
2679.198940879333
 21
3596.523706782315
 31
0.0
  0
LINE
  5
7707
330
1F
100
AcDbEntity
  8
金物
  6
Continuous
370
     0
100
AcDbLine
 10
2680.060100879333
 20
3618.730276782315
 30
0.0
 11
2680.060100879333
 21
3616.491346782316
 31
0.0
  0
MTEXT
  5
7708
102
{ACAD_XDICTIONARY
360
7709
102
}
330
1F
100
AcDbEntity
  8
枠
  6
ByBlock
370
     0
100
AcDbMText
 10
5372.726130483396
 20
194.3415747380259
 30
0.0
 40
29.166666665625
 41
693.20895481924
 46
0.0
 71
     1
 72
     5
  1
塩化ビニル樹脂系シート防水
  7
NS横文字
 73
     1
 44
1.0
1001
ACAD
1000
ACAD_MTEXT_DEFINED_HEIGHT_BEGIN
1070
    46
1040
0.0
1000
ACAD_MTEXT_DEFINED_HEIGHT_END
1001
AcadAnnotative
1000
AnnotativeData
1002
{
1070
     1
1070
     1
1002
}
  0
MTEXT
  5
770D
102
{ACAD_XDICTIONARY
360
770E
102
}
330
1F
100
AcDbEntity
  8
枠
  6
ByBlock
370
     0
100
AcDbMText
 10
5371.8335400945
 20
44.66864501300551
 30
0.0
 40
26.2499999990625
 41
377.3680899283195
 46
30.09194474045762
 71
     1
 72
     5
  1
令和３年１月
  7
NS横文字
 73
     1
 44
1.0
1001
ACAD
1000
ACAD_MTEXT_DEFINED_HEIGHT_BEGIN
1070
    46
1040
0.0
1000
ACAD_MTEXT_DEFINED_HEIGHT_END
1001
AcadAnnotative
1000
AnnotativeData
1002
{
1070
     1
1070
     1
1002
}
  0
MTEXT
  5
7712
102
{ACAD_XDICTIONARY
360
7713
102
}
330
1F
100
AcDbEntity
  8
枠
  6
ByBlock
370
     0
100
AcDbMText
 10
5353.97050385912
 20
62.82148636799502
 30
0.0
 40
13.12499999953125
 41
194.9454546961453
 46
0.0
 71
     1
 72
     5
  1
更新日
  7
NS横文字
 73
     1
 44
1.0
1001
ACAD
1000
ACAD_MTEXT_DEFINED_HEIGHT_BEGIN
1070
    46
1040
0.0
1000
ACAD_MTEXT_DEFINED_HEIGHT_END
1001
AcadAnnotative
1000
AnnotativeData
1002
{
1070
     1
1070
     1
1002
}
  0
MTEXT
  5
7717
102
{ACAD_XDICTIONARY
360
7718
102
}
330
1F
100
AcDbEntity
  8
枠
  6
ByBlock
370
     0
100
AcDbMText
 10
5372.726130483396
 20
123.9941802105222
 30
0.0
 40
29.166666665625
 41
548.8407542955995
 46
0.0
 71
     1
 72
     5
  1
壁面　機械固定工法
  7
NS横文字
 73
     1
 44
1.0
1001
ACAD
1000
ACAD_MTEXT_DEFINED_HEIGHT_BEGIN
1070
    46
1040
0.0
1000
ACAD_MTEXT_DEFINED_HEIGHT_END
1001
AcadAnnotative
1000
AnnotativeData
1002
{
1070
     1
1070
     1
1002
}
  0
DIMENSION
  5
7741
102
{ACAD_XDICTIONARY
360
7742
102
}
330
1F
100
AcDbEntity
  8
寸法
370
     0
100
AcDbDimension
280
     0
  2
*D4
 10
376.0097958743557
 20
3338.338333409341
 30
0.0
 11
364.7915148375217
 21
3488.30838340934
 31
0.0
 70
    32
  1
300
 71
     5
 42
299.9400999999998
 73
     0
 74
     0
 75
     0
  3
NS寸法
100
AcDbAlignedDimension
 13
476.3345850154055
 23
3638.278433409339
 33
0.0
 14
485.1444811411292
 24
3338.338333409339
 34
0.0
 50
90.0
100
AcDbRotatedDimension
1001
AcadAnnotative
1000
AnnotativeData
1002
{
1070
     1
1070
     1
1002
}
  0
DIMENSION
  5
7746
102
{ACAD_XDICTIONARY
360
7747
102
}
330
1F
100
AcDbEntity
  8
寸法
370
     0
100
AcDbDimension
280
     0
  2
*D5
 10
929.8193553634332
 20
3638.338333409342
 30
0.0
 11
918.6078956090002
 21
3724.099683409342
 31
0.0
 70
    32
  1
170
 71
     5
 42
171.5227000000004
 73
     0
 74
     0
 75
     0
  3
NS寸法
100
AcDbAlignedDimension
 13
856.1223205604528
 23
3809.861033409341
 33
0.0
 14
856.0836205604537
 24
3638.338333409341
 34
0.0
 50
90.0
100
AcDbRotatedDimension
1001
AcadAnnotative
1000
AnnotativeData
1002
{
1070
     1
1070
     1
1002
}
  0
DIMENSION
  5
774B
102
{ACAD_XDICTIONARY
360
774C
102
}
330
1F
100
AcDbEntity
  8
寸法
370
     0
100
AcDbDimension
280
     0
  2
*D6
 10
794.0978857574773
 20
4039.1856363905
 30
0.0
 11
649.0978857574773
 21
4050.397096144934
 31
0.0
 70
    32
 71
     5
 42
290.0
 73
     0
 74
     0
 75
     0
  3
NS寸法
100
AcDbAlignedDimension
 13
504.0978857574773
 23
3917.88698489992
 33
0.0
 14
794.0978857574773
 24
3917.88698489992
 34
0.0
100
AcDbRotatedDimension
1001
AcadAnnotative
1000
AnnotativeData
1002
{
1070
     1
1070
     1
1002
}
  0
DIMENSION
  5
7750
102
{ACAD_XDICTIONARY
360
7751
102
}
330
1F
100
AcDbEntity
  8
寸法
370
     0
100
AcDbDimension
280
     0
  2
*D7
 10
704.0291857574775
 20
4002.092322359692
 30
0.0
 11
749.0635357574774
 21
4013.303782114126
 31
0.0
 70
    32
  1
90
 71
     5
 42
90.06869999999981
 73
     0
 74
     0
 75
     0
  3
NS寸法
100
AcDbAlignedDimension
 13
794.0978857574773
 23
3975.464672695773
 33
0.0
 14
704.0291857574775
 24
4002.092322359692
 34
0.0
100
AcDbRotatedDimension
1001
AcadAnnotative
1000
AnnotativeData
1002
{
1070
     1
1070
     1
1002
}
  0
DIMENSION
  5
7755
102
{ACAD_XDICTIONARY
360
7756
102
}
330
1F
100
AcDbEntity
  8
寸法
370
     0
100
AcDbDimension
280
     0
  2
*D8
 10
2709.364780879332
 20
4042.335388554455
 30
0.0
 11
2594.399130879332
 21
4053.55366959129
 31
0.0
 70
    32
  1
230
 71
     5
 42
229.9313000000002
 73
     0
 74
     0
 75
     0
  3
NS寸法
100
AcDbAlignedDimension
 13
2479.433480879332
 23
3983.683999507262
 33
0.0
 14
2709.364780879332
 24
3983.683999507262
 34
0.0
100
AcDbRotatedDimension
1001
AcadAnnotative
1000
AnnotativeData
1002
{
1070
     1
1070
     1
1002
}
  0
LINE
  5
7761
330
1F
100
AcDbEntity
  8
ﾊｯﾁ
370
     0
100
AcDbLine
 10
704.0291857574775
 20
3832.528933409339
 30
0.0
 11
704.0291857574775
 21
3817.528933409338
 31
0.0
  0
DIMENSION
  5
7762
102
{ACAD_XDICTIONARY
360
7763
102
}
330
1F
100
AcDbEntity
  8
寸法
370
     0
100
AcDbDimension
280
     0
  2
*D9
 10
704.8838857574773
 20
3245.85844603771
 30
0.0
 11
724.8509057574774
 21
3245.85844603771
 31
0.0
 70
   160
  1
40
 71
     5
 42
39.9340400000001
 73
     0
 74
     0
 75
     0
  3
NS寸法
100
AcDbAlignedDimension
 13
744.8179257574775
 23
3292.921940301952
 33
0.0
 14
704.8838857574773
 24
3292.495172192499
 34
0.0
100
AcDbRotatedDimension
1001
AcadAnnotative
1000
AnnotativeData
1002
{
1070
     1
1070
     1
1002
}
  0
DIMENSION
  5
7767
102
{ACAD_XDICTIONARY
360
7768
102
}
330
1F
100
AcDbEntity
  8
寸法
370
     0
100
AcDbDimension
280
     0
  2
*D10
 10
2680.219500879332
 20
3269.131839410686
 30
0.0
 11
2700.186520879332
 21
3269.131839410686
 31
0.0
 70
   160
  1
40
 71
     5
 42
39.9340400000001
 73
     0
 74
     0
 75
     0
  3
NS寸法
100
AcDbAlignedDimension
 13
2720.153540879332
 23
3316.195333674929
 33
0.0
 14
2680.219500879332
 24
3315.768565565476
 34
0.0
100
AcDbRotatedDimension
1001
AcadAnnotative
1000
AnnotativeData
1002
{
1070
     1
1070
     1
1002
}
  0
LINE
  5
776C
330
1F
100
AcDbEntity
  8
ﾊｯﾁ
370
     0
100
AcDbLine
 10
2689.198940879333
 20
3701.534646782315
 30
0.0
 11
2689.198940879333
 21
3711.534626782315
 31
0.0
  0
LINE
  5
776D
330
1F
100
AcDbEntity
  8
防水層
370
     0
100
AcDbLine
 10
3322.547280879333
 20
3365.371636782314
 30
0.0
 11
3235.857080879332
 21
3365.371636782314
 31
0.0
  0
LINE
  5
7ABC
330
1F
100
AcDbEntity
  8
防水層
370
     0
100
AcDbLine
 10
705.0291857574775
 20
3573.267533409339
 30
0.0
 11
704.0556721525277
 21
3573.267533409339
 31
0.0
  0
LINE
  5
7ABE
330
1F
100
AcDbEntity
  8
防水層
370
     0
100
AcDbLine
 10
705.0291857574775
 20
3623.26753340934
 30
0.0
 11
704.0353014185045
 21
3623.26753340934
 31
0.0
  0
LINE
  5
7AC1
330
1F
100
AcDbEntity
  8
防水層
370
     0
100
AcDbLine
 10
2680.060100879333
 20
3646.540976782315
 30
0.0
 11
2679.198940879333
 21
3646.540976782315
 31
0.0
  0
LINE
  5
7AC2
330
1F
100
AcDbEntity
  8
防水層
370
     0
100
AcDbLine
 10
2680.364840879333
 20
3596.540976782315
 30
0.0
 11
2679.198940879333
 21
3596.540976782315
 31
0.0
  0
VIEWPORT
  5
34A6
102
{ACAD_XDICTIONARY
360
34A7
102
}
330
349F
100
AcDbEntity
 67
     1
  8
0
100
AcDbViewport
 10
148.500000691507
 20
114.5047469001322
 30
0.0
 40
372.4672499884247
 41
230.7871237966555
 68
     1
 69
     1
 12
148.500000691507
 22
114.5047469001322
 13
0.0
 23
0.0
 14
10.0
 24
10.0
 15
10.0
 25
10.0
 16
0.0
 26
0.0
 36
1.0
 17
0.0
 27
0.0
 37
0.0
 42
50.0
 43
0.0
 44
0.0
 45
230.7871237966555
 50
0.0
 51
0.0
 72
  1000
 90
   557088
  1

281
     0
 71
     1
 74
     0
110
0.0
120
0.0
130
0.0
111
1.0
121
0.0
131
0.0
112
0.0
122
1.0
132
0.0
 79
     0
146
0.0
170
     0
 61
     5
348
F5
292
     1
282
     1
141
0.0
142
0.0
 63
   250
421
  3355443
  0
VIEWPORT
  5
4018
102
{ACAD_XDICTIONARY
360
4019
102
}
330
349F
100
AcDbEntity
 67
     1
  8
0
100
AcDbViewport
 10
148.5
 20
105.0
 30
0.0
 40
297.0
 41
210.0
 68
     2
 69
     2
 12
3037.5
 22
2114.999999999999
 13
0.0
 23
0.0
 14
10.0
 24
10.0
 15
10.0
 25
10.0
 16
0.0
 26
0.0
 36
1.0
 17
0.0
 27
0.0
 37
0.0
 42
50.0
 43
0.0
 44
0.0
 45
4322.13557107075
 50
0.0
 51
0.0
 72
  1000
 90
   819296
  1

281
     0
 71
     1
 74
     0
110
0.0
120
0.0
130
0.0
111
1.0
121
0.0
131
0.0
112
0.0
122
1.0
132
0.0
 79
     0
146
0.0
170
     0
 61
     5
348
F5
292
     1
282
     1
141
0.0
142
0.0
 63
   250
421
  3355443
  0
ENDSEC
  0
SECTION
  2
OBJECTS
  0
DICTIONARY
  5
C
330
0
100
AcDbDictionary
281
     1
  3
ACAD_CIP_PREVIOUS_PRODUCT_INFO
350
216
  3
ACAD_COLOR
350
6B
  3
ACAD_DETAILVIEWSTYLE
350
21B
  3
ACAD_GROUP
350
D
  3
ACAD_LAYOUT
350
1A
  3
ACAD_MATERIAL
350
6A
  3
ACAD_MLEADERSTYLE
350
12D
  3
ACAD_MLINESTYLE
350
17
  3
ACAD_PLOTSETTINGS
350
19
  3
ACAD_PLOTSTYLENAME
350
E
  3
ACAD_SCALELIST
350
10C
  3
ACAD_SECTIONVIEWSTYLE
350
219
  3
ACAD_TABLESTYLE
350
7E
  3
ACAD_VISUALSTYLE
350
EF
  3
ACDB_RECOMPOSE_DATA
350
7CD8
  3
AcDbVariableDictionary
350
5E
  0
DICTIONARY
  5
1FF
330
2
100
AcDbDictionary
280
     1
281
     1
  3
ACAD_LAYERSTATES
360
200
  0
DICTIONARY
  5
13C
330
10
100
AcDbDictionary
280
     1
281
     1
  0
DICTIONARY
  5
45A
330
459
100
AcDbDictionary
280
     1
281
     1
  0
DICTIONARY
  5
45C
330
45B
100
AcDbDictionary
280
     1
281
     1
  0
DICTIONARY
  5
45E
330
45D
100
AcDbDictionary
280
     1
281
     1
  0
DICTIONARY
  5
460
330
45F
100
AcDbDictionary
280
     1
281
     1
  0
DICTIONARY
  5
1855
330
1854
100
AcDbDictionary
280
     1
281
     1
  0
DICTIONARY
  5
405D
330
405C
100
AcDbDictionary
280
     1
281
     1
  0
DICTIONARY
  5
1CE
330
1F
100
AcDbDictionary
280
     1
281
     1
  3
ACAD_SORTENTS
360
30F
  0
DICTIONARY
  5
3FE3
330
3FE2
100
AcDbDictionary
280
     1
281
     1
  3
ASDK_XREC_ANNOTATION_SCALE_INFO
360
3FE4
  0
DICTIONARY
  5
4024
330
4023
100
AcDbDictionary
280
     1
281
     1
  3
ASDK_XREC_ANNOTATION_SCALE_INFO
360
4025
  0
DICTIONARY
  5
7471
330
7470
100
AcDbDictionary
280
     1
281
     1
  3
AcDbContextDataManager
360
7472
  0
DICTIONARY
  5
7484
330
7483
100
AcDbDictionary
280
     1
281
     1
  3
AcDbContextDataManager
360
7485
  0
DICTIONARY
  5
7489
330
7488
100
AcDbDictionary
280
     1
281
     1
  3
AcDbContextDataManager
360
748A
  0
DICTIONARY
  5
74A6
330
74A5
100
AcDbDictionary
280
     1
281
     1
  3
AcDbContextDataManager
360
74A7
  0
DICTIONARY
  5
74AC
330
74AB
100
AcDbDictionary
280
     1
281
     1
  3
AcDbContextDataManager
360
74AD
  0
DICTIONARY
  5
74D7
330
74D6
100
AcDbDictionary
280
     1
281
     1
  3
AcDbContextDataManager
360
74D8
  0
DICTIONARY
  5
74DD
330
74DC
100
AcDbDictionary
280
     1
281
     1
  3
AcDbContextDataManager
360
74DE
  0
DICTIONARY
  5
753E
330
753D
100
AcDbDictionary
280
     1
281
     1
  3
AcDbContextDataManager
360
753F
  0
DICTIONARY
  5
7544
330
7543
100
AcDbDictionary
280
     1
281
     1
  3
AcDbContextDataManager
360
7545
  0
DICTIONARY
  5
764C
330
764B
100
AcDbDictionary
280
     1
281
     1
  3
AcDbContextDataManager
360
764D
  0
DICTIONARY
  5
7664
330
7663
100
AcDbDictionary
280
     1
281
     1
  3
AcDbContextDataManager
360
7665
  0
DICTIONARY
  5
7669
330
7668
100
AcDbDictionary
280
     1
281
     1
  3
AcDbContextDataManager
360
766A
  0
DICTIONARY
  5
76AC
330
76AB
100
AcDbDictionary
280
     1
281
     1
  3
AcDbContextDataManager
360
76AD
  0
DICTIONARY
  5
76E0
330
76DF
100
AcDbDictionary
280
     1
281
     1
  3
AcDbContextDataManager
360
76E1
  0
DICTIONARY
  5
7709
330
7708
100
AcDbDictionary
280
     1
281
     1
  3
AcDbContextDataManager
360
770A
  0
DICTIONARY
  5
770E
330
770D
100
AcDbDictionary
280
     1
281
     1
  3
AcDbContextDataManager
360
770F
  0
DICTIONARY
  5
7713
330
7712
100
AcDbDictionary
280
     1
281
     1
  3
AcDbContextDataManager
360
7714
  0
DICTIONARY
  5
7718
330
7717
100
AcDbDictionary
280
     1
281
     1
  3
AcDbContextDataManager
360
7719
  0
DICTIONARY
  5
7742
330
7741
100
AcDbDictionary
280
     1
281
     1
  3
AcDbContextDataManager
360
7743
  0
DICTIONARY
  5
7747
330
7746
100
AcDbDictionary
280
     1
281
     1
  3
AcDbContextDataManager
360
7748
  0
DICTIONARY
  5
774C
330
774B
100
AcDbDictionary
280
     1
281
     1
  3
AcDbContextDataManager
360
774D
  0
DICTIONARY
  5
7751
330
7750
100
AcDbDictionary
280
     1
281
     1
  3
AcDbContextDataManager
360
7752
  0
DICTIONARY
  5
7756
330
7755
100
AcDbDictionary
280
     1
281
     1
  3
AcDbContextDataManager
360
7757
  0
DICTIONARY
  5
7763
330
7762
100
AcDbDictionary
280
     1
281
     1
  3
AcDbContextDataManager
360
7764
  0
DICTIONARY
  5
7768
330
7767
100
AcDbDictionary
280
     1
281
     1
  3
AcDbContextDataManager
360
7769
  0
DICTIONARY
  5
34A7
330
34A6
100
AcDbDictionary
280
     1
281
     1
  3
ASDK_XREC_ANNOTATION_SCALE_INFO
360
34A8
  0
DICTIONARY
  5
4019
330
4018
100
AcDbDictionary
280
     1
281
     1
  3
ASDK_XREC_ANNOTATION_SCALE_INFO
360
401A
  0
XRECORD
  5
216
102
{ACAD_REACTORS
330
C
102
}
330
C
100
AcDbXrecord
280
     1
300
ACDLT
300
2021
300

  0
DICTIONARY
  5
6B
102
{ACAD_REACTORS
330
C
102
}
330
C
100
AcDbDictionary
281
     1
  0
DICTIONARY
  5
21B
102
{ACAD_REACTORS
330
C
102
}
330
C
100
AcDbDictionary
281
     1
  3
Imperial24
350
483
  3
Metric50
350
21C
  0
DICTIONARY
  5
D
102
{ACAD_REACTORS
330
C
102
}
330
C
100
AcDbDictionary
281
     1
  0
DICTIONARY
  5
1A
102
{ACAD_REACTORS
330
C
102
}
330
C
100
AcDbDictionary
281
     1
  3
A4　縦
350
3FD5
  3
A4横
350
34A0
  3
Model
350
22
  0
DICTIONARY
  5
6A
102
{ACAD_REACTORS
330
C
102
}
330
C
100
AcDbDictionary
281
     1
  3
ByBlock
350
ED
  3
ByLayer
350
EC
  3
Global
350
EE
  0
DICTIONARY
  5
12D
102
{ACAD_REACTORS
330
C
102
}
330
C
100
AcDbDictionary
281
     1
  3
Annotative
350
13B
  3
NSマルチ引出線
350
371
  3
Standard
350
12E
  3
style1
350
1860
  3
style2
350
481
  0
DICTIONARY
  5
17
102
{ACAD_REACTORS
330
C
102
}
330
C
100
AcDbDictionary
281
     1
  3
Standard
350
18
  0
DICTIONARY
  5
19
102
{ACAD_REACTORS
330
C
102
}
330
C
100
AcDbDictionary
281
     1
  3
A4 縦　モノクロ
350
3FF1
  3
A4　横　モノクロ
350
34EA
  0
ACDBDICTIONARYWDFLT
  5
E
102
{ACAD_REACTORS
330
C
102
}
330
C
100
AcDbDictionary
281
     1
  3
Normal
350
F
100
AcDbDictionaryWithDefault
340
F
  0
DICTIONARY
  5
10C
102
{ACAD_REACTORS
330
C
102
}
330
C
100
AcDbDictionary
281
     1
  3
A0
350
10D
  3
A1
350
1BE
  3
A2
350
1BF
  3
A3
350
1C0
  3
A4
350
1C1
  3
A5
350
1C2
  3
A6
350
1C3
  3
A7
350
1C4
  3
A8
350
1C5
  3
A9
350
1C6
  3
B0
350
1C7
  3
B1
350
1C8
  3
B2
350
1C9
  3
B3
350
1CA
  3
B4
350
1CB
  3
B5
350
1CC
  3
B6
350
1CD
  0
DICTIONARY
  5
219
102
{ACAD_REACTORS
330
C
102
}
330
C
100
AcDbDictionary
281
     1
  3
Imperial24
350
482
  3
Metric50
350
21A
  0
DICTIONARY
  5
7E
102
{ACAD_REACTORS
330
C
102
}
330
C
100
AcDbDictionary
281
     1
  3
Standard
350
7F
  0
DICTIONARY
  5
EF
102
{ACAD_REACTORS
330
C
102
}
330
C
100
AcDbDictionary
281
     1
  3
2dWireframe
350
F5
  3
Basic
350
F4
  3
Brighten
350
FB
  3
ColorChange
350
FF
  3
Conceptual
350
F8
  3
Dim
350
FA
  3
EdgeColorOff
350
1E6
  3
Facepattern
350
FE
  3
Flat
350
F0
  3
FlatWithEdges
350
F1
  3
Gouraud
350
F2
  3
GouraudWithEdges
350
F3
  3
Hidden
350
F7
  3
JitterOff
350
1E4
  3
Linepattern
350
FD
  3
OverhangOff
350
1E5
  3
Realistic
350
F9
  3
Shaded
350
1F3
  3
Shaded with edges
350
1F2
  3
Shades of Gray
350
1EF
  3
Sketchy
350
1F0
  3
Thicken
350
FC
  3
Wireframe
350
F6
  3
X-Ray
350
1F1
  0
XRECORD
  5
7CD8
102
{ACAD_REACTORS
330
C
102
}
330
C
100
AcDbXrecord
280
     1
 90
        1
330
7F
  0
DICTIONARY
  5
5E
102
{ACAD_REACTORS
330
C
102
}
330
C
100
AcDbDictionary
281
     1
  3
CANNOSCALE
350
146
  3
CENTEREXE
350
259
  3
CENTERLTYPEFILE
350
25A
  3
CMLEADERSTYLE
350
145
  3
CTABLESTYLE
350
84
  3
CVIEWDETAILSTYLE
350
227
  3
CVIEWSECTIONSTYLE
350
228
  3
DIMASSOC
350
5F
  3
HIDETEXT
350
63
  3
HPCOLOR
350
14E9
  3
HPLAYER
350
2804
  3
HPTRANSPARENCY
350
14E8
  3
INDEXCTL
350
62C8
  3
LAYEREVAL
350
1AE
  3
LAYERNOTIFY
350
1AF
  3
LIGHTINGUNITS
350
62C6
  3
MSLTSCALE
350
62C5
  3
PSOLHEIGHT
350
62CA
  3
PSOLWIDTH
350
62C9
  3
SORTENTS
350
62C7
  3
TEXTJUSTIFY
350
308
  3
XCLIPFRAME
350
62CB
  0
DICTIONARY
  5
200
102
{ACAD_REACTORS
330
1FF
102
}
330
1FF
100
AcDbDictionary
281
     1
  3
_LAYISO_STATE
350
345F
1001
AcLayerTools
1000
22
1000
0
  0
SORTENTSTABLE
  5
30F
102
{ACAD_REACTORS
330
1CE
102
}
330
1CE
100
AcDbSortentsTable
330
1F
331
1A98
  5
1ABA
  0
XRECORD
  5
3FE4
102
{ACAD_REACTORS
330
3FE3
102
}
330
3FE3
100
AcDbXrecord
280
     1
 90
        1
340
10D
  0
XRECORD
  5
4025
102
{ACAD_REACTORS
330
4024
102
}
330
4024
100
AcDbXrecord
280
     1
 90
        1
340
10D
  0
DICTIONARY
  5
7472
102
{ACAD_REACTORS
330
7471
102
}
330
7471
100
AcDbDictionary
281
     1
  3
ACDB_ANNOTATIONSCALES
350
7473
  0
DICTIONARY
  5
7485
102
{ACAD_REACTORS
330
7484
102
}
330
7484
100
AcDbDictionary
281
     1
  3
ACDB_ANNOTATIONSCALES
350
7486
  0
DICTIONARY
  5
748A
102
{ACAD_REACTORS
330
7489
102
}
330
7489
100
AcDbDictionary
281
     1
  3
ACDB_ANNOTATIONSCALES
350
748B
  0
DICTIONARY
  5
74A7
102
{ACAD_REACTORS
330
74A6
102
}
330
74A6
100
AcDbDictionary
281
     1
  3
ACDB_ANNOTATIONSCALES
350
74A8
  0
DICTIONARY
  5
74AD
102
{ACAD_REACTORS
330
74AC
102
}
330
74AC
100
AcDbDictionary
281
     1
  3
ACDB_ANNOTATIONSCALES
350
74AE
  0
DICTIONARY
  5
74D8
102
{ACAD_REACTORS
330
74D7
102
}
330
74D7
100
AcDbDictionary
281
     1
  3
ACDB_ANNOTATIONSCALES
350
74D9
  0
DICTIONARY
  5
74DE
102
{ACAD_REACTORS
330
74DD
102
}
330
74DD
100
AcDbDictionary
281
     1
  3
ACDB_ANNOTATIONSCALES
350
74DF
  0
DICTIONARY
  5
753F
102
{ACAD_REACTORS
330
753E
102
}
330
753E
100
AcDbDictionary
281
     1
  3
ACDB_ANNOTATIONSCALES
350
7540
  0
DICTIONARY
  5
7545
102
{ACAD_REACTORS
330
7544
102
}
330
7544
100
AcDbDictionary
281
     1
  3
ACDB_ANNOTATIONSCALES
350
7546
  0
DICTIONARY
  5
764D
102
{ACAD_REACTORS
330
764C
102
}
330
764C
100
AcDbDictionary
281
     1
  3
ACDB_ANNOTATIONSCALES
350
764E
  0
DICTIONARY
  5
7665
102
{ACAD_REACTORS
330
7664
102
}
330
7664
100
AcDbDictionary
281
     1
  3
ACDB_ANNOTATIONSCALES
350
7666
  0
DICTIONARY
  5
766A
102
{ACAD_REACTORS
330
7669
102
}
330
7669
100
AcDbDictionary
281
     1
  3
ACDB_ANNOTATIONSCALES
350
766B
  0
DICTIONARY
  5
76AD
102
{ACAD_REACTORS
330
76AC
102
}
330
76AC
100
AcDbDictionary
281
     1
  3
ACDB_ANNOTATIONSCALES
350
76AE
  0
DICTIONARY
  5
76E1
102
{ACAD_REACTORS
330
76E0
102
}
330
76E0
100
AcDbDictionary
281
     1
  3
ACDB_ANNOTATIONSCALES
350
76E2
  0
DICTIONARY
  5
770A
102
{ACAD_REACTORS
330
7709
102
}
330
7709
100
AcDbDictionary
281
     1
  3
ACDB_ANNOTATIONSCALES
350
770B
  0
DICTIONARY
  5
770F
102
{ACAD_REACTORS
330
770E
102
}
330
770E
100
AcDbDictionary
281
     1
  3
ACDB_ANNOTATIONSCALES
350
7710
  0
DICTIONARY
  5
7714
102
{ACAD_REACTORS
330
7713
102
}
330
7713
100
AcDbDictionary
281
     1
  3
ACDB_ANNOTATIONSCALES
350
7715
  0
DICTIONARY
  5
7719
102
{ACAD_REACTORS
330
7718
102
}
330
7718
100
AcDbDictionary
281
     1
  3
ACDB_ANNOTATIONSCALES
350
771A
  0
DICTIONARY
  5
7743
102
{ACAD_REACTORS
330
7742
102
}
330
7742
100
AcDbDictionary
281
     1
  3
ACDB_ANNOTATIONSCALES
350
7744
  0
DICTIONARY
  5
7748
102
{ACAD_REACTORS
330
7747
102
}
330
7747
100
AcDbDictionary
281
     1
  3
ACDB_ANNOTATIONSCALES
350
7749
  0
DICTIONARY
  5
774D
102
{ACAD_REACTORS
330
774C
102
}
330
774C
100
AcDbDictionary
281
     1
  3
ACDB_ANNOTATIONSCALES
350
774E
  0
DICTIONARY
  5
7752
102
{ACAD_REACTORS
330
7751
102
}
330
7751
100
AcDbDictionary
281
     1
  3
ACDB_ANNOTATIONSCALES
350
7753
  0
DICTIONARY
  5
7757
102
{ACAD_REACTORS
330
7756
102
}
330
7756
100
AcDbDictionary
281
     1
  3
ACDB_ANNOTATIONSCALES
350
7758
  0
DICTIONARY
  5
7764
102
{ACAD_REACTORS
330
7763
102
}
330
7763
100
AcDbDictionary
281
     1
  3
ACDB_ANNOTATIONSCALES
350
7765
  0
DICTIONARY
  5
7769
102
{ACAD_REACTORS
330
7768
102
}
330
7768
100
AcDbDictionary
281
     1
  3
ACDB_ANNOTATIONSCALES
350
776A
  0
XRECORD
  5
34A8
102
{ACAD_REACTORS
330
34A7
102
}
330
34A7
100
AcDbXrecord
280
     1
 90
        1
340
10D
  0
XRECORD
  5
401A
102
{ACAD_REACTORS
330
4019
102
}
330
4019
100
AcDbXrecord
280
     1
 90
        1
340
10D
  0
ACDBDETAILVIEWSTYLE
  5
483
102
{ACAD_REACTORS
330
21B
102
}
330
21B
100
AcDbModelDocViewStyle
 70
     0
  3
Imperial24
290
     0
300
Imperial24
 90
        0
100
AcDbDetailViewStyle
 70
     0
 71
     0
 90
        3
 71
     1
340
11
 62
   256
 40
0.24
340
0
 62
   256
 40
0.24
300

 40
0.36
280
     3
 71
     2
340
16
 90
       25
 62
   256
 71
     3
340
11
 62
   256
 40
0.24
 90
        1
 40
0.75
 90
        1
300
%<\AcVar ViewType \f "%tc1">% %<\AcVar ViewDetailId>%\PSCALE %<\AcVar ViewScale \f "%sn">%
 71
     4
340
16
 90
       25
 62
   256
340
16
 90
       25
 62
   256
280
     0
  0
ACDBDETAILVIEWSTYLE
  5
21C
102
{ACAD_REACTORS
330
21B
102
}
330
21B
100
AcDbModelDocViewStyle
 70
     0
  3
Metric50
290
     0
300
Metric50
 90
        0
100
AcDbDetailViewStyle
 70
     0
 71
     0
 90
        3
 71
     1
340
11
 62
   256
 40
5.0
340
0
 62
   256
 40
5.0
300

 40
0.0
280
     1
 71
     2
340
16
 90
       25
 62
   256
 71
     3
340
11
 62
   256
 40
5.0
 90
        0
 40
15.0
 90
        1
300
%<\AcVar ViewDetailId>% (%<\AcVar ViewScale \f "%sn">%)
 71
     4
340
16
 90
       25
 62
   256
340
16
 90
       25
 62
   256
280
     0
  0
LAYOUT
  5
3FD5
102
{ACAD_REACTORS
330
1A
102
}
330
1A
100
AcDbPlotSettings
  1
A4 縦　モノクロ
  2
AutoCAD PDF (Web and Mobile).pc3
  4
ISO_full_bleed_A4_(210.00_x_297.00_MM)
  6

 40
0.0
 41
0.0
 42
0.0
 43
0.0
 44
210.0
 45
297.0
 46
0.0
 47
0.0
 48
0.0
 49
0.0
140
0.0
141
0.0
142
1.0
143
1.0
 70
   688
 72
     1
 73
     0
 74
     5
  7
monochrome.ctb
 75
    16
147
1.0
 76
     0
 77
     2
 78
   300
148
0.0
149
0.0
100
AcDbLayout
  1
A4　縦
 70
     1
 71
     2
 10
0.0
 20
0.0
 11
210.0
 21
297.0
 12
0.0
 22
0.0
 32
0.0
 14
0.0
 24
0.0
 34
0.0
 15
210.0
 25
297.0
 35
0.0
146
0.0
 13
0.0
 23
0.0
 33
0.0
 16
1.0
 26
0.0
 36
0.0
 17
0.0
 27
1.0
 37
0.0
 76
     0
330
3FD4
331
3FE2
1001
ACAD_PSEXT
1000
AutoCAD PDF (Web and Mobile).pc3
1000
DWG To PDF
1000
ファイル
1000

1070
     0
  0
LAYOUT
  5
34A0
102
{ACAD_REACTORS
330
1A
102
}
330
1A
100
AcDbPlotSettings
  1
A4　横　モノクロ
  2
AutoCAD PDF (Web and Mobile).pc3
  4
ISO_full_bleed_A4_(297.00_x_210.00_MM)
  6

 40
0.0
 41
0.0
 42
0.0
 43
0.0
 44
297.0
 45
210.0
 46
0.0
 47
0.0
 48
0.0
 49
0.0
140
0.0
141
0.0
142
1.0
143
1.0
 70
   168
 72
     1
 73
     0
 74
     5
  7
monochrome.ctb
 75
    16
147
0.9999999999999998
 76
     2
 77
     2
 78
   300
148
0.0
149
0.0
100
AcDbLayout
  1
A4横
 70
     1
 71
     1
 10
0.0
 20
0.0
 11
297.0
 21
210.0
 12
0.0
 22
0.0
 32
0.0
 14
-0.0181266115766903
 24
-0.0128167960643282
 34
-0.0000000349181948
 15
297.0181293776892
 25
210.0128187519015
 35
0.0000000814935746
146
0.0
 13
0.0
 23
0.0
 33
0.0
 16
1.0
 26
0.0
 36
0.0
 17
0.0
 27
1.0
 37
0.0
 76
     0
330
349F
331
34A6
1001
ACAD_PSEXT
1000
AutoCAD PDF (Web and Mobile).pc3
1000
DWG To PDF
1000
ファイル
1000

1070
     0
  0
LAYOUT
  5
22
102
{ACAD_XDICTIONARY
360
205
102
}
102
{ACAD_REACTORS
330
1A
102
}
330
1A
100
AcDbPlotSettings
  1

  2
none_device
  4
ISO_A4_(210.00_x_297.00_MM)
  6

 40
7.5
 41
20.0
 42
7.5
 43
20.0
 44
210.0
 45
297.0
 46
11.54999923706054
 47
-13.65000009536743
 48
0.0
 49
0.0
140
0.0
141
0.0
142
1.0
143
8.704084754739808
 70
 11952
 72
     1
 73
     0
 74
     0
  7

 75
     0
147
0.1148885871608098
 76
     0
 77
     2
 78
   300
148
0.0
149
0.0
100
AcDbLayout
  1
Model
 70
     1
 71
     0
 10
0.0
 20
0.0
 11
12.0
 21
9.0
 12
0.0
 22
0.0
 32
0.0
 14
0.0
 24
0.0
 34
0.0
 15
0.0
 25
0.0
 35
0.0
146
0.0
 13
0.0
 23
0.0
 33
0.0
 16
1.0
 26
0.0
 36
0.0
 17
0.0
 27
1.0
 37
0.0
 76
     0
330
1F
331
EA
1001
ACAD_PSEXT
1000
None
1000
None
1000
Not applicable
1000
The layout will not be plotted unless a new plotter configuration name is selected.
1070
     0
  0
MATERIAL
  5
ED
102
{ACAD_XDICTIONARY
360
1F9
102
}
102
{ACAD_REACTORS
330
6A
102
}
330
6A
100
AcDbMaterial
  1
ByBlock
 94
       63
  0
MATERIAL
  5
EC
102
{ACAD_XDICTIONARY
360
1F7
102
}
102
{ACAD_REACTORS
330
6A
102
}
330
6A
100
AcDbMaterial
  1
ByLayer
 94
       63
  0
MATERIAL
  5
EE
102
{ACAD_XDICTIONARY
360
173
102
}
102
{ACAD_REACTORS
330
6A
102
}
330
6A
100
AcDbMaterial
  1
Global
 43
0.0007999999797903
 43
0.0
 43
0.0
 43
0.0
 43
0.0
 43
0.0007999999797903
 43
0.0
 43
0.0
 43
0.0
 43
0.0
 43
1.0
 43
0.0
 43
0.0
 43
0.0
 43
0.0
 43
1.0
 49
0.0007999999797903
 49
0.0
 49
0.0
 49
0.0
 49
0.0
 49
0.0007999999797903
 49
0.0
 49
0.0
 49
0.0
 49
0.0
 49
1.0
 49
0.0
 49
0.0
 49
0.0
 49
0.0
 49
1.0
142
0.0007999999797903
142
0.0
142
0.0
142
0.0
142
0.0
142
0.0007999999797903
142
0.0
142
0.0
142
0.0
142
0.0
142
1.0
142
0.0
142
0.0
142
0.0
142
0.0
142
1.0
144
0.0007999999797903
144
0.0
144
0.0
144
0.0
144
0.0
144
0.0007999999797903
144
0.0
144
0.0
144
0.0
144
0.0
144
1.0
144
0.0
144
0.0
144
0.0
144
0.0
144
1.0
 94
       63
1001
ACAD
1070
    -1
1070
     3
1070
     0
1000

1071
        0
1070
     0
  0
MLEADERSTYLE
  5
13B
102
{ACAD_REACTORS
330
12D
102
}
330
12D
100
AcDbMLeaderStyle
179
     2
170
     2
171
     1
172
     0
 90
        2
 40
0.0
 41
0.0
173
     1
 91
-1056964608
340
14
 92
       -2
290
     1
 42
2.0
291
     1
 43
8.0
  3
Standard
 44
4.0
300

342
11
174
     1
178
     1
175
     1
176
     0
 93
-1056964608
 45
4.0
292
     0
297
     0
 46
4.0
 94
-1056964608
 47
1.0
 49
1.0
140
1.0
293
     1
141
0.0
294
     1
177
     0
142
1.0
295
     0
296
     1
143
3.75
271
     0
272
     9
273
     9
298
     0
  0
MLEADERSTYLE
  5
371
102
{ACAD_REACTORS
330
12D
102
}
330
12D
100
AcDbMLeaderStyle
179
     2
170
     2
171
     1
172
     0
 90
        2
 40
0.0
 41
0.0
173
     1
 91
-1056964608
340
14
 92
       -2
290
     1
 42
2.0
291
     1
 43
8.0
  3
Standard
341
29F
 44
10.0
300

342
298
174
     1
178
     1
175
     1
176
     0
 93
-1056964608
 45
20.0
292
     0
297
     0
 46
4.0
 94
-1056964608
 47
1.0
 49
1.0
140
1.0
293
     1
141
0.0
294
     1
177
     0
142
1.0
295
     0
296
     1
143
3.75
271
     0
272
     9
273
     9
298
     0
  0
MLEADERSTYLE
  5
12E
102
{ACAD_REACTORS
330
12D
102
}
330
12D
100
AcDbMLeaderStyle
179
     2
170
     2
171
     1
172
     0
 90
        2
 40
0.0
 41
0.0
173
     1
 91
-1056964608
340
14
 92
       -2
290
     1
 42
2.0
291
     1
 43
8.0
  3
Standard
 44
4.0
300

342
11
174
     1
178
     1
175
     1
176
     0
 93
-1056964608
 45
4.0
292
     0
297
     0
 46
4.0
 94
-1056964608
 47
1.0
 49
1.0
140
1.0
293
     1
141
0.0
294
     1
177
     0
142
1.0
295
     0
296
     0
143
3.75
271
     0
272
     9
273
     9
298
     0
  0
MLEADERSTYLE
  5
1860
102
{ACAD_REACTORS
330
12D
102
}
330
12D
100
AcDbMLeaderStyle
179
     2
170
     2
171
     1
172
     0
 90
        2
 40
1.047197551196597
 41
1.570796326794896
173
     1
 91
-1056964608
340
14
 92
       -2
290
     1
 42
0.09
291
     1
 43
20.0
  3
Standard
341
3AA
 44
5.0
300

342
479
174
     1
178
     6
175
     1
176
     0
 93
-1056964608
 45
20.0
292
     0
297
     0
 46
0.18
 94
-1056964608
 47
1.0
 49
1.0
140
1.0
293
     1
141
0.0
294
     1
177
     0
142
1.0
295
     0
296
     0
143
0.125
271
     0
272
     9
273
     9
298
     0
  0
MLEADERSTYLE
  5
481
102
{ACAD_REACTORS
330
12D
102
}
330
12D
100
AcDbMLeaderStyle
179
     2
170
     2
171
     1
172
     0
 90
        2
 40
1.047197551196597
 41
1.570796326794896
173
     1
 91
-1056964608
340
14
 92
       -2
290
     1
 42
0.09
291
     1
 43
20.0
  3
Standard
341
453
 44
5.0
300

342
479
174
     1
178
     6
175
     1
176
     0
 93
-1056964608
 45
20.0
292
     0
297
     0
 46
0.18
 94
-1056964608
 47
1.0
 49
1.0
140
1.0
293
     1
141
0.0
294
     1
177
     0
142
1.0
295
     0
296
     0
143
0.125
271
     0
272
     9
273
     9
298
     0
  0
MLINESTYLE
  5
18
102
{ACAD_REACTORS
330
17
102
}
330
17
100
AcDbMlineStyle
  2
STANDARD
 70
     0
  3

 62
   256
 51
90.0
 52
90.0
 71
     2
 49
0.5
 62
   256
  6
BYLAYER
 49
-0.5
 62
   256
  6
BYLAYER
  0
PLOTSETTINGS
  5
3FF1
102
{ACAD_REACTORS
330
19
102
}
330
19
100
AcDbPlotSettings
  1
A4 縦　モノクロ
  2
AutoCAD PDF (Web and Mobile).pc3
  4
ISO_full_bleed_A4_(210.00_x_297.00_MM)
  6

 40
0.0
 41
0.0
 42
0.0
 43
0.0
 44
210.0
 45
297.0
 46
0.0
 47
0.0
 48
0.0
 49
0.0
140
0.0
141
0.0
142
1.0
143
1.0
 70
  2736
 72
     1
 73
     0
 74
     5
  7
monochrome.ctb
 75
    16
147
1.0
 76
     0
 77
     2
 78
   300
148
0.0
149
0.0
1001
ACAD_PSEXT
1000
AutoCAD PDF (Web and Mobile).pc3
1000
DWG To PDF
1000
ファイル
1000

1070
     0
  0
PLOTSETTINGS
  5
34EA
102
{ACAD_REACTORS
330
19
102
}
330
19
100
AcDbPlotSettings
  1
A4　横　モノクロ
  2
AutoCAD PDF (Web and Mobile).pc3
  4
ISO_full_bleed_A4_(297.00_x_210.00_MM)
  6

 40
0.0
 41
0.0
 42
0.0
 43
0.0
 44
297.0
 45
210.0
 46
0.0
 47
0.0
 48
0.0
 49
0.0
140
0.0
141
0.0
142
1.0
143
1.0
 70
 14504
 72
     1
 73
     0
 74
     5
  7
monochrome.ctb
 75
    16
147
0.9999999999999998
 76
     2
 77
     2
 78
   300
148
0.0
149
0.0
1001
ACAD_PSEXT
1000
AutoCAD PDF (Web and Mobile).pc3
1000
DWG To PDF
1000
ファイル
1000

1070
     0
  0
ACDBPLACEHOLDER
  5
F
102
{ACAD_REACTORS
330
E
102
}
330
E
  0
SCALE
  5
10D
102
{ACAD_REACTORS
330
10C
102
}
330
10C
100
AcDbScale
 70
     0
300
1:1
140
1.0
141
1.0
290
     1
  0
SCALE
  5
1BE
102
{ACAD_REACTORS
330
10C
102
}
330
10C
100
AcDbScale
 70
     0
300
1:2
140
1.0
141
2.0
290
     0
  0
SCALE
  5
1BF
102
{ACAD_REACTORS
330
10C
102
}
330
10C
100
AcDbScale
 70
     0
300
1:4
140
1.0
141
4.0
290
     0
  0
SCALE
  5
1C0
102
{ACAD_REACTORS
330
10C
102
}
330
10C
100
AcDbScale
 70
     0
300
1:5
140
1.0
141
5.0
290
     0
  0
SCALE
  5
1C1
102
{ACAD_REACTORS
330
10C
102
}
330
10C
100
AcDbScale
 70
     0
300
1:8
140
1.0
141
8.0
290
     0
  0
SCALE
  5
1C2
102
{ACAD_REACTORS
330
10C
102
}
330
10C
100
AcDbScale
 70
     0
300
1:10
140
1.0
141
10.0
290
     0
  0
SCALE
  5
1C3
102
{ACAD_REACTORS
330
10C
102
}
330
10C
100
AcDbScale
 70
     0
300
1:16
140
1.0
141
16.0
290
     0
  0
SCALE
  5
1C4
102
{ACAD_REACTORS
330
10C
102
}
330
10C
100
AcDbScale
 70
     0
300
1:20
140
1.0
141
20.0
290
     0
  0
SCALE
  5
1C5
102
{ACAD_REACTORS
330
10C
102
}
330
10C
100
AcDbScale
 70
     0
300
1:30
140
1.0
141
30.0
290
     0
  0
SCALE
  5
1C6
102
{ACAD_REACTORS
330
10C
102
}
330
10C
100
AcDbScale
 70
     0
300
1:40
140
1.0
141
40.0
290
     0
  0
SCALE
  5
1C7
102
{ACAD_REACTORS
330
10C
102
}
330
10C
100
AcDbScale
 70
     0
300
1:50
140
1.0
141
50.0
290
     0
  0
SCALE
  5
1C8
102
{ACAD_REACTORS
330
10C
102
}
330
10C
100
AcDbScale
 70
     0
300
1:100
140
1.0
141
100.0
290
     0
  0
SCALE
  5
1C9
102
{ACAD_REACTORS
330
10C
102
}
330
10C
100
AcDbScale
 70
     0
300
2:1
140
2.0
141
1.0
290
     0
  0
SCALE
  5
1CA
102
{ACAD_REACTORS
330
10C
102
}
330
10C
100
AcDbScale
 70
     0
300
4:1
140
4.0
141
1.0
290
     0
  0
SCALE
  5
1CB
102
{ACAD_REACTORS
330
10C
102
}
330
10C
100
AcDbScale
 70
     0
300
8:1
140
8.0
141
1.0
290
     0
  0
SCALE
  5
1CC
102
{ACAD_REACTORS
330
10C
102
}
330
10C
100
AcDbScale
 70
     0
300
10:1
140
10.0
141
1.0
290
     0
  0
SCALE
  5
1CD
102
{ACAD_REACTORS
330
10C
102
}
330
10C
100
AcDbScale
 70
     0
300
100:1
140
100.0
141
1.0
290
     0
  0
ACDBSECTIONVIEWSTYLE
  5
482
102
{ACAD_REACTORS
330
219
102
}
330
219
100
AcDbModelDocViewStyle
 70
     0
  3
Imperial24
290
     0
300
Imperial24
 90
        0
100
AcDbSectionViewStyle
 70
     0
 71
     0
 90
       78
 71
     1
340
11
 62
   256
 40
0.24
340
0
340
0
 62
   256
 40
0.24
300
I, O, Q, S, X, Z
 40
0.48
 90
        3
 40
0.18
 90
        1
 71
     2
340
16
 90
       25
 62
   256
340
16
 90
       50
 62
   256
 40
0.24
 40
0.0
 40
0.24
 71
     3
340
11
 62
   256
 40
0.24
 90
        1
 40
0.75
 90
        1
300
%<\AcVar ViewType \f "%tc1">% %<\AcVar ViewSectionStartId>%-%<\AcVar ViewSectionEndId>%\PSCALE %<\AcVar ViewScale \f "%sn">%
 71
     4
 62
   256
 62
   257
300
ANSI31
 40
1.0
 90
        0
290
     0
290
     0
 90
        6
 40
0.0
 40
1.570796326794896
 40
0.2617993877991494
 40
1.308996938995747
 40
-0.2617993877991494
 40
1.832595714594046
  0
ACDBSECTIONVIEWSTYLE
  5
21A
102
{ACAD_REACTORS
330
219
102
}
330
219
100
AcDbModelDocViewStyle
 70
     0
  3
Metric50
290
     0
300
Metric50
 90
        0
100
AcDbSectionViewStyle
 70
     0
 71
     0
 90
      102
 71
     1
340
11
 62
   256
 40
5.0
340
0
340
0
 62
   256
 40
5.0
300
I, O, Q, S, X, Z
 40
10.0
 90
        0
 40
2.5
 90
        0
 71
     2
340
16
 90
       25
 62
   256
340
16
 90
       50
 62
   256
 40
5.0
 40
2.5
 40
5.0
 71
     3
340
11
 62
   256
 40
5.0
 90
        0
 40
15.0
 90
        1
300
%<\AcVar ViewSectionStartId>%-%<\AcVar ViewSectionEndId>% (%<\AcVar ViewScale \f "%sn">%)
 71
     4
 62
   256
 62
   257
300
ANSI31
 40
1.0
 90
        0
290
     0
290
     0
 90
        6
 40
0.0
 40
1.570796326794896
 40
0.2617993877991494
 40
1.308996938995747
 40
-0.2617993877991494
 40
1.832595714594046
  0
TABLESTYLE
  5
7F
102
{ACAD_XDICTIONARY
360
162
102
}
102
{ACAD_REACTORS
330
7E
102
}
330
7E
100
AcDbTableStyle
280
     0
  3
Standard
 70
     0
 71
     0
 40
1.5
 41
1.5
280
     0
281
     0
  7
Standard
140
4.5
170
     2
 62
     0
 63
     7
283
     0
 90
      512
 91
        0
  1

274
    -2
284
     1
 64
     0
275
    -2
285
     1
 65
     0
276
    -2
286
     1
 66
     0
277
    -2
287
     1
 67
     0
278
    -2
288
     1
 68
     0
279
    -2
289
     1
 69
     0
  7
Standard
140
6.0
170
     5
 62
     0
 63
     7
283
     0
 90
      512
 91
        0
  1

274
    -2
284
     1
 64
     0
275
    -2
285
     1
 65
     0
276
    -2
286
     1
 66
     0
277
    -2
287
     1
 67
     0
278
    -2
288
     1
 68
     0
279
    -2
289
     1
 69
     0
  7
Standard
140
4.5
170
     5
 62
     0
 63
     7
283
     0
 90
      512
 91
        0
  1

274
    -2
284
     1
 64
     0
275
    -2
285
     1
 65
     0
276
    -2
286
     1
 66
     0
277
    -2
287
     1
 67
     0
278
    -2
288
     1
 68
     0
279
    -2
289
     1
 69
     0
  0
VISUALSTYLE
  5
F5
102
{ACAD_REACTORS
330
EF
102
}
330
EF
100
AcDbVisualStyle
  2
2dWireframe
 70
     4
177
     3
291
     0
 70
    58
 90
        0
176
     1
 90
        2
176
     1
 90
        1
176
     1
 90
        0
176
     1
 40
0.6
176
     1
 40
30.0
176
     1
 62
     7
420
 16777215
176
     1
 90
        1
176
     1
 90
        4
176
     1
 62
     7
176
     1
 62
   257
176
     1
 90
        1
176
     1
 90
        1
176
     1
 40
1.0
176
     1
 90
        0
176
     1
 62
   257
176
     1
 40
1.0
176
     1
 90
        1
176
     1
 90
        6
176
     1
 90
        2
176
     1
 62
     7
176
     1
 90
        5
176
     1
 90
        0
176
     1
 90
        0
176
     1
290
     0
176
     1
 90
        1
176
     1
 40
0.0
176
     1
 90
        0
176
     1
290
     1
176
     1
290
     1
176
     1
290
     0
176
     1
290
     0
176
     1
290
     0
176
     1
290
     0
176
     1
290
     0
176
     1
290
     0
176
     1
290
     0
176
     1
 90
       50
176
     1
 40
0.0
176
     1
 40
1.0
176
     1
 90
        0
176
     1
 62
    18
420
        0
176
     1
 90
       50
176
     1
 90
        3
176
     1
 62
     5
420
      255
176
     1
290
     0
176
     1
 90
       50
176
     1
 90
       50
176
     1
 90
       50
176
     1
290
     0
176
     1
 90
       50
176
     1
 62
   256
176
     0
 40
1.0
176
     0
 90
        2
176
     1
  1
strokes_ogs.tif
176
     1
290
     0
176
     1
 40
1.0
176
     1
 40
1.0
176
     1
  0
VISUALSTYLE
  5
F4
102
{ACAD_REACTORS
330
EF
102
}
330
EF
100
AcDbVisualStyle
  2
Basic
 70
     7
177
     3
291
     1
 70
    58
 90
        1
176
     1
 90
        0
176
     1
 90
        1
176
     1
 90
        0
176
     1
 40
0.6
176
     1
 40
30.0
176
     1
 62
     7
420
 16777215
176
     1
 90
        0
176
     1
 90
        4
176
     1
 62
     7
176
     1
 62
   257
176
     1
 90
        1
176
     1
 90
        1
176
     1
 40
1.0
176
     1
 90
        8
176
     1
 62
     7
176
     1
 40
1.0
176
     1
 90
        1
176
     1
 90
        6
176
     1
 90
        2
176
     1
 62
     7
176
     1
 90
        5
176
     1
 90
        0
176
     1
 90
        0
176
     1
290
     0
176
     1
 90
        1
176
     1
 40
0.0
176
     1
 90
        0
176
     1
290
     0
176
     1
290
     1
176
     1
290
     1
176
     1
290
     0
176
     1
290
     0
176
     1
290
     0
176
     1
290
     0
176
     1
290
     0
176
     1
290
     0
176
     1
 90
       50
176
     1
 40
0.0
176
     1
 40
1.0
176
     1
 90
        0
176
     1
 62
    18
420
        0
176
     1
 90
       50
176
     1
 90
        3
176
     1
 62
     5
420
      255
176
     1
290
     0
176
     1
 90
       50
176
     1
 90
       50
176
     1
 90
       50
176
     1
290
     0
176
     1
 90
       50
176
     1
 62
   256
176
     0
 40
1.0
176
     0
 90
        2
176
     1
  1
strokes_ogs.tif
176
     1
290
     0
176
     1
 40
1.0
176
     1
 40
1.0
176
     1
  0
VISUALSTYLE
  5
FB
102
{ACAD_REACTORS
330
EF
102
}
330
EF
100
AcDbVisualStyle
  2
Brighten
 70
    12
177
     3
291
     1
 70
    58
 90
        2
176
     1
 90
        2
176
     1
 90
        1
176
     1
 90
        0
176
     1
 40
0.6
176
     1
 40
30.0
176
     1
 62
     7
420
 16777215
176
     1
 90
        1
176
     1
 90
        4
176
     1
 62
     7
176
     1
 62
   257
176
     1
 90
        1
176
     1
 90
        1
176
     1
 40
1.0
176
     1
 90
        8
176
     1
 62
     7
176
     1
 40
1.0
176
     1
 90
        1
176
     1
 90
        6
176
     1
 90
        2
176
     1
 62
     7
176
     1
 90
        5
176
     1
 90
        0
176
     1
 90
        0
176
     1
290
     0
176
     1
 90
        1
176
     1
 40
50.0
176
     1
 90
        0
176
     1
290
     0
176
     1
290
     1
176
     1
290
     1
176
     1
290
     0
176
     1
290
     0
176
     1
290
     0
176
     1
290
     0
176
     1
290
     0
176
     1
290
     0
176
     1
 90
       50
176
     1
 40
0.0
176
     1
 40
1.0
176
     1
 90
        0
176
     1
 62
    18
420
        0
176
     1
 90
       50
176
     1
 90
        3
176
     1
 62
     5
420
      255
176
     1
290
     0
176
     1
 90
       50
176
     1
 90
       50
176
     1
 90
       50
176
     1
290
     0
176
     1
 90
       50
176
     1
 62
   256
176
     0
 40
1.0
176
     0
 90
        2
176
     1
  1
strokes_ogs.tif
176
     1
290
     0
176
     1
 40
1.0
176
     1
 40
1.0
176
     1
  0
VISUALSTYLE
  5
FF
102
{ACAD_REACTORS
330
EF
102
}
330
EF
100
AcDbVisualStyle
  2
ColorChange
 70
    16
177
     3
291
     1
 70
    58
 90
        2
176
     1
 90
        2
176
     1
 90
        3
176
     1
 90
        0
176
     1
 40
0.6
176
     1
 40
30.0
176
     1
 62
     8
420
  8421504
176
     1
 90
        1
176
     1
 90
        4
176
     1
 62
     7
176
     1
 62
   257
176
     1
 90
        1
176
     1
 90
        1
176
     1
 40
1.0
176
     1
 90
        8
176
     1
 62
     8
420
  8421504
176
     1
 40
1.0
176
     1
 90
        1
176
     1
 90
        6
176
     1
 90
        2
176
     1
 62
     7
176
     1
 90
        5
176
     1
 90
        0
176
     1
 90
        0
176
     1
290
     0
176
     1
 90
        1
176
     1
 40
0.0
176
     1
 90
        0
176
     1
290
     0
176
     1
290
     1
176
     1
290
     1
176
     1
290
     0
176
     1
290
     0
176
     1
290
     0
176
     1
290
     0
176
     1
290
     0
176
     1
290
     0
176
     1
 90
       50
176
     1
 40
0.0
176
     1
 40
1.0
176
     1
 90
        0
176
     1
 62
    18
420
        0
176
     1
 90
       50
176
     1
 90
        3
176
     1
 62
     5
420
      255
176
     1
290
     0
176
     1
 90
       50
176
     1
 90
       50
176
     1
 90
       50
176
     1
290
     0
176
     1
 90
       50
176
     1
 62
   256
176
     0
 40
1.0
176
     0
 90
        2
176
     1
  1
strokes_ogs.tif
176
     1
290
     0
176
     1
 40
1.0
176
     1
 40
1.0
176
     1
  0
VISUALSTYLE
  5
F8
102
{ACAD_REACTORS
330
EF
102
}
330
EF
100
AcDbVisualStyle
  2
Conceptual
 70
     9
177
     3
291
     0
 70
    58
 90
        3
176
     1
 90
        2
176
     1
 90
        1
176
     1
 90
        0
176
     1
 40
0.6
176
     1
 40
30.0
176
     1
 62
     7
420
 16777215
176
     1
 90
        2
176
     1
 90
        2
176
     1
 62
     7
176
     1
 62
   257
176
     1
 90
        1
176
     1
 90
        1
176
     1
 40
40.0
176
     1
 90
        8
176
     1
 62
     7
176
     1
 40
1.0
176
     1
 90
        1
176
     1
 90
        6
176
     1
 90
        2
176
     1
 62
     7
176
     1
 90
        3
176
     1
 90
        0
176
     1
 90
        0
176
     1
290
     0
176
     1
 90
        1
176
     1
 40
0.0
176
     1
 90
        0
176
     1
290
     0
176
     1
290
     1
176
     1
290
     1
176
     1
290
     0
176
     1
290
     0
176
     1
290
     0
176
     1
290
     0
176
     1
290
     0
176
     1
290
     0
176
     1
 90
       50
176
     1
 40
0.0
176
     1
 40
1.0
176
     1
 90
        0
176
     1
 62
    18
420
        0
176
     1
 90
       50
176
     1
 90
        3
176
     1
 62
     5
420
      255
176
     1
290
     0
176
     1
 90
       50
176
     1
 90
       50
176
     1
 90
       50
176
     1
290
     0
176
     1
 90
       50
176
     1
 62
   256
176
     0
 40
1.0
176
     0
 90
        2
176
     1
  1
strokes_ogs.tif
176
     1
290
     0
176
     1
 40
1.0
176
     1
 40
1.0
176
     1
  0
VISUALSTYLE
  5
FA
102
{ACAD_REACTORS
330
EF
102
}
330
EF
100
AcDbVisualStyle
  2
Dim
 70
    11
177
     3
291
     1
 70
    58
 90
        2
176
     1
 90
        2
176
     1
 90
        1
176
     1
 90
        0
176
     1
 40
0.6
176
     1
 40
30.0
176
     1
 62
     7
420
 16777215
176
     1
 90
        1
176
     1
 90
        4
176
     1
 62
     7
176
     1
 62
   257
176
     1
 90
        1
176
     1
 90
        1
176
     1
 40
1.0
176
     1
 90
        8
176
     1
 62
     7
176
     1
 40
1.0
176
     1
 90
        1
176
     1
 90
        6
176
     1
 90
        2
176
     1
 62
     7
176
     1
 90
        5
176
     1
 90
        0
176
     1
 90
        0
176
     1
290
     0
176
     1
 90
        1
176
     1
 40
-50.0
176
     1
 90
        0
176
     1
290
     0
176
     1
290
     1
176
     1
290
     1
176
     1
290
     0
176
     1
290
     0
176
     1
290
     0
176
     1
290
     0
176
     1
290
     0
176
     1
290
     0
176
     1
 90
       50
176
     1
 40
0.0
176
     1
 40
1.0
176
     1
 90
        0
176
     1
 62
    18
420
        0
176
     1
 90
       50
176
     1
 90
        3
176
     1
 62
     5
420
      255
176
     1
290
     0
176
     1
 90
       50
176
     1
 90
       50
176
     1
 90
       50
176
     1
290
     0
176
     1
 90
       50
176
     1
 62
   256
176
     0
 40
1.0
176
     0
 90
        2
176
     1
  1
strokes_ogs.tif
176
     1
290
     0
176
     1
 40
1.0
176
     1
 40
1.0
176
     1
  0
VISUALSTYLE
  5
1E6
102
{ACAD_REACTORS
330
EF
102
}
330
EF
100
AcDbVisualStyle
  2
EdgeColorOff
 70
    22
177
     3
291
     1
 70
    58
 90
        2
176
     0
 90
        2
176
     0
 90
        0
176
     0
 90
        0
176
     0
 40
0.6
176
     0
 40
30.0
176
     0
 62
     7
420
 16777215
176
     0
 90
        1
176
     0
 90
        4
176
     0
 62
     7
176
     0
 62
   257
176
     0
 90
        1
176
     0
 90
        1
176
     0
 40
1.0
176
     0
 90
        8
176
     2
 62
     7
176
     0
 40
1.0
176
     0
 90
        1
176
     0
 90
        6
176
     0
 90
        2
176
     0
 62
     7
176
     0
 90
        5
176
     0
 90
        0
176
     0
 90
        0
176
     0
290
     0
176
     0
 90
        1
176
     0
 40
0.0
176
     0
 90
        0
176
     0
290
     0
176
     1
290
     1
176
     1
290
     1
176
     1
290
     0
176
     1
290
     0
176
     1
290
     0
176
     1
290
     0
176
     1
290
     0
176
     1
290
     0
176
     1
 90
       50
176
     1
 40
0.0
176
     1
 40
1.0
176
     1
 90
        0
176
     1
 62
    18
420
        0
176
     1
 90
       50
176
     1
 90
        3
176
     1
 62
     5
420
      255
176
     1
290
     0
176
     1
 90
       50
176
     1
 90
       50
176
     1
 90
       50
176
     1
290
     0
176
     1
 90
       50
176
     1
 62
   256
176
     0
 40
1.0
176
     0
 90
        2
176
     1
  1
strokes_ogs.tif
176
     1
290
     0
176
     1
 40
1.0
176
     1
 40
1.0
176
     1
  0
VISUALSTYLE
  5
FE
102
{ACAD_REACTORS
330
EF
102
}
330
EF
100
AcDbVisualStyle
  2
Facepattern
 70
    15
177
     3
291
     1
 70
    58
 90
        2
176
     1
 90
        2
176
     1
 90
        1
176
     1
 90
        0
176
     1
 40
0.6
176
     1
 40
30.0
176
     1
 62
     7
420
 16777215
176
     1
 90
        1
176
     1
 90
        4
176
     1
 62
     7
176
     1
 62
   257
176
     1
 90
        1
176
     1
 90
        1
176
     1
 40
1.0
176
     1
 90
        8
176
     1
 62
     7
176
     1
 40
1.0
176
     1
 90
        1
176
     1
 90
        6
176
     1
 90
        2
176
     1
 62
     7
176
     1
 90
        5
176
     1
 90
        0
176
     1
 90
        0
176
     1
290
     0
176
     1
 90
        1
176
     1
 40
0.0
176
     1
 90
        0
176
     1
290
     0
176
     1
290
     1
176
     1
290
     1
176
     1
290
     0
176
     1
290
     0
176
     1
290
     0
176
     1
290
     0
176
     1
290
     0
176
     1
290
     0
176
     1
 90
       50
176
     1
 40
0.0
176
     1
 40
1.0
176
     1
 90
        0
176
     1
 62
    18
420
        0
176
     1
 90
       50
176
     1
 90
        3
176
     1
 62
     5
420
      255
176
     1
290
     0
176
     1
 90
       50
176
     1
 90
       50
176
     1
 90
       50
176
     1
290
     0
176
     1
 90
       50
176
     1
 62
   256
176
     0
 40
1.0
176
     0
 90
        2
176
     1
  1
strokes_ogs.tif
176
     1
290
     0
176
     1
 40
1.0
176
     1
 40
1.0
176
     1
  0
VISUALSTYLE
  5
F0
102
{ACAD_REACTORS
330
EF
102
}
330
EF
100
AcDbVisualStyle
  2
Flat
 70
     0
177
     3
291
     1
 70
    58
 90
        2
176
     1
 90
        1
176
     1
 90
        1
176
     1
 90
        2
176
     1
 40
0.6
176
     1
 40
30.0
176
     1
 62
     7
420
 16777215
176
     1
 90
        0
176
     1
 90
        0
176
     1
 62
     7
176
     1
 62
   257
176
     1
 90
        1
176
     1
 90
        1
176
     1
 40
1.0
176
     1
 90
        8
176
     1
 62
     7
176
     1
 40
1.0
176
     1
 90
        1
176
     1
 90
        6
176
     1
 90
        2
176
     1
 62
     7
176
     1
 90
        5
176
     1
 90
        0
176
     1
 90
        0
176
     1
290
     0
176
     1
 90
       13
176
     1
 40
0.0
176
     1
 90
        0
176
     1
290
     0
176
     1
290
     1
176
     1
290
     1
176
     1
290
     0
176
     1
290
     0
176
     1
290
     0
176
     1
290
     0
176
     1
290
     0
176
     1
290
     0
176
     1
 90
       50
176
     1
 40
0.0
176
     1
 40
1.0
176
     1
 90
        0
176
     1
 62
    18
420
        0
176
     1
 90
       50
176
     1
 90
        3
176
     1
 62
     5
420
      255
176
     1
290
     0
176
     1
 90
       50
176
     1
 90
       50
176
     1
 90
       50
176
     1
290
     0
176
     1
 90
       50
176
     1
 62
   256
176
     0
 40
1.0
176
     0
 90
        2
176
     1
  1
strokes_ogs.tif
176
     1
290
     0
176
     1
 40
1.0
176
     1
 40
1.0
176
     1
  0
VISUALSTYLE
  5
F1
102
{ACAD_REACTORS
330
EF
102
}
330
EF
100
AcDbVisualStyle
  2
FlatWithEdges
 70
     1
177
     3
291
     1
 70
    58
 90
        2
176
     1
 90
        1
176
     1
 90
        1
176
     1
 90
        2
176
     1
 40
0.6
176
     1
 40
30.0
176
     1
 62
     7
420
 16777215
176
     1
 90
        1
176
     1
 90
        0
176
     1
 62
     7
176
     1
 62
   257
176
     1
 90
        1
176
     1
 90
        1
176
     1
 40
1.0
176
     1
 90
        0
176
     1
 62
   257
176
     1
 40
1.0
176
     1
 90
        1
176
     1
 90
        6
176
     1
 90
        2
176
     1
 62
     7
176
     1
 90
        5
176
     1
 90
        0
176
     1
 90
        0
176
     1
290
     0
176
     1
 90
       13
176
     1
 40
0.0
176
     1
 90
        0
176
     1
290
     0
176
     1
290
     1
176
     1
290
     1
176
     1
290
     0
176
     1
290
     0
176
     1
290
     0
176
     1
290
     0
176
     1
290
     0
176
     1
290
     0
176
     1
 90
       50
176
     1
 40
0.0
176
     1
 40
1.0
176
     1
 90
        0
176
     1
 62
    18
420
        0
176
     1
 90
       50
176
     1
 90
        3
176
     1
 62
     5
420
      255
176
     1
290
     0
176
     1
 90
       50
176
     1
 90
       50
176
     1
 90
       50
176
     1
290
     0
176
     1
 90
       50
176
     1
 62
   256
176
     0
 40
1.0
176
     0
 90
        2
176
     1
  1
strokes_ogs.tif
176
     1
290
     0
176
     1
 40
1.0
176
     1
 40
1.0
176
     1
  0
VISUALSTYLE
  5
F2
102
{ACAD_REACTORS
330
EF
102
}
330
EF
100
AcDbVisualStyle
  2
Gouraud
 70
     2
177
     3
291
     1
 70
    58
 90
        2
176
     1
 90
        2
176
     1
 90
        1
176
     1
 90
        2
176
     1
 40
0.6
176
     1
 40
30.0
176
     1
 62
     7
420
 16777215
176
     1
 90
        0
176
     1
 90
        0
176
     1
 62
     7
176
     1
 62
   257
176
     1
 90
        1
176
     1
 90
        1
176
     1
 40
1.0
176
     1
 90
        0
176
     1
 62
     7
176
     1
 40
1.0
176
     1
 90
        1
176
     1
 90
        6
176
     1
 90
        2
176
     1
 62
     7
176
     1
 90
        5
176
     1
 90
        0
176
     1
 90
        0
176
     1
290
     0
176
     1
 90
       13
176
     1
 40
0.0
176
     1
 90
        0
176
     1
290
     0
176
     1
290
     1
176
     1
290
     1
176
     1
290
     0
176
     1
290
     0
176
     1
290
     0
176
     1
290
     0
176
     1
290
     0
176
     1
290
     0
176
     1
 90
       50
176
     1
 40
0.0
176
     1
 40
1.0
176
     1
 90
        0
176
     1
 62
    18
420
        0
176
     1
 90
       50
176
     1
 90
        3
176
     1
 62
     5
420
      255
176
     1
290
     0
176
     1
 90
       50
176
     1
 90
       50
176
     1
 90
       50
176
     1
290
     0
176
     1
 90
       50
176
     1
 62
   256
176
     0
 40
1.0
176
     0
 90
        2
176
     1
  1
strokes_ogs.tif
176
     1
290
     0
176
     1
 40
1.0
176
     1
 40
1.0
176
     1
  0
VISUALSTYLE
  5
F3
102
{ACAD_REACTORS
330
EF
102
}
330
EF
100
AcDbVisualStyle
  2
GouraudWithEdges
 70
     3
177
     3
291
     1
 70
    58
 90
        2
176
     1
 90
        2
176
     1
 90
        1
176
     1
 90
        2
176
     1
 40
0.6
176
     1
 40
30.0
176
     1
 62
     7
420
 16777215
176
     1
 90
        1
176
     1
 90
        0
176
     1
 62
     7
176
     1
 62
   257
176
     1
 90
        1
176
     1
 90
        1
176
     1
 40
1.0
176
     1
 90
        0
176
     1
 62
   257
176
     1
 40
1.0
176
     1
 90
        1
176
     1
 90
        6
176
     1
 90
        2
176
     1
 62
     7
176
     1
 90
        5
176
     1
 90
        0
176
     1
 90
        0
176
     1
290
     0
176
     1
 90
       13
176
     1
 40
0.0
176
     1
 90
        0
176
     1
290
     0
176
     1
290
     1
176
     1
290
     1
176
     1
290
     0
176
     1
290
     0
176
     1
290
     0
176
     1
290
     0
176
     1
290
     0
176
     1
290
     0
176
     1
 90
       50
176
     1
 40
0.0
176
     1
 40
1.0
176
     1
 90
        0
176
     1
 62
    18
420
        0
176
     1
 90
       50
176
     1
 90
        3
176
     1
 62
     5
420
      255
176
     1
290
     0
176
     1
 90
       50
176
     1
 90
       50
176
     1
 90
       50
176
     1
290
     0
176
     1
 90
       50
176
     1
 62
   256
176
     0
 40
1.0
176
     0
 90
        2
176
     1
  1
strokes_ogs.tif
176
     1
290
     0
176
     1
 40
1.0
176
     1
 40
1.0
176
     1
  0
VISUALSTYLE
  5
F7
102
{ACAD_REACTORS
330
EF
102
}
330
EF
100
AcDbVisualStyle
  2
Hidden
 70
     6
177
     3
291
     0
 70
    58
 90
        1
176
     1
 90
        2
176
     1
 90
        2
176
     1
 90
        0
176
     1
 40
0.6
176
     1
 40
30.0
176
     1
 62
     7
420
 16777215
176
     1
 90
        2
176
     1
 90
        2
176
     1
 62
     7
176
     1
 62
   257
176
     1
 90
        2
176
     1
 90
        1
176
     1
 40
40.0
176
     1
 90
        0
176
     1
 62
   257
176
     1
 40
1.0
176
     1
 90
        1
176
     1
 90
        6
176
     1
 90
        2
176
     1
 62
     7
176
     1
 90
        3
176
     1
 90
        0
176
     1
 90
        0
176
     1
290
     0
176
     1
 90
        1
176
     1
 40
0.0
176
     1
 90
        0
176
     1
290
     0
176
     1
290
     1
176
     1
290
     1
176
     1
290
     0
176
     1
290
     0
176
     1
290
     0
176
     1
290
     0
176
     1
290
     0
176
     1
290
     0
176
     1
 90
       50
176
     1
 40
0.0
176
     1
 40
1.0
176
     1
 90
        0
176
     1
 62
    18
420
        0
176
     1
 90
       50
176
     1
 90
        3
176
     1
 62
     5
420
      255
176
     1
290
     0
176
     1
 90
       50
176
     1
 90
       50
176
     1
 90
       50
176
     1
290
     0
176
     1
 90
       50
176
     1
 62
   256
176
     0
 40
1.0
176
     0
 90
        2
176
     1
  1
strokes_ogs.tif
176
     1
290
     0
176
     1
 40
1.0
176
     1
 40
1.0
176
     1
  0
VISUALSTYLE
  5
1E4
102
{ACAD_REACTORS
330
EF
102
}
330
EF
100
AcDbVisualStyle
  2
JitterOff
 70
    20
177
     3
291
     1
 70
    58
 90
        2
176
     0
 90
        2
176
     0
 90
        0
176
     0
 90
        0
176
     0
 40
0.6
176
     0
 40
30.0
176
     0
 62
     7
420
 16777215
176
     0
 90
        1
176
     0
 90
        4
176
     0
 62
     7
176
     0
 62
   257
176
     0
 90
        1
176
     0
 90
        1
176
     0
 40
1.0
176
     0
 90
       10
176
     2
 62
     7
176
     0
 40
1.0
176
     0
 90
        1
176
     0
 90
        6
176
     0
 90
        2
176
     0
 62
     7
176
     0
 90
        5
176
     0
 90
        0
176
     0
 90
        0
176
     0
290
     0
176
     0
 90
        1
176
     0
 40
0.0
176
     0
 90
        0
176
     0
290
     0
176
     1
290
     1
176
     1
290
     1
176
     1
290
     0
176
     1
290
     0
176
     1
290
     0
176
     1
290
     0
176
     1
290
     0
176
     1
290
     0
176
     1
 90
       50
176
     1
 40
0.0
176
     1
 40
1.0
176
     1
 90
        0
176
     1
 62
    18
420
        0
176
     1
 90
       50
176
     1
 90
        3
176
     1
 62
     5
420
      255
176
     1
290
     0
176
     1
 90
       50
176
     1
 90
       50
176
     1
 90
       50
176
     1
290
     0
176
     1
 90
       50
176
     1
 62
   256
176
     0
 40
1.0
176
     0
 90
        2
176
     1
  1
strokes_ogs.tif
176
     1
290
     0
176
     1
 40
1.0
176
     1
 40
1.0
176
     1
  0
VISUALSTYLE
  5
FD
102
{ACAD_REACTORS
330
EF
102
}
330
EF
100
AcDbVisualStyle
  2
Linepattern
 70
    14
177
     3
291
     1
 70
    58
 90
        2
176
     1
 90
        2
176
     1
 90
        1
176
     1
 90
        0
176
     1
 40
0.6
176
     1
 40
30.0
176
     1
 62
     7
420
 16777215
176
     1
 90
        1
176
     1
 90
        4
176
     1
 62
     7
176
     1
 62
   257
176
     1
 90
        7
176
     1
 90
        7
176
     1
 40
1.0
176
     1
 90
        8
176
     1
 62
     7
176
     1
 40
1.0
176
     1
 90
        1
176
     1
 90
        6
176
     1
 90
        2
176
     1
 62
     7
176
     1
 90
        5
176
     1
 90
        0
176
     1
 90
        0
176
     1
290
     0
176
     1
 90
        1
176
     1
 40
0.0
176
     1
 90
        0
176
     1
290
     0
176
     1
290
     1
176
     1
290
     1
176
     1
290
     0
176
     1
290
     0
176
     1
290
     0
176
     1
290
     0
176
     1
290
     0
176
     1
290
     0
176
     1
 90
       50
176
     1
 40
0.0
176
     1
 40
1.0
176
     1
 90
        0
176
     1
 62
    18
420
        0
176
     1
 90
       50
176
     1
 90
        3
176
     1
 62
     5
420
      255
176
     1
290
     0
176
     1
 90
       50
176
     1
 90
       50
176
     1
 90
       50
176
     1
290
     0
176
     1
 90
       50
176
     1
 62
   256
176
     0
 40
1.0
176
     0
 90
        2
176
     1
  1
strokes_ogs.tif
176
     1
290
     0
176
     1
 40
1.0
176
     1
 40
1.0
176
     1
  0
VISUALSTYLE
  5
1E5
102
{ACAD_REACTORS
330
EF
102
}
330
EF
100
AcDbVisualStyle
  2
OverhangOff
 70
    21
177
     3
291
     1
 70
    58
 90
        2
176
     0
 90
        2
176
     0
 90
        0
176
     0
 90
        0
176
     0
 40
0.6
176
     0
 40
30.0
176
     0
 62
     7
420
 16777215
176
     0
 90
        1
176
     0
 90
        4
176
     0
 62
     7
176
     0
 62
   257
176
     0
 90
        1
176
     0
 90
        1
176
     0
 40
1.0
176
     0
 90
        9
176
     2
 62
     7
176
     0
 40
1.0
176
     0
 90
        1
176
     0
 90
        6
176
     0
 90
        2
176
     0
 62
     7
176
     0
 90
        5
176
     0
 90
        0
176
     0
 90
        0
176
     0
290
     0
176
     0
 90
        1
176
     0
 40
0.0
176
     0
 90
        0
176
     0
290
     0
176
     1
290
     1
176
     1
290
     1
176
     1
290
     0
176
     1
290
     0
176
     1
290
     0
176
     1
290
     0
176
     1
290
     0
176
     1
290
     0
176
     1
 90
       50
176
     1
 40
0.0
176
     1
 40
1.0
176
     1
 90
        0
176
     1
 62
    18
420
        0
176
     1
 90
       50
176
     1
 90
        3
176
     1
 62
     5
420
      255
176
     1
290
     0
176
     1
 90
       50
176
     1
 90
       50
176
     1
 90
       50
176
     1
290
     0
176
     1
 90
       50
176
     1
 62
   256
176
     0
 40
1.0
176
     0
 90
        2
176
     1
  1
strokes_ogs.tif
176
     1
290
     0
176
     1
 40
1.0
176
     1
 40
1.0
176
     1
  0
VISUALSTYLE
  5
F9
102
{ACAD_REACTORS
330
EF
102
}
330
EF
100
AcDbVisualStyle
  2
Realistic
 70
     8
177
     3
291
     0
 70
    58
 90
        2
176
     1
 90
        3
176
     1
 90
        0
176
     1
 90
        2
176
     1
 40
0.6
176
     1
 40
30.0
176
     1
 62
     7
420
 16777215
176
     1
 90
        0
176
     1
 90
        0
176
     1
 62
     7
176
     1
 62
   257
176
     1
 90
        1
176
     1
 90
        1
176
     1
 40
1.0
176
     1
 90
        8
176
     1
 62
   257
176
     1
 40
1.0
176
     1
 90
        1
176
     1
 90
        6
176
     1
 90
        2
176
     1
 62
     7
176
     1
 90
        3
176
     1
 90
        0
176
     1
 90
        0
176
     1
290
     0
176
     1
 90
       13
176
     1
 40
0.0
176
     1
 90
        0
176
     1
290
     0
176
     1
290
     1
176
     1
290
     1
176
     1
290
     0
176
     1
290
     0
176
     1
290
     0
176
     1
290
     0
176
     1
290
     0
176
     1
290
     0
176
     1
 90
       50
176
     1
 40
0.0
176
     1
 40
1.0
176
     1
 90
        0
176
     1
 62
    18
420
        0
176
     1
 90
       50
176
     1
 90
        3
176
     1
 62
     5
420
      255
176
     1
290
     0
176
     1
 90
       50
176
     1
 90
       50
176
     1
 90
       50
176
     1
290
     0
176
     1
 90
       50
176
     1
 62
   256
176
     0
 40
1.0
176
     0
 90
        2
176
     1
  1
strokes_ogs.tif
176
     1
290
     0
176
     1
 40
1.0
176
     1
 40
1.0
176
     1
  0
VISUALSTYLE
  5
1F3
102
{ACAD_REACTORS
330
EF
102
}
330
EF
100
AcDbVisualStyle
  2
Shaded
 70
    27
177
     3
291
     0
 70
    58
 90
        2
176
     1
 90
        2
176
     1
 90
        1
176
     1
 90
        2
176
     1
 40
0.6
176
     1
 40
30.0
176
     1
 62
     7
420
 16777215
176
     1
 90
        0
176
     1
 90
        4
176
     1
 62
     7
176
     1
 62
   257
176
     1
 90
        1
176
     1
 90
        1
176
     1
 40
1.0
176
     1
 90
        8
176
     1
 62
   257
176
     1
 40
1.0
176
     1
 90
        1
176
     1
 90
        6
176
     1
 90
        2
176
     1
 62
     8
420
  7895160
176
     1
 90
        3
176
     1
 90
        0
176
     1
 90
        0
176
     1
290
     0
176
     1
 90
        5
176
     1
 40
0.0
176
     1
 90
        0
176
     1
290
     0
176
     1
290
     1
176
     1
290
     1
176
     1
290
     0
176
     1
290
     0
176
     1
290
     0
176
     1
290
     0
176
     1
290
     0
176
     1
290
     0
176
     1
 90
       50
176
     1
 40
0.0
176
     1
 40
1.0
176
     1
 90
        0
176
     1
 62
    18
420
        0
176
     1
 90
       50
176
     1
 90
        3
176
     1
 62
     5
420
      255
176
     1
290
     0
176
     1
 90
       50
176
     1
 90
       50
176
     1
 90
       50
176
     1
290
     0
176
     1
 90
       50
176
     1
 62
   256
176
     0
 40
1.0
176
     0
 90
        2
176
     1
  1
strokes_ogs.tif
176
     1
290
     0
176
     1
 40
1.0
176
     1
 40
1.0
176
     1
  0
VISUALSTYLE
  5
1F2
102
{ACAD_REACTORS
330
EF
102
}
330
EF
100
AcDbVisualStyle
  2
Shaded with edges
 70
    26
177
     3
291
     0
 70
    58
 90
        2
176
     1
 90
        2
176
     1
 90
        1
176
     1
 90
        2
176
     1
 40
0.6
176
     1
 40
30.0
176
     1
 62
     7
420
 16777215
176
     1
 90
        1
176
     1
 90
        2
176
     1
 62
     7
176
     1
 62
   257
176
     1
 90
        2
176
     1
 90
        1
176
     1
 40
1.0
176
     1
 90
        8
176
     1
 62
   257
176
     1
 40
1.0
176
     1
 90
        1
176
     1
 90
        6
176
     1
 90
        2
176
     1
 62
     7
176
     1
 90
        3
176
     1
 90
        0
176
     1
 90
        0
176
     1
290
     0
176
     1
 90
        5
176
     1
 40
0.0
176
     1
 90
        0
176
     1
290
     0
176
     1
290
     1
176
     1
290
     1
176
     1
290
     0
176
     1
290
     0
176
     1
290
     0
176
     1
290
     0
176
     1
290
     0
176
     1
290
     0
176
     1
 90
       50
176
     1
 40
0.0
176
     1
 40
1.0
176
     1
 90
        0
176
     1
 62
    18
420
        0
176
     1
 90
       50
176
     1
 90
        3
176
     1
 62
     5
420
      255
176
     1
290
     0
176
     1
 90
       50
176
     1
 90
       50
176
     1
 90
       50
176
     1
290
     0
176
     1
 90
       50
176
     1
 62
   256
176
     0
 40
1.0
176
     0
 90
        2
176
     1
  1
strokes_ogs.tif
176
     1
290
     0
176
     1
 40
1.0
176
     1
 40
1.0
176
     1
  0
VISUALSTYLE
  5
1EF
102
{ACAD_REACTORS
330
EF
102
}
330
EF
100
AcDbVisualStyle
  2
Shades of Gray
 70
    23
177
     3
291
     0
 70
    58
 90
        2
176
     1
 90
        2
176
     1
 90
        3
176
     1
 90
        0
176
     1
 40
0.6
176
     1
 40
30.0
176
     1
 62
     7
420
 16777215
176
     1
 90
        2
176
     1
 90
        2
176
     1
 62
     7
176
     1
 62
     7
176
     1
 90
        1
176
     1
 90
        1
176
     1
 40
40.0
176
     1
 90
        8
176
     1
 62
     7
176
     1
 40
1.0
176
     1
 90
        1
176
     1
 90
        6
176
     1
 90
        2
176
     1
 62
     7
176
     1
 90
        3
176
     1
 90
        0
176
     1
 90
        0
176
     1
290
     0
176
     1
 90
        1
176
     1
 40
0.0
176
     1
 90
        0
176
     1
290
     0
176
     1
290
     1
176
     1
290
     1
176
     1
290
     0
176
     1
290
     0
176
     1
290
     0
176
     1
290
     0
176
     1
290
     0
176
     1
290
     0
176
     1
 90
       50
176
     1
 40
0.0
176
     1
 40
1.0
176
     1
 90
        0
176
     1
 62
    18
420
        0
176
     1
 90
       50
176
     1
 90
        3
176
     1
 62
     5
420
      255
176
     1
290
     0
176
     1
 90
       50
176
     1
 90
       50
176
     1
 90
       50
176
     1
290
     0
176
     1
 90
       50
176
     1
 62
   256
176
     0
 40
1.0
176
     0
 90
        2
176
     1
  1
strokes_ogs.tif
176
     1
290
     0
176
     1
 40
1.0
176
     1
 40
1.0
176
     1
  0
VISUALSTYLE
  5
1F0
102
{ACAD_REACTORS
330
EF
102
}
330
EF
100
AcDbVisualStyle
  2
Sketchy
 70
    24
177
     3
291
     0
 70
    58
 90
        1
176
     1
 90
        2
176
     1
 90
        2
176
     1
 90
        0
176
     1
 40
0.6
176
     1
 40
30.0
176
     1
 62
     7
420
 16777215
176
     1
 90
        2
176
     1
 90
        2
176
     1
 62
     7
176
     1
 62
     7
176
     1
 90
        1
176
     1
 90
        1
176
     1
 40
40.0
176
     1
 90
       11
176
     1
 62
     7
176
     1
 40
1.0
176
     1
 90
        1
176
     1
 90
        6
176
     1
 90
        2
176
     1
 62
     7
176
     1
 90
        6
176
     1
 90
        0
176
     1
 90
        0
176
     1
290
     0
176
     1
 90
        1
176
     1
 40
0.0
176
     1
 90
        0
176
     1
290
     0
176
     1
290
     1
176
     1
290
     1
176
     1
290
     0
176
     1
290
     0
176
     1
290
     0
176
     1
290
     0
176
     1
290
     0
176
     1
290
     0
176
     1
 90
       50
176
     1
 40
0.0
176
     1
 40
1.0
176
     1
 90
        0
176
     1
 62
    18
420
        0
176
     1
 90
       50
176
     1
 90
        3
176
     1
 62
     5
420
      255
176
     1
290
     0
176
     1
 90
       50
176
     1
 90
       50
176
     1
 90
       50
176
     1
290
     0
176
     1
 90
       50
176
     1
 62
   256
176
     0
 40
1.0
176
     0
 90
        2
176
     1
  1
strokes_ogs.tif
176
     1
290
     0
176
     1
 40
1.0
176
     1
 40
1.0
176
     1
  0
VISUALSTYLE
  5
FC
102
{ACAD_REACTORS
330
EF
102
}
330
EF
100
AcDbVisualStyle
  2
Thicken
 70
    13
177
     3
291
     1
 70
    58
 90
        2
176
     1
 90
        2
176
     1
 90
        1
176
     1
 90
        0
176
     1
 40
0.6
176
     1
 40
30.0
176
     1
 62
     7
420
 16777215
176
     1
 90
        1
176
     1
 90
        4
176
     1
 62
     7
176
     1
 62
   257
176
     1
 90
        1
176
     1
 90
        1
176
     1
 40
1.0
176
     1
 90
       12
176
     1
 62
     7
176
     1
 40
1.0
176
     1
 90
        1
176
     1
 90
        6
176
     1
 90
        2
176
     1
 62
     7
176
     1
 90
        5
176
     1
 90
        0
176
     1
 90
        0
176
     1
290
     0
176
     1
 90
        1
176
     1
 40
0.0
176
     1
 90
        0
176
     1
290
     0
176
     1
290
     1
176
     1
290
     1
176
     1
290
     0
176
     1
290
     0
176
     1
290
     0
176
     1
290
     0
176
     1
290
     0
176
     1
290
     0
176
     1
 90
       50
176
     1
 40
0.0
176
     1
 40
1.0
176
     1
 90
        0
176
     1
 62
    18
420
        0
176
     1
 90
       50
176
     1
 90
        3
176
     1
 62
     5
420
      255
176
     1
290
     0
176
     1
 90
       50
176
     1
 90
       50
176
     1
 90
       50
176
     1
290
     0
176
     1
 90
       50
176
     1
 62
   256
176
     0
 40
1.0
176
     0
 90
        2
176
     1
  1
strokes_ogs.tif
176
     1
290
     0
176
     1
 40
1.0
176
     1
 40
1.0
176
     1
  0
VISUALSTYLE
  5
F6
102
{ACAD_REACTORS
330
EF
102
}
330
EF
100
AcDbVisualStyle
  2
Wireframe
 70
     5
177
     3
291
     0
 70
    58
 90
        0
176
     1
 90
        2
176
     1
 90
        0
176
     1
 90
        0
176
     1
 40
0.6
176
     1
 40
30.0
176
     1
 62
     7
420
 16777215
176
     1
 90
        1
176
     1
 90
        4
176
     1
 62
     7
176
     1
 62
   257
176
     1
 90
        1
176
     1
 90
        1
176
     1
 40
1.0
176
     1
 90
        0
176
     1
 62
   257
176
     1
 40
1.0
176
     1
 90
        1
176
     1
 90
        6
176
     1
 90
        2
176
     1
 62
     7
176
     1
 90
        3
176
     1
 90
        0
176
     1
 90
        0
176
     1
290
     0
176
     1
 90
        1
176
     1
 40
0.0
176
     1
 90
        0
176
     1
290
     0
176
     1
290
     1
176
     1
290
     1
176
     1
290
     0
176
     1
290
     0
176
     1
290
     0
176
     1
290
     0
176
     1
290
     0
176
     1
290
     0
176
     1
 90
       50
176
     1
 40
0.0
176
     1
 40
1.0
176
     1
 90
        0
176
     1
 62
    18
420
        0
176
     1
 90
       50
176
     1
 90
        3
176
     1
 62
     5
420
      255
176
     1
290
     0
176
     1
 90
       50
176
     1
 90
       50
176
     1
 90
       50
176
     1
290
     0
176
     1
 90
       50
176
     1
 62
   256
176
     0
 40
1.0
176
     0
 90
        2
176
     1
  1
strokes_ogs.tif
176
     1
290
     0
176
     1
 40
1.0
176
     1
 40
1.0
176
     1
  0
VISUALSTYLE
  5
1F1
102
{ACAD_REACTORS
330
EF
102
}
330
EF
100
AcDbVisualStyle
  2
X-Ray
 70
    25
177
     3
291
     0
 70
    58
 90
        2
176
     1
 90
        2
176
     1
 90
        1
176
     1
 90
        1
176
     1
 40
0.5
176
     1
 40
30.0
176
     1
 62
     7
420
 16777215
176
     1
 90
        1
176
     1
 90
        0
176
     1
 62
     7
176
     1
 62
   257
176
     1
 90
        1
176
     1
 90
        1
176
     1
 40
1.0
176
     1
 90
        8
176
     1
 62
     7
176
     1
 40
1.0
176
     1
 90
        1
176
     1
 90
        6
176
     1
 90
        2
176
     1
 62
     7
176
     1
 90
        3
176
     1
 90
        0
176
     1
 90
        0
176
     1
290
     0
176
     1
 90
       13
176
     1
 40
0.0
176
     1
 90
        0
176
     1
290
     0
176
     1
290
     1
176
     1
290
     1
176
     1
290
     0
176
     1
290
     0
176
     1
290
     0
176
     1
290
     0
176
     1
290
     0
176
     1
290
     0
176
     1
 90
       50
176
     1
 40
0.0
176
     1
 40
1.0
176
     1
 90
        0
176
     1
 62
    18
420
        0
176
     1
 90
       50
176
     1
 90
        3
176
     1
 62
     5
420
      255
176
     1
290
     0
176
     1
 90
       50
176
     1
 90
       50
176
     1
 90
       50
176
     1
290
     0
176
     1
 90
       50
176
     1
 62
   256
176
     0
 40
1.0
176
     0
 90
        2
176
     1
  1
strokes_ogs.tif
176
     1
290
     0
176
     1
 40
1.0
176
     1
 40
1.0
176
     1
  0
DICTIONARYVAR
  5
146
102
{ACAD_REACTORS
330
5E
102
}
330
5E
100
DictionaryVariables
280
     0
  1
1:1
  0
DICTIONARYVAR
  5
259
102
{ACAD_REACTORS
330
5E
102
}
330
5E
100
DictionaryVariables
280
     0
  1
3.500000
  0
DICTIONARYVAR
  5
25A
102
{ACAD_REACTORS
330
5E
102
}
330
5E
100
DictionaryVariables
280
     0
  1
acadiso.lin
  0
DICTIONARYVAR
  5
145
102
{ACAD_REACTORS
330
5E
102
}
330
5E
100
DictionaryVariables
280
     0
  1
NSマルチ引出線
  0
DICTIONARYVAR
  5
84
102
{ACAD_REACTORS
330
5E
102
}
330
5E
100
DictionaryVariables
280
     0
  1
STANDARD
  0
DICTIONARYVAR
  5
227
102
{ACAD_REACTORS
330
5E
102
}
330
5E
100
DictionaryVariables
280
     0
  1
Metric50
  0
DICTIONARYVAR
  5
228
102
{ACAD_REACTORS
330
5E
102
}
330
5E
100
DictionaryVariables
280
     0
  1
Metric50
  0
DICTIONARYVAR
  5
5F
102
{ACAD_REACTORS
330
5E
102
}
330
5E
100
DictionaryVariables
280
     0
  1
2
  0
DICTIONARYVAR
  5
63
102
{ACAD_REACTORS
330
5E
102
}
330
5E
100
DictionaryVariables
280
     0
  1
1
  0
DICTIONARYVAR
  5
14E9
102
{ACAD_REACTORS
330
5E
102
}
330
5E
100
DictionaryVariables
280
     0
  1
BYLAYER
  0
DICTIONARYVAR
  5
2804
102
{ACAD_REACTORS
330
5E
102
}
330
5E
100
DictionaryVariables
280
     0
  1
ﾊｯﾁ
  0
DICTIONARYVAR
  5
14E8
102
{ACAD_REACTORS
330
5E
102
}
330
5E
100
DictionaryVariables
280
     0
  1
ByLayer
  0
DICTIONARYVAR
  5
62C8
102
{ACAD_REACTORS
330
5E
102
}
330
5E
100
DictionaryVariables
280
     0
  1
0
  0
DICTIONARYVAR
  5
1AE
102
{ACAD_REACTORS
330
5E
102
}
330
5E
100
DictionaryVariables
280
     0
  1
0
  0
DICTIONARYVAR
  5
1AF
102
{ACAD_REACTORS
330
5E
102
}
330
5E
100
DictionaryVariables
280
     0
  1
0
  0
DICTIONARYVAR
  5
62C6
102
{ACAD_REACTORS
330
5E
102
}
330
5E
100
DictionaryVariables
280
     0
  1
2
  0
DICTIONARYVAR
  5
62C5
102
{ACAD_REACTORS
330
5E
102
}
330
5E
100
DictionaryVariables
280
     0
  1
1
  0
DICTIONARYVAR
  5
62CA
102
{ACAD_REACTORS
330
5E
102
}
330
5E
100
DictionaryVariables
280
     0
  1
80.000000
  0
DICTIONARYVAR
  5
62C9
102
{ACAD_REACTORS
330
5E
102
}
330
5E
100
DictionaryVariables
280
     0
  1
5.000000
  0
DICTIONARYVAR
  5
62C7
102
{ACAD_REACTORS
330
5E
102
}
330
5E
100
DictionaryVariables
280
     0
  1
127
  0
DICTIONARYVAR
  5
308
102
{ACAD_REACTORS
330
5E
102
}
330
5E
100
DictionaryVariables
280
     0
  1
中心
  0
DICTIONARYVAR
  5
62CB
102
{ACAD_REACTORS
330
5E
102
}
330
5E
100
DictionaryVariables
280
     0
  1
2
  0
XRECORD
  5
345F
102
{ACAD_XDICTIONARY
360
3460
102
}
102
{ACAD_REACTORS
330
200
102
}
330
200
100
AcDbXrecord
280
     1
 91
      535
301

290
     0
302
図面枠
330
0
 90
        8
 62
     8
370
    -3
331
16
  1
色_8
440
        0
330
0
 90
        8
 62
   190
370
    -3
331
16
  1
色_190
440
        0
330
31BC
 90
        8
 62
     7
370
    -3
331
16
  1
色_7
440
        0
330
0
 90
        8
 62
     5
370
    -3
331
16
  1
色_5
440
        0
330
0
 90
        8
 62
     3
370
    -3
331
16
  1
色_3
440
        0
330
1854
 90
        8
 62
     5
370
    -3
331
16
  1
色_5
440
        0
330
0
 90
        8
 62
     6
370
    -3
331
16
  1
色_6
440
        0
330
0
 90
        8
 62
     6
370
    -3
331
16
  1
色_6
440
        0
330
0
 90
        8
 62
     6
370
    -3
331
16
  1
色_6
440
        0
330
0
 90
        8
 62
    51
370
    -3
331
16
  1
色_51
440
        0
330
45F
 90
        8
 62
     8
370
    -3
331
16
  1
色_8
440
        0
330
45D
 90
        8
 62
     8
370
    -3
331
16
  1
色_8
440
        0
330
45B
 90
        8
 62
     4
370
    -3
331
16
  1
色_4
440
        0
330
459
 90
        8
 62
     2
370
    -3
331
16
  1
色_2
440
        0
330
458
 90
        0
 62
     7
370
    -3
331
16
  1
色_7
440
        0
330
0
 90
        8
 62
   250
370
   100
331
16
  1
色_250
440
        0
330
10
 90
        8
 62
     7
370
    -3
331
16
  1
色_7
440
        0
  0
DICTIONARY
  5
7473
102
{ACAD_REACTORS
330
7472
102
}
330
7472
100
AcDbDictionary
281
     1
  3
*A1
350
7474
  0
DICTIONARY
  5
7486
102
{ACAD_REACTORS
330
7485
102
}
330
7485
100
AcDbDictionary
281
     1
  3
*A1
350
7487
  0
DICTIONARY
  5
748B
102
{ACAD_REACTORS
330
748A
102
}
330
748A
100
AcDbDictionary
281
     1
  3
*A1
350
748C
  0
DICTIONARY
  5
74A8
102
{ACAD_REACTORS
330
74A7
102
}
330
74A7
100
AcDbDictionary
281
     1
  3
*A1
350
74A9
  0
DICTIONARY
  5
74AE
102
{ACAD_REACTORS
330
74AD
102
}
330
74AD
100
AcDbDictionary
281
     1
  3
*A1
350
74AF
  0
DICTIONARY
  5
74D9
102
{ACAD_REACTORS
330
74D8
102
}
330
74D8
100
AcDbDictionary
281
     1
  3
*A1
350
74DA
  0
DICTIONARY
  5
74DF
102
{ACAD_REACTORS
330
74DE
102
}
330
74DE
100
AcDbDictionary
281
     1
  3
*A1
350
74E0
  0
DICTIONARY
  5
7540
102
{ACAD_REACTORS
330
753F
102
}
330
753F
100
AcDbDictionary
281
     1
  3
*A1
350
7541
  0
DICTIONARY
  5
7546
102
{ACAD_REACTORS
330
7545
102
}
330
7545
100
AcDbDictionary
281
     1
  3
*A1
350
7547
  0
DICTIONARY
  5
764E
102
{ACAD_REACTORS
330
764D
102
}
330
764D
100
AcDbDictionary
281
     1
  3
*A1
350
764F
  0
DICTIONARY
  5
7666
102
{ACAD_REACTORS
330
7665
102
}
330
7665
100
AcDbDictionary
281
     1
  3
*A1
350
7667
  0
DICTIONARY
  5
766B
102
{ACAD_REACTORS
330
766A
102
}
330
766A
100
AcDbDictionary
281
     1
  3
*A1
350
766C
  0
DICTIONARY
  5
76AE
102
{ACAD_REACTORS
330
76AD
102
}
330
76AD
100
AcDbDictionary
281
     1
  3
*A1
350
76AF
  0
DICTIONARY
  5
76E2
102
{ACAD_REACTORS
330
76E1
102
}
330
76E1
100
AcDbDictionary
281
     1
  3
*A1
350
76E3
  0
DICTIONARY
  5
770B
102
{ACAD_REACTORS
330
770A
102
}
330
770A
100
AcDbDictionary
281
     1
  3
*A1
350
770C
  0
DICTIONARY
  5
7710
102
{ACAD_REACTORS
330
770F
102
}
330
770F
100
AcDbDictionary
281
     1
  3
*A1
350
7711
  0
DICTIONARY
  5
7715
102
{ACAD_REACTORS
330
7714
102
}
330
7714
100
AcDbDictionary
281
     1
  3
*A1
350
7716
  0
DICTIONARY
  5
771A
102
{ACAD_REACTORS
330
7719
102
}
330
7719
100
AcDbDictionary
281
     1
  3
*A1
350
771B
  0
DICTIONARY
  5
7744
102
{ACAD_REACTORS
330
7743
102
}
330
7743
100
AcDbDictionary
281
     1
  3
*A1
350
7745
  0
DICTIONARY
  5
7749
102
{ACAD_REACTORS
330
7748
102
}
330
7748
100
AcDbDictionary
281
     1
  3
*A1
350
774A
  0
DICTIONARY
  5
774E
102
{ACAD_REACTORS
330
774D
102
}
330
774D
100
AcDbDictionary
281
     1
  3
*A1
350
774F
  0
DICTIONARY
  5
7753
102
{ACAD_REACTORS
330
7752
102
}
330
7752
100
AcDbDictionary
281
     1
  3
*A1
350
7754
  0
DICTIONARY
  5
7758
102
{ACAD_REACTORS
330
7757
102
}
330
7757
100
AcDbDictionary
281
     1
  3
*A1
350
7759
  0
DICTIONARY
  5
7765
102
{ACAD_REACTORS
330
7764
102
}
330
7764
100
AcDbDictionary
281
     1
  3
*A1
350
7766
  0
DICTIONARY
  5
776A
102
{ACAD_REACTORS
330
7769
102
}
330
7769
100
AcDbDictionary
281
     1
  3
*A1
350
776B
  0
DICTIONARY
  5
205
330
22
100
AcDbDictionary
280
     1
281
     1
  0
DICTIONARY
  5
1F9
330
ED
100
AcDbDictionary
280
     1
281
     1
  3
FBXASSET
360
1FA
  0
DICTIONARY
  5
1F7
330
EC
100
AcDbDictionary
280
     1
281
     1
  3
FBXASSET
360
1F8
  0
DICTIONARY
  5
173
330
EE
100
AcDbDictionary
280
     1
281
     1
  3
BUMPTILE
360
175
  3
DIFFUSETILE
360
174
  3
FBXASSET
360
1FB
  3
OPACITYTILE
360
176
  3
REFLECTIONTILE
360
177
  0
DICTIONARY
  5
162
330
7F
100
AcDbDictionary
280
     1
281
     1
  3
ACAD_ROUNDTRIP_2008_TABLESTYLE_CELLSTYLEMAP
360
7CD7
  0
DICTIONARY
  5
3460
330
345F
100
AcDbDictionary
280
     1
281
     1
  3
AcadLayerStateAnnoScale
360
3461
  0
ACDB_MTEXTOBJECTCONTEXTDATA_CLASS
  5
7474
102
{ACAD_REACTORS
330
7473
102
}
330
7473
100
AcDbObjectContextData
 70
     4
290
     1
100
AcDbAnnotScaleObjectContextData
340
10D
 70
     1
 10
1.0
 20
0.0
 30
0.0
 11
4702.353552711866
 21
137.9214042685271
 31
0.0
 40
866.4242430939792
 41
0.0
 42
586.8866328047587
 43
68.40101522598349
 71
     0
  0
ACDB_MTEXTOBJECTCONTEXTDATA_CLASS
  5
7487
102
{ACAD_REACTORS
330
7486
102
}
330
7486
100
AcDbObjectContextData
 70
     4
290
     1
100
AcDbAnnotScaleObjectContextData
340
10D
 70
     1
 10
1.0
 20
0.0
 30
0.0
 11
1786.364364633628
 21
4213.299391155561
 31
0.0
 40
238.6356353663725
 41
0.0
 42
203.426395931821
 43
29.166666665625
 71
     0
  0
ACDB_MTEXTOBJECTCONTEXTDATA_CLASS
  5
748C
102
{ACAD_REACTORS
330
748B
102
}
330
748B
100
AcDbObjectContextData
 70
     4
290
     1
100
AcDbAnnotScaleObjectContextData
340
10D
 70
     1
 10
1.0
 20
0.0
 30
0.0
 11
3811.364364633628
 21
4213.299391155561
 31
0.0
 40
238.6356353663725
 41
0.0
 42
209.6446700432741
 43
29.166666665625
 71
     0
  0
ACDB_TEXTOBJECTCONTEXTDATA_CLASS
  5
74A9
102
{ACAD_REACTORS
330
74A8
102
}
330
74A8
100
AcDbObjectContextData
 70
     4
290
     1
100
AcDbAnnotScaleObjectContextData
340
10D
 70
     0
 50
0.0
 10
902.1211857574781
 20
3846.587030693776
 11
0.0
 21
0.0
  0
ACDB_TEXTOBJECTCONTEXTDATA_CLASS
  5
74AF
102
{ACAD_REACTORS
330
74AE
102
}
330
74AE
100
AcDbObjectContextData
 70
     4
290
     1
100
AcDbAnnotScaleObjectContextData
340
10D
 70
     0
 50
0.0
 10
952.7695857574782
 20
3991.380630693776
 11
0.0
 21
0.0
  0
ACDB_TEXTOBJECTCONTEXTDATA_CLASS
  5
74DA
102
{ACAD_REACTORS
330
74D9
102
}
330
74D9
100
AcDbObjectContextData
 70
     4
290
     1
100
AcDbAnnotScaleObjectContextData
340
10D
 70
     0
 50
0.0
 10
960.8873857574781
 20
3615.067630693776
 11
0.0
 21
0.0
  0
ACDB_TEXTOBJECTCONTEXTDATA_CLASS
  5
74E0
102
{ACAD_REACTORS
330
74DF
102
}
330
74DF
100
AcDbObjectContextData
 70
     4
290
     1
100
AcDbAnnotScaleObjectContextData
340
10D
 70
     0
 50
0.0
 10
1386.851885757478
 20
3547.431250693776
 11
0.0
 21
0.0
  0
ACDB_TEXTOBJECTCONTEXTDATA_CLASS
  5
7541
102
{ACAD_REACTORS
330
7540
102
}
330
7540
100
AcDbObjectContextData
 70
     4
290
     1
100
AcDbAnnotScaleObjectContextData
340
10D
 70
     0
 50
0.0
 10
985.4013857574773
 20
3178.884213409339
 11
0.0
 21
0.0
  0
ACDB_TEXTOBJECTCONTEXTDATA_CLASS
  5
7547
102
{ACAD_REACTORS
330
7546
102
}
330
7546
100
AcDbObjectContextData
 70
     4
290
     1
100
AcDbAnnotScaleObjectContextData
340
10D
 70
     0
 50
0.0
 10
952.4735857574778
 20
4059.317130693775
 11
0.0
 21
0.0
  0
ACDB_TEXTOBJECTCONTEXTDATA_CLASS
  5
764F
102
{ACAD_REACTORS
330
764E
102
}
330
764E
100
AcDbObjectContextData
 70
     4
290
     1
100
AcDbAnnotScaleObjectContextData
340
10D
 70
     0
 50
0.0
 10
2877.456780879333
 20
3869.860424066752
 11
0.0
 21
0.0
  0
ACDB_TEXTOBJECTCONTEXTDATA_CLASS
  5
7667
102
{ACAD_REACTORS
330
7666
102
}
330
7666
100
AcDbObjectContextData
 70
     4
290
     1
100
AcDbAnnotScaleObjectContextData
340
10D
 70
     0
 50
0.0
 10
2936.222980879333
 20
3638.341094066752
 11
0.0
 21
0.0
  0
ACDB_TEXTOBJECTCONTEXTDATA_CLASS
  5
766C
102
{ACAD_REACTORS
330
766B
102
}
330
766B
100
AcDbObjectContextData
 70
     4
290
     1
100
AcDbAnnotScaleObjectContextData
340
10D
 70
     0
 50
0.0
 10
3362.187480879333
 20
3570.704644066752
 11
0.0
 21
0.0
  0
ACDB_TEXTOBJECTCONTEXTDATA_CLASS
  5
76AF
102
{ACAD_REACTORS
330
76AE
102
}
330
76AE
100
AcDbObjectContextData
 70
     4
290
     1
100
AcDbAnnotScaleObjectContextData
340
10D
 70
     0
 50
0.0
 10
2960.736980879332
 20
3202.157606782316
 11
0.0
 21
0.0
  0
ACDB_TEXTOBJECTCONTEXTDATA_CLASS
  5
76E3
102
{ACAD_REACTORS
330
76E2
102
}
330
76E2
100
AcDbObjectContextData
 70
     4
290
     1
100
AcDbAnnotScaleObjectContextData
340
10D
 70
     0
 50
0.0
 10
2834.984480879331
 20
3977.105324066753
 11
0.0
 21
0.0
  0
ACDB_MTEXTOBJECTCONTEXTDATA_CLASS
  5
770C
102
{ACAD_REACTORS
330
770B
102
}
330
770B
100
AcDbObjectContextData
 70
     4
290
     1
100
AcDbAnnotScaleObjectContextData
340
10D
 70
     1
 10
1.0
 20
0.0
 30
0.0
 11
5372.726130483396
 21
194.3415747380259
 31
0.0
 40
693.20895481924
 41
0.0
 42
488.8747884766179
 43
35.68104906809961
 71
     0
  0
ACDB_MTEXTOBJECTCONTEXTDATA_CLASS
  5
7711
102
{ACAD_REACTORS
330
7710
102
}
330
7710
100
AcDbObjectContextData
 70
     4
290
     1
100
AcDbAnnotScaleObjectContextData
340
10D
 70
     1
 10
1.0
 20
0.0
 30
0.0
 11
5371.8335400945
 21
44.66864501300551
 31
0.0
 40
377.3680899283195
 41
30.09194474045762
 42
195.4758883178917
 43
30.64720812073286
 71
     0
  0
ACDB_MTEXTOBJECTCONTEXTDATA_CLASS
  5
7716
102
{ACAD_REACTORS
330
7715
102
}
330
7715
100
AcDbObjectContextData
 70
     4
290
     1
100
AcDbAnnotScaleObjectContextData
340
10D
 70
     1
 10
1.0
 20
0.0
 30
0.0
 11
5353.97050385912
 21
62.82148636799502
 31
0.0
 40
194.9454546961453
 41
0.0
 42
46.77030456685755
 43
15.45685279132614
 71
     0
  0
ACDB_MTEXTOBJECTCONTEXTDATA_CLASS
  5
771B
102
{ACAD_REACTORS
330
771A
102
}
330
771A
100
AcDbObjectContextData
 70
     4
290
     1
100
AcDbAnnotScaleObjectContextData
340
10D
 70
     1
 10
1.0
 20
0.0
 30
0.0
 11
5372.726130483396
 21
123.9941802105222
 31
0.0
 40
548.8407542955995
 41
0.0
 42
336.8231810370399
 43
35.38494077707804
 71
     0
  0
ACDB_ALDIMOBJECTCONTEXTDATA_CLASS
  5
7745
102
{ACAD_REACTORS
330
7744
102
}
330
7744
100
AcDbObjectContextData
 70
     4
290
     1
100
AcDbAnnotScaleObjectContextData
340
10D
100
AcDbDimensionObjectContextData
  2
*D4
293
     0
 10
364.7915148375217
 20
3488.30838340934
294
     1
140
0.0
298
     0
291
     0
 70
     0
292
     0
 71
     0
280
     0
295
     0
296
     0
297
     0
100
AcDbAlignedDimensionObjectContextData
 11
376.0097958743557
 21
3338.338333409341
 31
0.0
  0
ACDB_ALDIMOBJECTCONTEXTDATA_CLASS
  5
774A
102
{ACAD_REACTORS
330
7749
102
}
330
7749
100
AcDbObjectContextData
 70
     4
290
     1
100
AcDbAnnotScaleObjectContextData
340
10D
100
AcDbDimensionObjectContextData
  2
*D5
293
     0
 10
918.6078956090002
 20
3724.099683409342
294
     1
140
0.0
298
     0
291
     0
 70
     0
292
     0
 71
     0
280
     0
295
     0
296
     0
297
     0
100
AcDbAlignedDimensionObjectContextData
 11
929.8193553634332
 21
3638.338333409342
 31
0.0
  0
ACDB_ALDIMOBJECTCONTEXTDATA_CLASS
  5
774F
102
{ACAD_REACTORS
330
774E
102
}
330
774E
100
AcDbObjectContextData
 70
     4
290
     1
100
AcDbAnnotScaleObjectContextData
340
10D
100
AcDbDimensionObjectContextData
  2
*D6
293
     0
 10
649.0978857574773
 20
4050.397096144934
294
     1
140
0.0
298
     0
291
     0
 70
     0
292
     0
 71
     0
280
     0
295
     0
296
     0
297
     0
100
AcDbAlignedDimensionObjectContextData
 11
794.0978857574773
 21
4039.1856363905
 31
0.0
  0
ACDB_ALDIMOBJECTCONTEXTDATA_CLASS
  5
7754
102
{ACAD_REACTORS
330
7753
102
}
330
7753
100
AcDbObjectContextData
 70
     4
290
     1
100
AcDbAnnotScaleObjectContextData
340
10D
100
AcDbDimensionObjectContextData
  2
*D7
293
     0
 10
749.0635357574774
 20
4013.303782114126
294
     1
140
0.0
298
     0
291
     0
 70
     0
292
     0
 71
     0
280
     0
295
     0
296
     0
297
     0
100
AcDbAlignedDimensionObjectContextData
 11
704.0291857574775
 21
4002.092322359692
 31
0.0
  0
ACDB_ALDIMOBJECTCONTEXTDATA_CLASS
  5
7759
102
{ACAD_REACTORS
330
7758
102
}
330
7758
100
AcDbObjectContextData
 70
     4
290
     1
100
AcDbAnnotScaleObjectContextData
340
10D
100
AcDbDimensionObjectContextData
  2
*D8
293
     0
 10
2594.399130879332
 20
4053.55366959129
294
     1
140
0.0
298
     0
291
     0
 70
     0
292
     0
 71
     0
280
     0
295
     0
296
     0
297
     0
100
AcDbAlignedDimensionObjectContextData
 11
2709.364780879332
 21
4042.335388554455
 31
0.0
  0
ACDB_ALDIMOBJECTCONTEXTDATA_CLASS
  5
7766
102
{ACAD_REACTORS
330
7765
102
}
330
7765
100
AcDbObjectContextData
 70
     4
290
     1
100
AcDbAnnotScaleObjectContextData
340
10D
100
AcDbDimensionObjectContextData
  2
*D9
293
     0
 10
724.8509057574774
 20
3245.85844603771
294
     0
140
0.0
298
     0
291
     0
 70
     0
292
     0
 71
     0
280
     0
295
     0
296
     0
297
     0
100
AcDbAlignedDimensionObjectContextData
 11
704.8838857574773
 21
3245.85844603771
 31
0.0
  0
ACDB_ALDIMOBJECTCONTEXTDATA_CLASS
  5
776B
102
{ACAD_REACTORS
330
776A
102
}
330
776A
100
AcDbObjectContextData
 70
     4
290
     1
100
AcDbAnnotScaleObjectContextData
340
10D
100
AcDbDimensionObjectContextData
  2
*D10
293
     0
 10
2700.186520879332
 20
3269.131839410686
294
     0
140
0.0
298
     0
291
     0
 70
     0
292
     0
 71
     0
280
     0
295
     0
296
     0
297
     0
100
AcDbAlignedDimensionObjectContextData
 11
2680.219500879332
 21
3269.131839410686
 31
0.0
  0
XRECORD
  5
1FA
102
{ACAD_REACTORS
330
1F9
102
}
330
1F9
100
AcDbXrecord
280
     1
 70
     1
 90
429727718
  1
D62C5603-E3A1-4AEA-B7FB-FE5D8D0755AF
310
504B03040A0000080000CC70623B3DEE336E79000000790000001B0000006175746F6465736B2D64657369676E2D7061636B6167652E786D6C3C3F786D6C2076657273696F6E3D22312E302220656E636F64696E673D227574662D3822203F3E3C666F726D6174733E3C666F726D61743E687474703A2F2F736368656D612E
310
6175746F6465736B2E636F6D2F64657369676E2D7061636B6167652F323030393C2F666F726D61743E3C2F666F726D6174733E504B0304140006080800CC70623BD486FD9CA0000000F4000000130000005B436F6E74656E745F54797065735D2E786D6C7D8EC10E82300C865F65E91D8A1E8C310C0EEA1BF002731658846E
310
D98AC1B77784ABF1D8FE5FBFBF75BBCE937A534CCEB38643598122B6FEE978D0B0485F9C41B54DDD7D022595594E1A469170414C76A4D9A4D207E29CF43ECE46F218070CC6BECC4078ACAA135ACF422C856C0E68EA1BF5669944DDD7BCDE7B1F8E415D77AECB980613C2E4AC91FC167A2B244592486606FC29C8FD7F045B9A
310
EF7053A7E60B504B0304140006080800CC70623B853B8169EB0000007C01000008000000636F72652E786D6C8D90416EC3201045AF62CDB6C206821CC7C244919D9CA01740401C94182C03558F5F9C3852BBEB6A467FFE9B197D7EFC9E1EC5975982F5AE035262288C535E5B377690E21535501C055FBC8FBF6C503839990E
310
5619041F179FE64D52DE45E362569DD7661365082642A11EB9E920A89B99642953CC8E702F67A9EE7234257977194EC9EAE275C4EABCCF5EAD5940D4AC6F0E35A568B8F43562CD7046CD199FD07E60174276A7BE677B5EADB0E0D14EEFFB6A31321A0D82627C4084204C3F096B71DD52F6819B16635EADF63F509AF53FA164
310
5DDCD1EDDD17164090FCC8732078B56691CB33A85CD7DCC40F504B0304140006080800CC70623B55019EA25F0000007C00000007000000636E782E786D6C4DCB3B0E80201045D1AD90E915ED2CF8AC45050C11660C8261F98AB1B07AC9C97D42D718D865D3E909258CFD00CCE24AC6E326A164D74DC0B4128928FF32603847
310
2BA13128B1252AC747C6BAB984FC68F0B87FE8960A5C09FE86CFB69FBA01504B0304140006080800CC70623BDBABAAF470010000D40300000C0000006662782F636F72652E786D6CC553D16E823014FD95A6AF4B694182CC941A83FA05FB810A9511A125A5257EFE2E82712ECEB8A7F100CD39F7F69E734AF9FADC366850B6
310
AF8DCE7018308C942E4C59EB2AC3DE1D498AD15A706B8CFB56869196ADCAF00863C12B6B7C374385D14E6907A836A59A41D9F7CA615434B0C8705F7CAA5606D23BA8E84F41278B93AC54100640439DE0BDB320004D43C63716C7C399D30917DCFBBA9CD9BA8469F5B156168B24CED3F7248AC8769F27244EB73B92EED8862C
310
B7F13E0C179B3C8F979C8ECD82BBBABDAA2BAC924E9558448CBD9330242CFA08E3154B5651FCC6D215639C8EE5774DBE2B5F6CF2B5768B68963BB5F5588420E442FC700B1139D4CB01F450C1E918227C2E09DF070D8140C84E1E9AAB8F1340832A9CB13130A5F1376A908D57309505ECF2A0DF179C4E9D30F5B239B87E3823
310
7A79C6F31DE1A8A5AEC08474B03C7837EAE4938639B44E5932B833D2C6B6B279CDC613877FA26EE21F4A2A4C63EC7F29A2F301D1F9F7A0E37D145F504B0304140006080800CC70623B9C113CC27E0000009D0000000B0000006662782F636E782E786D6C4DCCDF0A83201C86E15B91DFB94BFB330DD428C8FB886521330DA7
310
6397BF1A1DECE883878F57749FCDA1B7892F1BBC047A23808C7F84D9FA55424E0BE6803A256208E9EF06C84F9B91703228B1C690F78B66B34CD9A5439DF5CF0BFBF65E35BCA1B8D6A5C6F540381E886698B5741C695F9503EBA150A2F8958E3DC3EA0B504B0304140006080800CC70623B7DF2F77C2A010000120200003100
310
00006662782F41393633353835312D344632462D344230382D423046372D3739314545314133324237412F636F72652E786D6C8D51DB8EC22014FC15C2939B0D2DB4B45643319AE817EC0F6041255A68B86CFCFC856D4D76DF7CE190393373060EDB3DC707F856CE6B6B7A480A0C81328395DA5C7B18C3057510EC3873D686
310
3F34088C18550F330C39BB3A1BA7051AAC09CA84841A2BD5020AEF55806078A44B0FFD7053A328440C89E1EFC52486BBB8AA8214A99D789CF9E05200300FC927E4FB4D5B375D43103D5527440FB843077C5AA3F5861C8F645F5787F59E95B390B318B55CE45AA638FAA2957BD7248B390B7A7CC51F9C124149C82B8C378810
310
84AB2F42B7B8DD56F413775B8C5999E9FF4471926F8AA236A1AE96B8B3CC434E5839373893369E1FAF30EA395917409EB7F26AF8801C171837A4A6AC9C89E9F9C9B1A58BA30FD6A5EF5DDDCF894B9AD9B6A59C957943A9FCAE2FD5BC4DFE03504B0304140006080800CC70623BAD7543B64E01000033030000300000006662
310
782F41393633353835312D344632462D344230382D423046372D3739314545314133324237412F636E782E786D6CD593CD6EC32010845F0571AD6CE3D48AD20813A9873E410FBD12D82434182C7EAAE6EDBB2424CD25871E7B41D6EC30B3FA84F9E67BB2E40B4234DE8DB46F1925E094D7C6ED479AD3AE5951B2113C789FEE
310
6C943839C1488B4C05DF079FE72A69D8C96C13AAD6B8631503449F83828872B949AC57D26200B826A308D316B4064D6E46FCDA41C05550DC9E483A00797BFD207EFB092A45DE9514C1BBD22178396BD39D891265658C238DEA00936C654E5E433CB65A26D9F6EDB5EBC14EBF49A45CB856E66048291F6939A9A81BB5C89177
310
38143CA680F4AA299D66A042CEB3354A2684DC9D8D178FE0D9B8B41CAAD720F880EE7EF93C0C18769E099ECC04D5A102C8049A8A05632F4DDF376CF1DE0F6BB65C2F8627B65A33C6BB62177CEBBDAD973006829F89F22E814B54F4BC2BE347F8AA8F681390B50FA73F804400B5F542E796F19FF974E7F78DB802FE05E20750
310
4B0304140006080800CC70623BE75B7789680500003C100000340000006662782F41393633353835312D344632462D344230382D423046372D3739314545314133324237412F6F626A656374732E786D6CAD575B8F9B3818FD2B887D06C22499CB8AA1CA655245D5B455A356FB305264C061D8018C6C3393D95FBFC7600890
310
A4CD5EF210B0B1BFEBF98E3F7B1FF6596ABC522E1296DF9BAE3D320D9A872C4AF2F8DE2CE5CEBA358D0FBEC719939D65A691938CDE9B6ADAF4BD98B3B2D05311DD91329583D9D5FC0F438434A7A611A644887B5384CF34233629258BA878B12322891DEFF6B66BD70BFB62634E8AE781D082709A4B588AF91C528CDA28B73F
310
1C998EEF39EABBEFA97FBD6A7C7E9553F9D3D79FE442923C3C523610337627CB87ABE99D359D4CC6D6E4FACAB5E6ABF9D2726FC6A3C5F56271377BB88362213924694B38DD99FE47C48627A1E7D49F5A8BB5E1A74C0A599ED3B0F21F1E56366B89112D681E218F0915D0D6F17AD41FBA2A369DCF6335D62ABBD39779D5DDD1
310
11D4D8DE3CBB96B2E04FB8202E41051754A1AA8E8F76B4C6DFE810B580B1547F4B84911149794252234D024EF8BBE963A95AE27B3D310A9D5C215C7960FAEE415ED75694C6AFB17BCACA5D99A60A9AA65F217B0BFC53292ACB92BF283FAD0D3621576592CB5BED907C2FA8E9DF794E35E97BEA31BED21FEB401ABB94C44839
310
DCACBF0E1C5DA8DA5B2F4DFFD32AD86F543D9E565E7056502E157C00AD2671CD534549AB752FCA9CDA00677A313F04E51B22FF19E57B300579E3C97EB29F682D92935CEC18CF901B7B54FD8C51F362B56FC72FE0B3C1EAE335EDCCBF5AEC39ADB17DC238973F804BA5E6F6BFE7AF1FB32E523BE9F3BD571418E3631DCA4D48
310
5250CF639223210A9446CA30052EDF057BD35F8329C1ECD84552BF0DC8D18BE7BCE23BFE6BD960AB4A7DE79923A103BEBD80F911CBAA2C60DB19B01CF164A5583B772EE6D3FFA56666CBCDA74DC97724A48F9A58967497E489C4D979006FD7A05E227A1EBDD0F737C623387A9C844D3709995625106D157315F8B8392CD4E0
310
A0B9A720C4BE9829CEF37EA1E13111214D53925356365ADA634861B52519DD27A00AEB808EAF0628E6F435519D446F45CF2C9CF5214F0A15B2F6D06B79DA3EE3CBF7F56780D2F4E7EF73A0F5E5B02A38D07DC852C6B7C1FBB6664213E0C39E3EBA7FF4E1AD23EA2829407C85E586727488B751B2DB9502BC7B228A3FD68B6E
310
A65A22397E690AA8D158D7E404EC8CDA235CC3B7D1898680131CEC2CDF2638C65196279577750F15884AEE19F94199155B92B13297978469D4F8D358DF0AEF7631E28DC8F0D9F437D5D39A83B2231A1D52D543813A824EF8D44BCFF2FA6A31BD1E8DAD87F1CCB526B3879935BF59CDADD5C37479BB1CDD4CA7B3556B516589
310
EF352754B706114D9C885EC9131DE6EFEB43D99AFE2391C2F958179413D7CFEF6B1B6DB1E7600F00DE6E5C67454A339A4BA2E0FBA85ED26F045D454F463DBFCE484C2F90F2E5E3666003662ED8F755951A7D1BECD5B30B550B2785C8E7320B7292A4838DDA71BBC863ED7613CAF659337A3354231D4FF4A182A54904C2898C
310
98B28C4AD0CE056CCF332A80986E571EE9DBC305BB5FEB7E509220A58D25CF042D712A806AC0AD0C657FDEF80D2D9CEAA2EE4D1C76F60BFE74219A06527D6F82DF6412526107381E55E353090704D085B52408A8913C4ED159D79BDA71BB4BC506F4831350EB6F975CD22D69BF7AC49B91A2C0A9DDA3D5CA36AD20FC478E37
310
E61844E2352865EBCB61A275A65283CAAA9DD27703B4102F5AF51EF5F573B75CBB5AD38BC845F7A49F82A0966A49C2E3EA5EA0ECD326CD965F1DB402C6FA8B51A4658C5C5E2EC9E214602E55810345408596591009A82E7E7FFACA19EEA299B14A0081A705CB3296EBC14CDF658DCD336EA6D1136881AAEB87B81AB9EE53D5
310
F5EB8BC8362082DA24122F98680A4E7930C01A0079749CEA14382A0783E5EBA5A10F8C098456A03D6A4AEB6BB881E2513747552A5DB22C7EDAF83BD5528081A365F7FF06504B0304140006080000CC70623B000000000000000000000000350000006662782F41393633353835312D344632462D344230382D423046372D37
310
39314545314133324237412F76657274696365732E62696E504B0304140006080800CC70623BF270F1330600000004000000360000006662782F41393633353835312D344632462D344230382D423046372D3739314545314133324237412F747269616E676C65732E62696E636660600000504B0304140006080000CC7062
310
3B000000000000000000000000370000006662782F41393633353835312D344632462D344230382D423046372D3739314545314133324237412F617474726962757465732E62696E504B0304140006080800CC70623B08DA0BD19000000041010000360000006662782F41393633353835312D344632462D344230382D4230
310
46372D3739314545314133324237412F6469726563746F72792E786D6C858F410AC3201045AF22B36F53E9A60B35CBEEBAE80D244E44489C6234F4F835464A48035D0DF398FF9F8AF63D0E6CC63039F212F8F9020C7D47C6792B21C5FE7403D62A1188E2E60C98D7234A5830286103A55745067B9D86B8A3CF9C7F90C11DE6
310
07FB144396D7B6A82D282E9A152AD114D5EF2CB866EEE831B8EEA07A7BB5A8D7D61A2BAAEB7FD5F70921FF497D00504B0304140006080800CC70623BEDD1DC58FD000000A00100003B0000006662782F41393633353835312D344632462D344230382D423046372D3739314545314133324237412F7265736F75726365732F
310
636F72652E786D6C8D504B6E833010BD0A9A6D65B00922041947112427E8052C33A156828DFCA97AFC9A40A576D7CDCCE87D344F8F9FBFE667F689CE6B6B3A6039850C8DB2A336530731DC4903D95970676DF82583CCC8193B5861107C72362E3BA4AC096842428D1D7107A5F7182053CF7474E0D507CE32973124857FE48B
310
540F3961CEF244279DE03EB81420DB9EAC1384436FA353E879B1B182C7A8C75DA3C7F453DF353A1075D537A7BA6464B8F535A99AE14A9A2BBD90E350DD183B5CFABE3AF262350B1EF4FC9351399401471025A527C218A1E53BAB5A5AB765F5469B96525EACF23FA6B88CFF34456DC2A1DCE36E360F82A5202F42F062ED2BAD
310
579969AFDD8A6F504B010214000A0000080000CC70623B3DEE336E79000000790000001B00000000000000000000000000000000006175746F6465736B2D64657369676E2D7061636B6167652E786D6C504B01021400140006080800CC70623BD486FD9CA0000000F40000001300000000000000000000000000B20000005B
310
436F6E74656E745F54797065735D2E786D6C504B01021400140006080800CC70623B853B8169EB0000007C010000080000000000000000000000000083010000636F72652E786D6C504B01021400140006080800CC70623B55019EA25F0000007C000000070000000000000000000000000094020000636E782E786D6C504B
310
01021400140006080800CC70623BDBABAAF470010000D40300000C00000000000000000000000000180300006662782F636F72652E786D6C504B01021400140006080800CC70623B9C113CC27E0000009D0000000B00000000000000000000000000B20400006662782F636E782E786D6C504B01021400140006080800CC70
310
623B7DF2F77C2A010000120200003100000000000000000000000000590500006662782F41393633353835312D344632462D344230382D423046372D3739314545314133324237412F636F72652E786D6C504B01021400140006080800CC70623BAD7543B64E010000330300003000000000000000000000000000D2060000
310
6662782F41393633353835312D344632462D344230382D423046372D3739314545314133324237412F636E782E786D6C504B01021400140006080800CC70623BE75B7789680500003C10000034000000000000000000000000006E0800006662782F41393633353835312D344632462D344230382D423046372D3739314545
310
314133324237412F6F626A656374732E786D6C504B01021400140006080000CC70623B0000000000000000000000003500000000000000000000000000280E00006662782F41393633353835312D344632462D344230382D423046372D3739314545314133324237412F76657274696365732E62696E504B01021400140006
310
080800CC70623BF270F133060000000400000036000000000000000000000000007B0E00006662782F41393633353835312D344632462D344230382D423046372D3739314545314133324237412F747269616E676C65732E62696E504B01021400140006080000CC70623B0000000000000000000000003700000000000000
310
000000000000D50E00006662782F41393633353835312D344632462D344230382D423046372D3739314545314133324237412F617474726962757465732E62696E504B01021400140006080800CC70623B08DA0BD1900000004101000036000000000000000000000000002A0F00006662782F41393633353835312D344632
310
462D344230382D423046372D3739314545314133324237412F6469726563746F72792E786D6C504B01021400140006080800CC70623BEDD1DC58FD000000A00100003B000000000000000000000000000E1000006662782F41393633353835312D344632462D344230382D423046372D3739314545314133324237412F7265
310
736F75726365732F636F72652E786D6C504B0506000000000E000E0080040000641100000000
  0
XRECORD
  5
1F8
102
{ACAD_REACTORS
330
1F7
102
}
330
1F7
100
AcDbXrecord
280
     1
 70
     1
 90
429727718
  1
30362254-06B7-45E0-A893-8CFA70E3D6BC
310
504B03040A0000080000CC70623B3DEE336E79000000790000001B0000006175746F6465736B2D64657369676E2D7061636B6167652E786D6C3C3F786D6C2076657273696F6E3D22312E302220656E636F64696E673D227574662D3822203F3E3C666F726D6174733E3C666F726D61743E687474703A2F2F736368656D612E
310
6175746F6465736B2E636F6D2F64657369676E2D7061636B6167652F323030393C2F666F726D61743E3C2F666F726D6174733E504B0304140006080800CC70623BD486FD9CA0000000F4000000130000005B436F6E74656E745F54797065735D2E786D6C7D8EC10E82300C865F65E91D8A1E8C310C0EEA1BF002731658846E
310
D98AC1B77784ABF1D8FE5FBFBF75BBCE937A534CCEB38643598122B6FEE978D0B0485F9C41B54DDD7D022595594E1A469170414C76A4D9A4D207E29CF43ECE46F218070CC6BECC4078ACAA135ACF422C856C0E68EA1BF5669944DDD7BCDE7B1F8E415D77AECB980613C2E4AC91FC167A2B244592486606FC29C8FD7F045B9A
310
EF7053A7E60B504B0304140006080800CC70623B1EC5D7A3EB0000007C01000008000000636F72652E786D6C8D90416EC3201045AF82665B6103C6756C6122AB4D4ED00B204C5C94182C03558F5F9C3852BBEB6A467FFE9B197D71FC9E6FE8CBACC17AD7032D0820E3B41FAD9B7A48F1820F808E52ACDEC75F36404ECDA687
310
4D0629A6D5A76597B477D1B89855E747B38B2A041301E95B6E7A08FAD3CCAA50296647B8168BD2573599823EBB0CA76447F43862C7BCCF5EAC59410E4DDD9C7973C2755553CCCFA4C603E3040F1565ED3B1FDE4E432BCA0D9622DAF9795FAF464533826484B498524CD807E51D79ED187F21878E10516EF63F505AC67F42C9
310
BA58B1FDDD071640D2FCC87D2045B96591CB3DA85CB7DCE40F504B0304140006080800CC70623B55019EA25F0000007C00000007000000636E782E786D6C4DCB3B0E80201045D1AD90E915ED2CF8AC45050C11660C8261F98AB1B07AC9C97D42D718D865D3E909258CFD00CCE24AC6E326A164D74DC0B4128928FF32603847
310
2BA13128B1252AC747C6BAB984FC68F0B87FE8960A5C09FE86CFB69FBA01504B0304140006080800CC70623B8C9102E971010000D40300000C0000006662782F636F72652E786D6CC5535B6E833010BC8AE5DF0A6C08340F1947A84D4ED00B38C6A128602363A31CBFCB234A53A551FA553EC09AD9F5CE8C31DB9E9B1AF5CA
310
7695D1198E428A91D2D214952E33ECDD315861B4E5CC1AE3BE9561A445A3323CC098B3D21ADFCE9034DA29ED00D5A6503328BA4E398C640D8B0C77F253352214DE4145770A5B214FA2546114020D759C75CE8200340D19DE981F0F6746269C33EFAB6266AB02A655C74A59CCF365BADC27CB5D902ED22848F6340DF238A141
310
BE88E2F57B92BFEDF23523433367AE6A2EEAA455C2A902F398D2751045018D3FA264435F3771F242571B4A1919CA6F9A7C5B3CD9E42BED16F12C776AEB308F40C848FC700B1139D4891EF410CEC810227CC6846F8386402064270EF5C5C709A05E49676C024C61FC95EA45ED154CA5211D1FF4FB8291A913A68E9B83EBBB33
310
E2A7673CDE118E5AE8124C0807CB8377834E366998436B950D7A7746DAD846D4CFD978E0F04FD455FC5D49D2D4C6FE9722321F10997F0F32DC47FE05504B0304140006080800CC70623BFFEA85907E0000009D0000000B0000006662782F636E782E786D6C4DCCD10A83201886E15B91FFDC95D95A811AB6F23E625948A6C3
310
E9D8E5AF46073BFAE0E1E365ED67B3E8ADC3CB78C7815C7240DA3DFC64DCC221C519D7805AC182F7F1EF06C88D9BE6703008B6049F9E274D7A1E938DBB5AE3D6131B2589BA0D3D965551E0B2EA732C9B9A624AAEB41E3A557677029960D9AFB4EF11165F504B0304140006080800CC70623B4FEEA4082C0100001202000031
310
0000006662782F39464131463745442D413632322D343644302D413938332D3331353338454246344243312F636F72652E786D6C8D515B6EC32010BC0AE2AB55850DD871ED0813254D72825EC00192A2C460F1A872FC42ED48ED5F7E00CDCECCCEB26C731F6FE05B39AFADE921293004CA082BB5B9F43086336A21D870E6AC
310
0D7F68109861543DCC30E4ECE26C9C164858139409093556AA051CBC570102714B8F1E7AF1A5C6A11862480C7F2DA6415C878B2A4891CA89C7990F2E050073937C42DE1DB7E4F87ED8A36D4329AA9B3D46DBAEAD504556557BD81DEBDD0761E52CE42C462D17B996298E3E6BE59E35C962CE821E1FF18553435012728A7187
310
0841987E927A8D9B35ADDF70BBC6989599FE4F1427F9A4286A132ABAC49D651EF234CD5CE04CDA78BA3DC2A8FB645D00B9DF8B57E215725C60BCA2A463E54C4CE327C7A65E1C7DB02E7DEFCBF594B864C5CA6CDBD49C957943E9FA5D5FBAF336F90F504B0304140006080800CC70623BAD7543B64E01000033030000300000
310
006662782F39464131463745442D413632322D343644302D413938332D3331353338454246344243312F636E782E786D6CD593CD6EC32010845F0571AD6CE3D48AD20813A9873E410FBD12D82434182C7EAAE6EDBB2424CD25871E7B41D6EC30B3FA84F9E67BB2E40B4234DE8DB46F1925E094D7C6ED479AD3AE5951B2113C
310
789FEE6C943839C1488B4C05DF079FE72A69D8C96C13AAD6B8631503449F83828872B949AC57D26200B826A308D316B4064D6E46FCDA41C05550DC9E483A00797BFD207EFB092A45DE9514C1BBD22178396BD39D891265658C238DEA00936C654E5E433CB65A26D9F6EDB5EBC14EBF49A45CB856E66048291F6939A9A81BB5
310
C8917738143CA680F4AA299D66A042CEB3354A2684DC9D8D178FE0D9B8B41CAAD720F880EE7EF93C0C18769E099ECC04D5A102C8049A8A05632F4DDF376CF1DE0F6BB65C2F8627B65A33C6BB62177CEBBDAD973006829F89F22E814B54F4BC2BE347F8AA8F681390B50FA73F804400B5F542E796F19FF974E7F78DB802FE05
310
E207504B0304140006080800CC70623B16AB87BA640500003C100000340000006662782F39464131463745442D413632322D343644302D413938332D3331353338454246344243312F6F626A656374732E786D6CAD575B6FA33818FD2B887DE6924B3BED8A326A92B68A663B534DD4D13E548A0C38942D60649B369D5FBFC7
310
600890A493BDE42160637FD7F31D7FF63E6FB3D478A55C242CBF3247B66B1A340F5994E4F19559CA8D75611A9F7D8F33263BCB4C232719BD32D5B4E97B316765A1A722BA21652A07B3B7B33F0D11D29C9A46981221AE4C113ED38CD8A4942CA2E2C58E882476BCD9DA23BB5ED8171B73523C0F841684D35CC252CCE79062D4
310
468DFA43D7747CCF51DF7D4FFDEB5593E3AB9CCA9FBEFE241792E4E19EB28198C968BAB8199F5D5A67D3E9C49A9E8F47D6EC76B6B0469F26EEFC7C3EBFBCBEB98462213924694B38DD98FE1D62C393D073EA4FADC5DAF04326852CCF6958F90F0F2B9BB5C48816348F90C7840A68EB78EDF68723159BCEE7891A6B95DDE9D3
310
BCEAEEE8086A6C6F9E5D4B59F0175C10A7A0820BAA5055C7473B5AE3CFDD452D602CD5DF12616444529E90D448938013FE6EFA58AA96F85E4F8C42275708571E98FE6827AF6B2B4AE3D7D83D64E5A64C53054DD3AF90BD06FEA9149565C94FCA0F6B834DC85599E4F2423B24DF0B6AFA979E534DFA9E7A4CC6FA631D486393
310
921829879BF5D781A373557BCB85E97FB90DB62B558F8795179C15944B051F40AB495CF35451D26A4727654E6D8033BD98EF82F21D91FF8AF2DD9982BCF1643BDD4EB516C9492E368C67C88DED563FC36D5EACF66DFF057C3658BDBFA69DF9578B3DA735B64F18C7F20770A9D45CFCF7FCF563D6456A277DBEF78A02637CA2
310
43B90A490AEAB94F72244481D24819A6C0E59B606BFA4B3025981DBB48EAB701D97BF19C577CC77F2D1B6C55A9EF3C732474C0B727303F625995056C3B02963D9EAC146BE78EC5FCEC7FA999EBC5EACBAAE41B12D27B4D2C0BBA49F244E2ECDC81B76B502F113D8F5EE8FB1BE3111CDD4FC2AA9B844CAB1288B68AB90A7CDC
310
1C166AB0D3DC5310625FCC14E779BFD0709F8890A629C9292B1B2DED31A4B0DA928CEE135085754027E3018A397D4D5427D15BD1330B677DC8934285AC3DF45A9EB68FF8F2B8FC0A509AFEECFD0FF2DE25CC6047F7214B195F07EFEB9A094D800F7BFAE8FED187B78EA8A3A400F115961BCAD1215E47C966530AF0EE8128FE
310
58CEBB996A8964FFA529A046635D9353B0336A8F700DDF46271A024E70B0B37C9DE01847591E54DED53D54202AB947E4076556AC49C6CA5C9E1226B7F1A7B1BE15DEED62C41B91E1B3E9AFAAA735036547343A925075041DF0A9979E893B391F8FCFA6967B3EFB644DCF6E5CEBFAE272625DCC6FAF3FB93793C5F90CE1EF57
310
407342756B10D1C489E8953CD1617E5CEECAD6F4EF8914CE5D5D504E5C3F1F9736DA62CFC11E00BCDDB8CC8A9466349744C1F75EBDA4DF09BA8A9E8C7A7E9991989E20E5DBDD6A6003664ED8F7A04A8DBE0DF6EAD9B9AA858342E47399053949D2C146EDB85DE4B176BB0965FBAC19BD19AA918E27FA50C1D22402E144464C
310
59462568E704B6E71915404CB72B8FF4EDE184DDAF753F284990D2C6926782963815403548A70C657FDEF80D2D9CEAA2AE4C1C76F60BFE74219A06527D6582DF6412526107381E55E353090704D085B52408D0933C4ED159D79BDA71BB4BC506F4831350EB6F979CD22D69BF7AC49B91A2C0A9DDA3D5CA36AD20FC478E37E6
310
1844E2352865EBCB6EA275A652E3836BE04EFB400BF1A2556F515F1FBB35B2AB35BD889C744FFA1004B5544B121E57F70215746DD2F5E2C1412B602CBF19455AC6C8E5E9922C4E01E65215385004546899059180EAFCF7A707CE7017CD8CDB0410789AB32C63B91E5CEBBBACB17AC6CD347A022D5075FD106377347AAABA7E
310
7D11590744509B44E205134DC1290F06580320F78E537D3D73540E06CB970B431F185308AD40BBD794D6D77003C5A36E8EAA54BA64597CD8F83BD552A080A365F7FF06504B0304140006080000CC70623B000000000000000000000000350000006662782F39464131463745442D413632322D343644302D413938332D3331
310
353338454246344243312F76657274696365732E62696E504B0304140006080800CC70623BF270F1330600000004000000360000006662782F39464131463745442D413632322D343644302D413938332D3331353338454246344243312F747269616E676C65732E62696E636660600000504B0304140006080000CC70623B
310
000000000000000000000000370000006662782F39464131463745442D413632322D343644302D413938332D3331353338454246344243312F617474726962757465732E62696E504B0304140006080800CC70623B08DA0BD19000000041010000360000006662782F39464131463745442D413632322D343644302D413938
310
332D3331353338454246344243312F6469726563746F72792E786D6C858F410AC3201045AF22B36F53E9A60B35CBEEBAE80D244E44489C6234F4F835464A48035D0DF398FF9F8AF63D0E6CC63039F212F8F9020C7D47C6792B21C5FE7403D62A1188E2E60C98D7234A5830286103A55745067B9D86B8A3CF9C7F90C11DE607
310
FB144396D7B6A82D282E9A152AD114D5EF2CB866EEE831B8EEA07A7BB5A8D7D61A2BAAEB7FD5F70921FF497D00504B0304140006080800CC70623B0D6EF93BFE000000A00100003B0000006662782F39464131463745442D413632322D343644302D413938332D3331353338454246344243312F7265736F75726365732F63
310
6F72652E786D6C8D50596E833010BD0A9ADFCA60B334011947A8694ED00B586642AC041B79A97AFC9A40A5F6AF3F33A3B7689E1E3F7DCD8FEC139DD7D6F4C0720A191A65476DA61E62B892236427C19DB5E1970C322367EC618541F0C9D9B8EC90B226A009093576C41D94DE63804C3DD2D18357379C652E63480A7FCF17A9
310
EE72C29CE5894E3AC17D702940B63D59270887DE46A7D0F36263058F518FBB468FE9A7BE6A7420864373B8D4873369AA8691FA421B3294352543C5CAF65C0F6FEF43CB8BD52C78D0F34F46E550061C419494B6843142CB0F5677F4B52BEB177AEC28E5C52AFF638ACBF84F53D42654E51E77B379102C05791282176B5F693D
310
CB4C7BED567C03504B010214000A0000080000CC70623B3DEE336E79000000790000001B00000000000000000000000000000000006175746F6465736B2D64657369676E2D7061636B6167652E786D6C504B01021400140006080800CC70623BD486FD9CA0000000F40000001300000000000000000000000000B20000005B
310
436F6E74656E745F54797065735D2E786D6C504B01021400140006080800CC70623B1EC5D7A3EB0000007C010000080000000000000000000000000083010000636F72652E786D6C504B01021400140006080800CC70623B55019EA25F0000007C000000070000000000000000000000000094020000636E782E786D6C504B
310
01021400140006080800CC70623B8C9102E971010000D40300000C00000000000000000000000000180300006662782F636F72652E786D6C504B01021400140006080800CC70623BFFEA85907E0000009D0000000B00000000000000000000000000B30400006662782F636E782E786D6C504B01021400140006080800CC70
310
623B4FEEA4082C0100001202000031000000000000000000000000005A0500006662782F39464131463745442D413632322D343644302D413938332D3331353338454246344243312F636F72652E786D6C504B01021400140006080800CC70623BAD7543B64E010000330300003000000000000000000000000000D5060000
310
6662782F39464131463745442D413632322D343644302D413938332D3331353338454246344243312F636E782E786D6C504B01021400140006080800CC70623B16AB87BA640500003C1000003400000000000000000000000000710800006662782F39464131463745442D413632322D343644302D413938332D3331353338
310
454246344243312F6F626A656374732E786D6C504B01021400140006080000CC70623B0000000000000000000000003500000000000000000000000000270E00006662782F39464131463745442D413632322D343644302D413938332D3331353338454246344243312F76657274696365732E62696E504B01021400140006
310
080800CC70623BF270F133060000000400000036000000000000000000000000007A0E00006662782F39464131463745442D413632322D343644302D413938332D3331353338454246344243312F747269616E676C65732E62696E504B01021400140006080000CC70623B0000000000000000000000003700000000000000
310
000000000000D40E00006662782F39464131463745442D413632322D343644302D413938332D3331353338454246344243312F617474726962757465732E62696E504B01021400140006080800CC70623B08DA0BD190000000410100003600000000000000000000000000290F00006662782F39464131463745442D413632
310
322D343644302D413938332D3331353338454246344243312F6469726563746F72792E786D6C504B01021400140006080800CC70623B0D6EF93BFE000000A00100003B000000000000000000000000000D1000006662782F39464131463745442D413632322D343644302D413938332D3331353338454246344243312F7265
310
736F75726365732F636F72652E786D6C504B0506000000000E000E0080040000641100000000
  0
XRECORD
  5
175
102
{ACAD_REACTORS
330
173
102
}
330
173
100
AcDbXrecord
280
     1
270
     1
271
     1
  0
XRECORD
  5
174
102
{ACAD_REACTORS
330
173
102
}
330
173
100
AcDbXrecord
280
     1
270
     1
271
     1
  0
XRECORD
  5
1FB
102
{ACAD_REACTORS
330
173
102
}
330
173
100
AcDbXrecord
280
     1
 70
     0
 90
1673772943
  1
ECE7A1D2-D628-4531-984C-D00F80459256
310
504B03040A0000080000CC70623B3DEE336E79000000790000001B0000006175746F6465736B2D64657369676E2D7061636B6167652E786D6C3C3F786D6C2076657273696F6E3D22312E302220656E636F64696E673D227574662D3822203F3E3C666F726D6174733E3C666F726D61743E687474703A2F2F736368656D612E
310
6175746F6465736B2E636F6D2F64657369676E2D7061636B6167652F323030393C2F666F726D61743E3C2F666F726D6174733E504B0304140006080800CC70623BD486FD9CA0000000F4000000130000005B436F6E74656E745F54797065735D2E786D6C7D8EC10E82300C865F65E91D8A1E8C310C0EEA1BF002731658846E
310
D98AC1B77784ABF1D8FE5FBFBF75BBCE937A534CCEB38643598122B6FEE978D0B0485F9C41B54DDD7D022595594E1A469170414C76A4D9A4D207E29CF43ECE46F218070CC6BECC4078ACAA135ACF422C856C0E68EA1BF5669944DDD7BCDE7B1F8E415D77AECB980613C2E4AC91FC167A2B244592486606FC29C8FD7F045B9A
310
EF7053A7E60B504B0304140006080800CC70623BD9DDAED0EC0000007C01000008000000636F72652E786D6C8D90416EC3201045AF82665B61836D9CD8C2444DD39CA01740405C94182C03558F5F9C3852BBEB6A467FFE9B197D7EF89E6EE8CB2CC17A37002D0820E394D7D68D03A478C17B4007C117EFE32F1B20272733C0
310
2A83E0E3E2D3BC49CABB685CCCAAF3DA6CA20CC14440EA969B0182FA34932C648AD911AEC52CD5558EA6A0CF2EC329598D1E47ACCEFBECC59A050463A7EA5833865FEBDD0E37353BE3EE8DBDE3F6786A48D375FBF6CC78B9C282473B3DEFABC5C86834888A900E538A49F5419B9EB47DD5BC907D4F082F57FB1F28CDFA9F50
310
B22ED6D5F6EE030B20687EE43E10BC5CB3C8E51E54AE6B6EE207504B0304140006080800CC70623B55019EA25F0000007C00000007000000636E782E786D6C4DCB3B0E80201045D1AD90E915ED2CF8AC45050C11660C8261F98AB1B07AC9C97D42D718D865D3E909258CFD00CCE24AC6E326A164D74DC0B4128928FF326038
310
472BA13128B1252AC747C6BAB984FC68F0B87FE8960A5C09FE86CFB69FBA01504B0304140006080800CC70623BA24EB22D72010000D40300000C0000006662782F636F72652E786D6CC5535B6E833010BC8AE5DF0A6C5E49888CA3A6694ED00B38E05014B091B1518EDFE511A5A9D228FD2A1F60CDEC7A67C6986DCE4D8D7A
310
69BA4AAB0C073EC548AA5C17952A33ECECD15B61B4E1CC686DBF9561A44423333CC098B3D268D7CE50AE9595CA02AA74216750749DB418E5352C32DCE59FB211BE70162ABA93DF8AFC244AE9073ED050C759670D0840D390E18DF9F1706664C23973AE2A66B62A605A75ACA4C13C4976E1364A12EF355A2EBD384AF65EFA96
310
BC7B8BED2EA6719AAE16FB8491A199335B351775B991C2CA02F390D2D40B028F861F41BCA68B7518BFD0D59A524686F29B26D7164F36B94AD9289CE54E6D1DE6010819891F6E21228B3AD1831EC219194284CF98F06DD01008846CC5A1BEF83801D4CBDC6A1303536877A57A513B0953A94FC707FDBE6064EA84A9E3E6E0FA
310
EE8CF0E9198F7784A316AA0413C2C2F2E0ECA0934D1AE6D05A69BCDE9E91D2A611F573361E38FC1375157F5752AE6B6DFE4B11990F88CCBF0719EE23FF02504B0304140006080800CC70623B408A7D3B7C0000009D0000000B0000006662782F636E782E786D6C4DCCD10A83201886E15B91FFDC552A92A0064DBC8F581632
310
D3703A76F9ABD1C18E3E78F878E5F0D9027ABBFCF2292AE86E2D20171F69F6715550CB827B40839639A5F2770314A7CD293819B45C73AAFB45B35BA61ACAA1C1C7E7855C58C15BC331339661262CC762340413D68D77DA5B42298546CBE6573AF60CEB2F504B0304140006080800CC70623B449FB9BD290100001202000031
310
0000006662782F36394639363044362D344446342D343946362D394244322D3234314243333846323333332F636F72652E786D6C8D515B6EC32010BC0AE22B55850D98B871848994463E412FE002495162B07854397EA176A4F62F3F2C9A9D991D587EB84F37F0AD7D30CEF6905418026DA553C65E7A98E219ED203808EE9D
310
8B7F6810D871D23D2C3014FCE25D9A57483A1BB58D19B54EE9151C43D0110279CB971E06F9A5A7B11A53CC8C70ADE6515EC78BAE4895DB992778883E0700CB907242D17643D7E2538BD869608875438BBAE38922CAC8F1BDD90DB4691A5E2F42C153326A951B95E398B3D1FE599322163C9AE9115F7A3D46ADA0A018778810
310
84E907617BDCEE297BC5BB3DC6BC2EF47FA234AB2745C9D8D8D035EE220B50105E2F0DC1954B9FB747187D9F9D8FA0CCDB042D5FA0C015C65B42DF78BD10F3F3B363CB56C7109DCFDFBBB97E662ED92EB62D13BC2E1BCAE5777DB9966D8A1F504B0304140006080800CC70623BAD7543B64E01000033030000300000006662
310
782F36394639363044362D344446342D343946362D394244322D3234314243333846323333332F636E782E786D6CD593CD6EC32010845F0571AD6CE3D48AD20813A9873E410FBD12D82434182C7EAAE6EDBB2424CD25871E7B41D6EC30B3FA84F9E67BB2E40B4234DE8DB46F1925E094D7C6ED479AD3AE5951B2113C789FEE
310
6C943839C1488B4C05DF079FE72A69D8C96C13AAD6B8631503449F83828872B949AC57D26200B826A308D316B4064D6E46FCDA41C05550DC9E483A00797BFD207EFB092A45DE9514C1BBD22178396BD39D891265658C238DEA00936C654E5E433CB65A26D9F6EDB5EBC14EBF49A45CB856E66048291F6939A9A81BB5C89177
310
38143CA680F4AA299D66A042CEB3354A2684DC9D8D178FE0D9B8B41CAAD720F880EE7EF93C0C18769E099ECC04D5A102C8049A8A05632F4DDF376CF1DE0F6BB65C2F8627B65A33C6BB62177CEBBDAD973006829F89F22E814B54F4BC2BE347F8AA8F681390B50FA73F804400B5F542E796F19FF974E7F78DB802FE05E20750
310
4B0304140006080800CC70623B8D05915C650500003B100000340000006662782F36394639363044362D344446342D343946362D394244322D3234314243333846323333332F6F626A656374732E786D6CAD575B6FA33814FE2B887D06429276DA1565D4266D158D3A339A6846FB502932E050B66023DB74D2FDF5FB190C01
310
9276B2973C046C8ECFF53B17071F77456EBD502133CEAE6CDF9DD81665314F32965ED995DA3A17B6F5310C04E7AA47665B8C14F4CAD6DB7618A48257A5D94AE89654B91AEDDEDDFC61C998326A5B714EA4BCB265FC440BE2924AF184CA6737218AB8E976E7FA6E4338649B0A523E8D98964450A6A029F619B8588D52FE7039
310
B1BD30F0F4F730D0FF866AF6369557DB33949F31A9088B0F848DD8CCFCF9F2767A76E99CCDE733677E3EF59D9BBB9BA5E37F984D16E78BC5E5F5ED25044B25C0C96822E8D60EEFE11B91C581D77CEA34368A1F5329E68CD1B8B61F16D63A1B8E092D294B10C78C4A48EB593D192E7DED9BDEE7995E1B91FDEDD3ACEA9FE831
310
6A756F9F7D4D79F4274C90A7A04248AA51D5F8C718DAE06FB2F75AC4796EBE65D22A88A22223B995679120E2D50E41AA49C260C046A35368846B0BECD0DFF3EBEB8AD4F835768F69B9ADF25C43D30E6B646F807FAA64AD59F61715C7A54127C4AACA98BA3006A9D792DAE165E0D59B61A01FB3A9F9D838D2DAE62445C86166
310
F37564E842E7DE6A69879FEEA2DD5AE7E371E1A5E025154AC307D06A03D73EB5978C58FFA4C8E9033066E0F3BD53BEC1F39F91BE7B55103791EDE6BBB991A2046172CB4581D8B893FA674DDA17A77B3B7C413D1B511FD2743BFF8A38F03A658705E3ADF8015C3A3417FF3D7E439FF591DA0B5F18BC20C1B8981957AE6392A3
310
F43C640C01D1A0B4728E2DD4F26DB4B3C3152A252A3B4E913CEC1C72F012782FF88EFF8637AA552DBEF76408E8A8DE9E50F9E1CB3A2DA0DB1B6039A893B56063DC5B3E3FFB5F72E67AB9FEB4AEC496C4F4C1149625DD662C53E89D7BF0F6151A046260D1337DFDC94502430F83B0EE07A130A224BCAD7DAE1D9FB6CD422FF6
310
920702629C4BB9AE79C12F243C6432A6794E18E5552BA56B431AAB5D91317302B2B071E86C3A42B1A02F999E24061403B5D0EB639195DA655DD3EBEAB4FB862DDF579F014AD0E73C22F99E28DA57FB98E75C6CA2D74D53086D600F4786E0FE3144B771A8A7B900F03594DB8A633CBC49B2EDB69228BB479CF863B5E807AAAB
310
23872F6DFEB4129B949CA33823F58830E86D65621E10047D9DB34D862E8EAC3C2ABC2F7B2C40D67CDFE01F5545B92105AF983AC54D93D69E56FB8E797F88913F898A9FEC705D3F9D1B54EC8426FB500D40A03BD0119B06E1B95DDC7EB8F6975367793EBD70E66733DFB9BC982F9CE564727731999F5D4ECFCE3B8D6A4DC2A0
310
6D50FD148437D110834A64C6CDDF57FBACB5C307A2A477DFE4939736CFEF2B175371E0E10CF0DD1D5C15654E0BCA14D1E87DD02FF93782A162C0A3D95F1524A52770F972BF1EE9809D13CE7DD599467F8ECE9ADD85CE85A34CD45355448C64F9E8A031DC2D596ACC6E5DD93D9B82DE2EF5CAF81363A8E47996A0DE24564A79
310
4115AACE09C55E14540231FDA13C319787134EBF34E3A022514E5B4D9E0826E25C02D5805B15ABE1BEF51B26383D445DD9E875EE33FE4C22DA16427D65A3BCA92CA6D28DD01DF5DC53330704308475351050232CCD31583787BA75774AFB06E5070DD0C8EF484E19968C5D83BA5B90B244D31E54D55A372320FE4786B7EA58
310
44E135AA5467CB7EA333A61683CC6A8C3257034C10CF46F40EF9F5BE59BE5BD30C3C72D235E95D10345C1D45445A5F0BB47E46A5EBE5570F9380B5FA629579952296A773720405982B9DE04011506178964401AA8BDF1FBF0A8EAB6861DD6580C0E38217056766716DAEB2D6FA0917D3E4116581EADB879C4E7CFFB11EFACD
310
3D641311495D92C8676CB409A72D18610D803CE8A626049E8EC1887CB5B44CC39883690DDA8399B4B9855B481E7D71D4A9D22F96E5BB73BF5793020C02137BF837504B0304140006080000CC70623B000000000000000000000000350000006662782F36394639363044362D344446342D343946362D394244322D32343142
310
43333846323333332F76657274696365732E62696E504B0304140006080800CC70623BF270F1330600000004000000360000006662782F36394639363044362D344446342D343946362D394244322D3234314243333846323333332F747269616E676C65732E62696E636660600000504B0304140006080000CC70623B0000
310
00000000000000000000370000006662782F36394639363044362D344446342D343946362D394244322D3234314243333846323333332F617474726962757465732E62696E504B0304140006080800CC70623B08DA0BD19000000041010000360000006662782F36394639363044362D344446342D343946362D394244322D
310
3234314243333846323333332F6469726563746F72792E786D6C858F410AC3201045AF22B36F53E9A60B35CBEEBAE80D244E44489C6234F4F835464A48035D0DF398FF9F8AF63D0E6CC63039F212F8F9020C7D47C6792B21C5FE7403D62A1188E2E60C98D7234A5830286103A55745067B9D86B8A3CF9C7F90C11DE607FB14
310
4396D7B6A82D282E9A152AD114D5EF2CB866EEE831B8EEA07A7BB5A8D7D61A2BAAEB7FD5F70921FF497D00504B0304140006080800CC70623BCA768048FE000000A00100003B0000006662782F36394639363044362D344446342D343946362D394244322D3234314243333846323333332F7265736F75726365732F636F72
310
652E786D6C8D50596E833010BD0A9ADFCA60D600328E9AA639412F609909B1126CE4A5EAF16B0295DABFFECC8CDEA2797AECF8353F924FB44E193D409E5248504B332A3D0D10FC95B4901C39B3C6F85F3248B49871801506CE266BC2B243D2688FDA47549B11775038871E12F988C7004EDE7016A9083E2ADC3D5D84BC8B09
310
D33C8D74D471E6BC8D0192EDC93A815B742658898E651BCB59086ADC356A8C3FD555A1055ED7E7E254D615792D0F075295F585746FF53B694EE78A565DD736979A65AB9933AFE69F8CD2A2F038022F28ED489E135A7CE4554F9BBEA85E68DB53CAB255FEC71496F19FA6A0B42F8B3DEE6673C0F318E4497096AD7DC5F52C33
310
EEB55BFE0D504B010214000A0000080000CC70623B3DEE336E79000000790000001B00000000000000000000000000000000006175746F6465736B2D64657369676E2D7061636B6167652E786D6C504B01021400140006080800CC70623BD486FD9CA0000000F40000001300000000000000000000000000B20000005B436F
310
6E74656E745F54797065735D2E786D6C504B01021400140006080800CC70623BD9DDAED0EC0000007C010000080000000000000000000000000083010000636F72652E786D6C504B01021400140006080800CC70623B55019EA25F0000007C000000070000000000000000000000000095020000636E782E786D6C504B0102
310
1400140006080800CC70623BA24EB22D72010000D40300000C00000000000000000000000000190300006662782F636F72652E786D6C504B01021400140006080800CC70623B408A7D3B7C0000009D0000000B00000000000000000000000000B50400006662782F636E782E786D6C504B01021400140006080800CC70623B
310
449FB9BD290100001202000031000000000000000000000000005A0500006662782F36394639363044362D344446342D343946362D394244322D3234314243333846323333332F636F72652E786D6C504B01021400140006080800CC70623BAD7543B64E010000330300003000000000000000000000000000D20600006662
310
782F36394639363044362D344446342D343946362D394244322D3234314243333846323333332F636E782E786D6C504B01021400140006080800CC70623B8D05915C650500003B10000034000000000000000000000000006E0800006662782F36394639363044362D344446342D343946362D394244322D32343142433338
310
46323333332F6F626A656374732E786D6C504B01021400140006080000CC70623B0000000000000000000000003500000000000000000000000000250E00006662782F36394639363044362D344446342D343946362D394244322D3234314243333846323333332F76657274696365732E62696E504B010214001400060808
310
00CC70623BF270F13306000000040000003600000000000000000000000000780E00006662782F36394639363044362D344446342D343946362D394244322D3234314243333846323333332F747269616E676C65732E62696E504B01021400140006080000CC70623B00000000000000000000000037000000000000000000
310
00000000D20E00006662782F36394639363044362D344446342D343946362D394244322D3234314243333846323333332F617474726962757465732E62696E504B01021400140006080800CC70623B08DA0BD190000000410100003600000000000000000000000000270F00006662782F36394639363044362D344446342D
310
343946362D394244322D3234314243333846323333332F6469726563746F72792E786D6C504B01021400140006080800CC70623BCA768048FE000000A00100003B000000000000000000000000000B1000006662782F36394639363044362D344446342D343946362D394244322D3234314243333846323333332F7265736F
310
75726365732F636F72652E786D6C504B0506000000000E000E0080040000621100000000
  0
XRECORD
  5
176
102
{ACAD_REACTORS
330
173
102
}
330
173
100
AcDbXrecord
280
     1
270
     1
271
     1
  0
XRECORD
  5
177
102
{ACAD_REACTORS
330
173
102
}
330
173
100
AcDbXrecord
280
     1
270
     1
271
     1
  0
CELLSTYLEMAP
  5
7CD7
102
{ACAD_REACTORS
330
162
102
}
330
162
100
AcDbCellStyleMap
 90
        3
300
CELLSTYLE
  1
TABLEFORMAT_BEGIN
 90
        5
170
     1
 91
        0
 92
    32768
 62
   257
 93
        1
300
CONTENTFORMAT
  1
CONTENTFORMAT_BEGIN
 90
        0
 91
        0
 92
      512
 93
        0
300

 40
0.0
140
1.0
 94
        5
 62
     0
340
11
144
6.0
309
CONTENTFORMAT_END
171
     1
301
MARGIN
  1
CELLMARGIN_BEGIN
 40
1.5
 40
1.5
 40
1.5
 40
1.5
 40
4.5
 40
4.5
309
CELLMARGIN_END
 94
        6
 95
        1
302
GRIDFORMAT
  1
GRIDFORMAT_BEGIN
 90
        0
 91
        1
 62
     0
 92
       -2
340
14
 93
        0
 40
1.125
309
GRIDFORMAT_END
 95
        2
302
GRIDFORMAT
  1
GRIDFORMAT_BEGIN
 90
        0
 91
        1
 62
     0
 92
       -2
340
14
 93
        0
 40
1.125
309
GRIDFORMAT_END
 95
        4
302
GRIDFORMAT
  1
GRIDFORMAT_BEGIN
 90
        0
 91
        1
 62
     0
 92
       -2
340
14
 93
        0
 40
1.125
309
GRIDFORMAT_END
 95
        8
302
GRIDFORMAT
  1
GRIDFORMAT_BEGIN
 90
        0
 91
        1
 62
     0
 92
       -2
340
14
 93
        0
 40
1.125
309
GRIDFORMAT_END
 95
       16
302
GRIDFORMAT
  1
GRIDFORMAT_BEGIN
 90
        0
 91
        1
 62
     0
 92
       -2
340
14
 93
        0
 40
1.125
309
GRIDFORMAT_END
 95
       32
302
GRIDFORMAT
  1
GRIDFORMAT_BEGIN
 90
        0
 91
        1
 62
     0
 92
       -2
340
14
 93
        0
 40
1.125
309
GRIDFORMAT_END
309
TABLEFORMAT_END
  1
CELLSTYLE_BEGIN
 90
        1
 91
        1
300
_TITLE
309
CELLSTYLE_END
300
CELLSTYLE
  1
TABLEFORMAT_BEGIN
 90
        5
170
     1
 91
        0
 92
        0
 62
   257
 93
        1
300
CONTENTFORMAT
  1
CONTENTFORMAT_BEGIN
 90
        0
 91
        0
 92
      512
 93
        0
300

 40
0.0
140
1.0
 94
        5
 62
     0
340
11
144
4.5
309
CONTENTFORMAT_END
171
     1
301
MARGIN
  1
CELLMARGIN_BEGIN
 40
1.5
 40
1.5
 40
1.5
 40
1.5
 40
4.5
 40
4.5
309
CELLMARGIN_END
 94
        6
 95
        1
302
GRIDFORMAT
  1
GRIDFORMAT_BEGIN
 90
        0
 91
        1
 62
     0
 92
       -2
340
14
 93
        0
 40
1.125
309
GRIDFORMAT_END
 95
        2
302
GRIDFORMAT
  1
GRIDFORMAT_BEGIN
 90
        0
 91
        1
 62
     0
 92
       -2
340
14
 93
        0
 40
1.125
309
GRIDFORMAT_END
 95
        4
302
GRIDFORMAT
  1
GRIDFORMAT_BEGIN
 90
        0
 91
        1
 62
     0
 92
       -2
340
14
 93
        0
 40
1.125
309
GRIDFORMAT_END
 95
        8
302
GRIDFORMAT
  1
GRIDFORMAT_BEGIN
 90
        0
 91
        1
 62
     0
 92
       -2
340
14
 93
        0
 40
1.125
309
GRIDFORMAT_END
 95
       16
302
GRIDFORMAT
  1
GRIDFORMAT_BEGIN
 90
        0
 91
        1
 62
     0
 92
       -2
340
14
 93
        0
 40
1.125
309
GRIDFORMAT_END
 95
       32
302
GRIDFORMAT
  1
GRIDFORMAT_BEGIN
 90
        0
 91
        1
 62
     0
 92
       -2
340
14
 93
        0
 40
1.125
309
GRIDFORMAT_END
309
TABLEFORMAT_END
  1
CELLSTYLE_BEGIN
 90
        2
 91
        1
300
_HEADER
309
CELLSTYLE_END
300
CELLSTYLE
  1
TABLEFORMAT_BEGIN
 90
        5
170
     1
 91
        0
 92
        0
 62
   257
 93
        1
300
CONTENTFORMAT
  1
CONTENTFORMAT_BEGIN
 90
        0
 91
        0
 92
      512
 93
        0
300

 40
0.0
140
1.0
 94
        2
 62
     0
340
11
144
4.5
309
CONTENTFORMAT_END
171
     1
301
MARGIN
  1
CELLMARGIN_BEGIN
 40
1.5
 40
1.5
 40
1.5
 40
1.5
 40
4.5
 40
4.5
309
CELLMARGIN_END
 94
        6
 95
        1
302
GRIDFORMAT
  1
GRIDFORMAT_BEGIN
 90
        0
 91
        1
 62
     0
 92
       -2
340
14
 93
        0
 40
1.125
309
GRIDFORMAT_END
 95
        2
302
GRIDFORMAT
  1
GRIDFORMAT_BEGIN
 90
        0
 91
        1
 62
     0
 92
       -2
340
14
 93
        0
 40
1.125
309
GRIDFORMAT_END
 95
        4
302
GRIDFORMAT
  1
GRIDFORMAT_BEGIN
 90
        0
 91
        1
 62
     0
 92
       -2
340
14
 93
        0
 40
1.125
309
GRIDFORMAT_END
 95
        8
302
GRIDFORMAT
  1
GRIDFORMAT_BEGIN
 90
        0
 91
        1
 62
     0
 92
       -2
340
14
 93
        0
 40
1.125
309
GRIDFORMAT_END
 95
       16
302
GRIDFORMAT
  1
GRIDFORMAT_BEGIN
 90
        0
 91
        1
 62
     0
 92
       -2
340
14
 93
        0
 40
1.125
309
GRIDFORMAT_END
 95
       32
302
GRIDFORMAT
  1
GRIDFORMAT_BEGIN
 90
        0
 91
        1
 62
     0
 92
       -2
340
14
 93
        0
 40
1.125
309
GRIDFORMAT_END
309
TABLEFORMAT_END
  1
CELLSTYLE_BEGIN
 90
        3
 91
        2
300
_DATA
309
CELLSTYLE_END
  0
XRECORD
  5
3461
102
{ACAD_REACTORS
330
3460
102
}
330
3460
100
AcDbXrecord
280
     1
330
10D
  0
ENDSEC
  0
SECTION
  2
ACDSDATA
 70
     2
 71
     8
  0
ACDSSCHEMA
 90
        0
  1
AcDb_Thumbnail_Schema
  2
AcDbDs::ID
280
    10
 91
        8
  2
Thumbnail_Data
280
    15
 91
        0
101
ACDSRECORD
 95
        0
 90
        1
  2
AcDbDs::TreatedAsObjectData
280
     1
291
     1
101
ACDSRECORD
 95
        0
 90
        2
  2
AcDbDs::Legacy
280
     1
291
     1
101
ACDSRECORD
  1
AcDbDs::ID
 90
        3
  2
AcDs:Indexable
280
     1
291
     1
101
ACDSRECORD
  1
AcDbDs::ID
 90
        4
  2
AcDbDs::HandleAttribute
280
     7
282
     1
  0
ACDSSCHEMA
 90
        1
  1
AcDbDs::TreatedAsObjectDataSchema
  2
AcDbDs::TreatedAsObjectData
280
     1
 91
        0
  0
ACDSSCHEMA
 90
        2
  1
AcDbDs::LegacySchema
  2
AcDbDs::Legacy
280
     1
 91
        0
  0
ACDSSCHEMA
 90
        3
  1
AcDbDs::IndexedPropertySchema
  2
AcDs:Indexable
280
     1
 91
        0
  0
ACDSSCHEMA
 90
        4
  1
AcDbDs::HandleAttributeSchema
  2
AcDbDs::HandleAttribute
280
     7
 91
        1
284
     1
  0
ACDSRECORD
 90
        0
  2
AcDbDs::ID
280
    10
320
22
  2
Thumbnail_Data
280
    15
 94
     2410
310
89504E470D0A1A0A0000000D49484452000001000000009E0803000000EAB724D300000300504C5445000000FFFFFF0000000000000000000000000000000000000000000000000000000000330000660000990000CC0000FF0033000033330033660033990033CC0033FF0066000066330066660066990066CC0066FF0099
310
000099330099660099990099CC0099FF00CC0000CC3300CC6600CC9900CCCC00CCFF00FF0000FF3300FF6600FF9900FFCC00FFFF3300003300333300663300993300CC3300FF3333003333333333663333993333CC3333FF3366003366333366663366993366CC3366FF3399003399333399663399993399CC3399FF33CC00
310
33CC3333CC6633CC9933CCCC33CCFF33FF0033FF3333FF6633FF9933FFCC33FFFF6600006600336600666600996600CC6600FF6633006633336633666633996633CC6633FF6666006666336666666666996666CC6666FF6699006699336699666699996699CC6699FF66CC0066CC3366CC6666CC9966CCCC66CCFF66FF0066
310
FF3366FF6666FF9966FFCC66FFFF9900009900339900669900999900CC9900FF9933009933339933669933999933CC9933FF9966009966339966669966999966CC9966FF9999009999339999669999999999CC9999FF99CC0099CC3399CC6699CC9999CCCC99CCFF99FF0099FF3399FF6699FF9999FFCC99FFFFCC0000CC00
310
33CC0066CC0099CC00CCCC00FFCC3300CC3333CC3366CC3399CC33CCCC33FFCC6600CC6633CC6666CC6699CC66CCCC66FFCC9900CC9933CC9966CC9999CC99CCCC99FFCCCC00CCCC33CCCC66CCCC99CCCCCCCCCCFFCCFF00CCFF33CCFF66CCFF99CCFFCCCCFFFFFF0000FF0033FF0066FF0099FF00CCFF00FFFF3300FF3333
310
FF3366FF3399FF33CCFF33FFFF6600FF6633FF6666FF6699FF66CCFF66FFFF9900FF9933FF9966FF9999FF99CCFF99FFFFCC00FFCC33FFCC66FFCC99FFCCCCFFCCFFFFFF00FFFF33FFFF66FFFF99FFFFCCFFFFFF0000000D0D0D1A1A1A2828283535354343435050505D5D5D6B6B6B787878868686939393A1A1A1AEAEAEBB
310
BBBBC9C9C9D6D6D6E4E4E4F1F1F1FFFFFF0000000000000000000000000000000000000000000000000000000000003AE5ACE9000003124944415478DAEDDB4B92A4201080618FD31BEE7F19C213E4B6F6AD259628A69A32D380F5B3988A8E513AF9485E5ADD75140A85B294D7E3CB19C03F23ACABAACB0D2403FECEBACEAA
310
0000E0B4C8A65CAEEAF48E4A01366D95DBBF4AC6BA2C35D402B03898A27F2915B50A10BA30C9889B00727524550520923304945ADBCA809C21E0A34F696808F8F9639EC43201A45500C9CD5B1FC691DF4E25A7B3400D00F3F0BF1EF73EC070FD1B401ACB80A1A1FEDD7522591930DEEEADEDAF00606AB6EBB256011FEAF19D
310
7533581C2004EC4CCBC00EC0548FB726407180B9C39C691D4801C2BDDE7C1A280C20F1162E0BE0FDD1DB4F43A501E6F6BB2E73088CCDEF7DDF3703F05EE63EFB00EFF2578191B125806823E4447B20A06C061480A1F97D673C0E55003064AEF17988BA157613803497019F0D61E659C069A7415153AB1A80DDE66B711F0288
310
E9805C09C07EEF8B7912546EAA1040248E5B8C0F36B4C3903327400D0053DC79DD160E15CEDCFE0A86C014773EC048EACCED2F0F30C5DD65E66D385438E3045001C01477979BB7E150E1AE951A00FCB4150E71FBB4B89FA16861475585CB25FE21A969F90532FE53CF61685EFDFA642330FCF0935CA656355F207DF2586175
310
EFCE6A5B14E073161CE24EDA7F14F66BBFFDD3F33053FB8B022C47A0ED49F0A4FDC9C132DA3976EB169FB5BF24C0EAB55046B7C9F605DBF67FE4685A2D07205A47ADE33EEDB6F80289B36A99198E9695B2CBE0D19927BC319793AAC2EC7E58D167FA5F5D5C782BBC8E3B6E4D1CAAC86ED8EA9BA1CDE9B0FE678237E356DF0C
310
350970236EF5CD508B0077E256DF0C3508702B6EF5CD507B00F7E2E67B820000004083007C5D9E0C20039804010000000000000000000000000000000000000000000000000000000000000000000000000000000000000000000000000000000000001E07C0D7E5C900328049100000000000000000000000000000000000
310
000000000000000000000000000000000000000000000000000000000000000000000000000080A7017CFDDF0B3CA2310797FEE110F8FFE575A71BBF60081C76E3B3324005D0FBFC4B32E0FA10F805679D53A6FA27BE820000000049454E44AE426082D80F98E8DB566B62691B2289004089262017FC9804BCD6D8F57B825F
310
C4BE0A781570F59EA0E03343280F434209482C0827A02A06B104BC0727C596001DEF81E64DCCA71360E344A0215501E999058209E82D041E4B400C3AEE5C69910494A775173C4C74EDF1C712A0380BEF5313EFA604B8781E74F574204401C5C0E13DCCC713401EC6B43878EC79D867CE02D332E8D32FD590B10EA8E2075C3B
310
FF4F2720CE0214BFE316841208C0C6BBFBDF53CE772C81C5C3A44F7C9C3C37F81802A285A70E2D2C01041C5B58CF27004A2C015FC7BED6D87B70920F71FBAE5C02841E9D55F77587BFF44FB611BF4DF06711FC03CD0EC39386F036B70000000049454E44AE42608227CF0500D8ED0A0178D2AF3C1E4020B077A440DD611C9E
310
927B05C063215DA743043200A72C6D0600C06DA0980B840A09839B1F91728FA32C4B8E0B10F41703102CA47C7CEA1A68004E0C921F9C54DCB77010C4BE691EA2F4873CE043FA6D050952AF0D51FA03043EA41FAB2475ED96835AAE594B328017F5AF1524A8595B58CB3D6B4B8C016FEAB7419078AF90164FD61A516DE7BFF4
310
47E7E6716FE6E7EBACFC03B106401680EFB43F3FC715F144FCFEE00000000049454E44AE4260825E594B0CF1DC9CA29B1E725522E68053BFE42600591F0BCDB0260028AD7AA05F720B005CAEC65841CE0E0C0B9656FD7CAC7B00A093036A2DEA4BA908F893FE9F57CE72BBFEA40BFCADFEA70CEF4AE2EF0100C81A408E4007
310
C081007B00DCADE47F326F1300320700D0017007F02BF61F5CE932BBDF126E5C0000000049454E44AE42608274D30FD5E40E00F95536E355033B8B97C0FC0EC01D00E0D4806A00C193493403F23B403700C03AA162BD2227930200F776003CFD801BFDC7CF83FFD1FF7342AA23408D0BF79CC51A22C0003A20D03D007AFE73
310
626F0A810E00A07300DDA7000360B1582C168BC562B1582C168BC562B1582C168BC57A5CFF0033CABB49EA584FF10000000049454E44AE4260825D47C80488B61028BE272A75AFE27417D20F720540744A153CC82B1F3ABD5EFCA3419426996F79CB5BDED254FE017A14838B8A5389C40000000049454E44AE426082
  0
ACDSRECORD
 90
        0
  2
AcDbDs::ID
280
    10
320
34A0
  2
Thumbnail_Data
280
    15
 94
     2834
310
89504E470D0A1A0A0000000D4948445200000100000000B408030000004C80028300000300504C5445FFFFFFFFFFFFFFFFFF0000000000000000000000000000000000000000000000000000330000660000990000CC0000FF0033000033330033660033990033CC0033FF0066000066330066660066990066CC0066FF0099
310
000099330099660099990099CC0099FF00CC0000CC3300CC6600CC9900CCCC00CCFF00FF0000FF3300FF6600FF9900FFCC00FFFF3300003300333300663300993300CC3300FF3333003333333333663333993333CC3333FF3366003366333366663366993366CC3366FF3399003399333399663399993399CC3399FF33CC00
310
33CC3333CC6633CC9933CCCC33CCFF33FF0033FF3333FF6633FF9933FFCC33FFFF6600006600336600666600996600CC6600FF6633006633336633666633996633CC6633FF6666006666336666666666996666CC6666FF6699006699336699666699996699CC6699FF66CC0066CC3366CC6666CC9966CCCC66CCFF66FF0066
310
FF3366FF6666FF9966FFCC66FFFF9900009900339900669900999900CC9900FF9933009933339933669933999933CC9933FF9966009966339966669966999966CC9966FF9999009999339999669999999999CC9999FF99CC0099CC3399CC6699CC9999CCCC99CCFF99FF0099FF3399FF6699FF9999FFCC99FFFFCC0000CC00
310
33CC0066CC0099CC00CCCC00FFCC3300CC3333CC3366CC3399CC33CCCC33FFCC6600CC6633CC6666CC6699CC66CCCC66FFCC9900CC9933CC9966CC9999CC99CCCC99FFCCCC00CCCC33CCCC66CCCC99CCCCCCCCCCFFCCFF00CCFF33CCFF66CCFF99CCFFCCCCFFFFFF0000FF0033FF0066FF0099FF00CCFF00FFFF3300FF3333
310
FF3366FF3399FF33CCFF33FFFF6600FF6633FF6666FF6699FF66CCFF66FFFF9900FF9933FF9966FF9999FF99CCFF99FFFFCC00FFCC33FFCC66FFCC99FFCCCCFFCCFFFFFF00FFFF33FFFF66FFFF99FFFFCCFFFFFF0000000D0D0D1A1A1A2828283535354343435050505D5D5D6B6B6B787878868686939393A1A1A1AEAEAEBB
310
BBBBC9C9C9D6D6D6E4E4E4F1F1F1FFFFFF000000000000000000000000000000000000000000000000000000000000AD4AB4E40000037E4944415478DAEDDB4B9283201080618E930DF7BF4C970B97537D88319AE013A24800E3CF22934C45AAFB8346D18A69FF6EDC5A55D39A1BB71EE0D6AD0748C6E99AF9429FDF98A900
310
50024967C094F6125D1A0000F00174FF7FBE9AF1B5FBD7A21D8B76E781F5002C03D693D1EA82B57680A9840BFD2C8031D70318DEEB62529C07D08D562F80262881508DED5A170A02688A1290D93BBD4C09882B8154007A090017AE684CFE010055895B07CB00C44CFF2040D799AC17D53D0B41118067506ACCF1707D00CFA3
310
2462512D04D0E729E2AE064ECF80BE1789CABF04C02B69B1C7D7C16D80A143D18B2C82EF41179BE23A405C877A9145D04D7A89B882DF027877A87117C3B901C6A2577B7C33B001E0F297B8CD40668049FE9208A0FFD3347289CD904CF2EF01922C82C39BA67280E1DCE7C2EDF2B7C94E837D41A96F4314BEBEC807301B2F6B
310
A2C2F502345DF37658C90C98852B262ADC4009D826EEBE48D91990703B6C03F98766594100DF6807C2FD08B09D7F9533C03BF81AB908C6E59F0D40D5B3669F1C2EB7BFB471F9970118C2352986CB6D87ADEFD85A6E8AEA32DC84004F5D1B977F0980215C9366B8DCFED2C6E55F006008D7241A2EB7BFB471F9E70738156E60
310
3B6C6D6377B62200F23A99BFC395ADA68FAE85C29DF6F93E46671F973DDA678FE3C7FEB5E06E703CFB371B1782DDA7C763E3BBA168DD975E4F483534A5B4F876781EEE87687547B493FB0B1A957F5E8079B8C7F35F453BF9D28E1E8BDF109987BB8C563FE76F5A3FD22AFFF15E6170DF9511601EAE27E170B8AD1F493DF9BB
310
2730C56F89CDC3F50DB8EE1FAE65C21AD846FAF7DD196F89250877E334B8EA7E7AC273A7BFE9C7429B214FB8E653B8B27337B8BE4350D91D214FB8C7E20D3D1CBD10C06C86A70088EFB0E4C3D17400273A2CF9703419C0990E4B3E1C4D03703ED8BC9BA1FAA20500000000F81200BF19A20428014A80120000000000000000
310
0000000000000000000000000000000000000000000000000000000000000000000000000000000000000000000000000000000000E08700F8CD102540095002940000000000000000000000000000000000000000000000000000000000000000000000000000000000000000000000000000000000000000000000000000
310
00FC0E003F9ABA786B8363BCD57E6D069C05B8FC0C08C8EC2A81DF6D2B806C670166403533A0D07540856701AE03BC25606EDC7A80BF1B374A40F51F245C9387A3EE6CDB0000000049454E44AE42608288F296F30C8F6DB3D0DBB6C17E31EA72E550DDD6A5A834655240AF140B2F74245BD4983368831D1C7E818618834610
310
4F5BCA5A0D3AAA54CA169CCAD69E2CC4ED6C480378008DB2D4C481262A95AAFA9914174FAB23B6DCF4BDB1A04FA949B494B59B69AE5211B9A6BE6F09AC3AFE2CD0BDEF6A6B2E54E2B64B4A77A073994A341D966C1D73F055963DAA61D9BE73E9482E1DE543702AA203DD2EDAE9951943D06DC9A527D730A1CFF01045C9B229
310
E8173AEE286B1DB9661C1A29CE30B410BF7E634BC223DF88CC7C377E4243AC070DB11E34C442D00F4C5FA1E8F5F42BC94D088D216D6C1668416E02D60A0F7C7CD4FB428F2DC44E7CCF08BDE0537258F029B9B5629AFF90DC3CD0DA1DD8B21E929B067AE421B989A04764A659A0071E929B083AF859AEF060307D364740AFB1
310
10A99EB7EF02A5AC8799A197D99A66D0B2B05B2A78FDB7A133B97797822733CD01BDE9CD4963DB0D129386C7461B4B1B9B04DAFBDBCA4C8C3DDF749E36FC727E685C9837FF0462D6A62BE351CF733F9B57C0DEBB219860EF41A43143DD7B546D166871428BA2D68A59C3A3C53C3774DCF23999B6FE58E114E121B6F3132EE7
310
4664EA9B80040DA69E371334B87ADE44D060EB79AF12F017A0DF7F11FA492BF8B4F8D7CFC2E3675B077A957FC62A2AFE9F1FFAA715DB6F85C79B3D7E0DFA1F756E075697D5FED90000000049454E44AE426082408B24AB00A020F32ADD0DFEFE5C07805B030E7AB0F468AE017949561300E8B6697CF6001C35A5A41A00F32F
310
B19E6CD55C5300A232AF269B3CDAF997A1CA7FC6FA9F05F014798912E84BB2A0BA118ADA942A9CDA900D00C89467698FABD47D88F7055092AC1754380100124440C97FE807405E00400602C8FB3F02C0FD0280569BA60846B6C9AAFD4702C048B25E50E1E40138BB84BA3AF52D839DE3F5F706831470AE3043999C04406C87
310
6025005E862F08C0AF70EB01082AFC22004699DC003680AD19FAE3AAB14FA5C06701EC14D8ABC006101DED9F5FF079007D6AB41900388FD606B06A04B8243680BD0C3EEAE2820000D68E80D53F6C0DD6AE018B7ED85A8FFF3300E8FAB0B9090074A9D12600E0AAD11825EB1541578DC6282C09C078CD604900CE1BEE4B0270
310
8FDB2F99028EFFEB14C1AC1A6D0900E13248DC8F11806EA5F7070158A5E7129D602C0298F27DD914C8F99EC989490008A16BE86A1AC0D723006200AEF40DF1749F3D1E55A3D126FFBF9C02A11AADC9FF6F0308C66200640098DF6892237E1B00391E4180F7FFBB000E7244D46824FC503D2073029045EF51050EF1DF441263
310
AEDBE1A41AEDC205C077F703126A3472E1FCFF3280981A8D20AFFF4C11F070B85D3AFBD508C8FB3F27004F8DD6E2FF3C00DAD4685F064046A8D1A601D0AA469B0540B31A6D1200ED6AB4390074A8D1F671F90D6003D8003E05608BA6BE3D72F37FBA3C63047403582902A229306F8A937C88CC120145002B47C03FEA03FE5E
310
0DD87D402605561E1CC07F2B0F0EE05E7A00FC0FFDAF10B88C1FECC20000000049454E44AE426082
  0
ACDSRECORD
 90
        0
  2
AcDbDs::ID
280
    10
320
3FD5
  2
Thumbnail_Data
280
    15
 94
     1144
310
89504E470D0A1A0A0000000D49484452000000B40000010008030000002D3FACD700000300504C5445FFFFFFFFFFFFFFFFFF0000000000000000000000000000000000000000000000000000330000660000990000CC0000FF0033000033330033660033990033CC0033FF0066000066330066660066990066CC0066FF0099
310
000099330099660099990099CC0099FF00CC0000CC3300CC6600CC9900CCCC00CCFF00FF0000FF3300FF6600FF9900FFCC00FFFF3300003300333300663300993300CC3300FF3333003333333333663333993333CC3333FF3366003366333366663366993366CC3366FF3399003399333399663399993399CC3399FF33CC00
310
33CC3333CC6633CC9933CCCC33CCFF33FF0033FF3333FF6633FF9933FFCC33FFFF6600006600336600666600996600CC6600FF6633006633336633666633996633CC6633FF6666006666336666666666996666CC6666FF6699006699336699666699996699CC6699FF66CC0066CC3366CC6666CC9966CCCC66CCFF66FF0066
310
FF3366FF6666FF9966FFCC66FFFF9900009900339900669900999900CC9900FF9933009933339933669933999933CC9933FF9966009966339966669966999966CC9966FF9999009999339999669999999999CC9999FF99CC0099CC3399CC6699CC9999CCCC99CCFF99FF0099FF3399FF6699FF9999FFCC99FFFFCC0000CC00
310
33CC0066CC0099CC00CCCC00FFCC3300CC3333CC3366CC3399CC33CCCC33FFCC6600CC6633CC6666CC6699CC66CCCC66FFCC9900CC9933CC9966CC9999CC99CCCC99FFCCCC00CCCC33CCCC66CCCC99CCCCCCCCCCFFCCFF00CCFF33CCFF66CCFF99CCFFCCCCFFFFFF0000FF0033FF0066FF0099FF00CCFF00FFFF3300FF3333
310
FF3366FF3399FF33CCFF33FFFF6600FF6633FF6666FF6699FF66CCFF66FFFF9900FF9933FF9966FF9999FF99CCFF99FFFFCC00FFCC33FFCC66FFCC99FFCCCCFFCCFFFFFF00FFFF33FFFF66FFFF99FFFFCCFFFFFF0000000D0D0D1A1A1A2828283535354343435050505D5D5D6B6B6B787878868686939393A1A1A1AEAEAEBB
310
BBBBC9C9C9D6D6D6E4E4E4F1F1F1FFFFFF000000000000000000000000000000000000000000000000000000000000AD4AB4E40000004D4944415478DAEDC1411100000803A0F58FE9D314E69807640A650B0500000000000000000000000000000000000000000000000000000000000000000000000000000000000000E0
310
932D9429744C0486FF7F0675980000000049454E44AE42608243434343434343434343434343434343434343434343434343434343434343434343434343434343434343434343434343434343434343434343434343434343434343BF43273E32489224493A3703AB0E6C01364F218F16A721650000000049454E44AE4260
310
82000000600401480000000046108004000000600401480000000046108004000000600401480000000046108004000000600401480000000046108004FE04A871E700C52F1EE07D0401480000000046108004000000600401544E60FF6810F89500800530926F01CCF0BB00CE55D5B824ED7A360000000049454E44AE4260
310
82
  0
ENDSEC
  0
EOF
