  0
SECTION
  2
HEADER
  9
$ACADVER
  1
AC1032
  9
$ACADMAINTVER
 90
      174
  9
$DWGCODEPAGE
  3
ANSI_932
  9
$LASTSAVEDBY
  1
kikaku01
  9
$REQUIREDVERSIONS
160
                 0
  9
$INSBASE
 10
0.0
 20
0.0
 30
0.0
  9
$EXTMIN
 10
1308.926918964381
 20
180.9606521085489
 30
-0.0015258207003583
  9
$EXTMAX
 10
1537.410879966316
 20
310.848404693329
 30
0.0000000349246037
  9
$LIMMIN
 10
0.0
 20
0.0
  9
$LIMMAX
 10
420.0
 20
297.0
  9
$ORTHOMODE
 70
     1
  9
$REGENMODE
 70
     1
  9
$FILLMODE
 70
     1
  9
$QTEXTMODE
 70
     0
  9
$MIRRTEXT
 70
     0
  9
$LTSCALE
 40
1.0
  9
$ATTMODE
 70
     1
  9
$TEXTSIZE
 40
2.5
  9
$TRACEWID
 40
1.0
  9
$TEXTSTYLE
  7
社名
  9
$CLAYER
  8
0
  9
$CELTYPE
  6
ByBlock
  9
$CECOLOR
 62
   256
  9
$CELTSCALE
 40
1.5
  9
$DISPSILH
 70
     0
  9
$DIMSCALE
 40
0.0
  9
$DIMASZ
 40
0.5
  9
$DIMEXO
 40
2.0
  9
$DIMDLI
 40
0.38
  9
$DIMRND
 40
0.0
  9
$DIMDLE
 40
0.0
  9
$DIMEXE
 40
0.0
  9
$DIMTP
 40
0.0
  9
$DIMTM
 40
0.0
  9
$DIMTXT
 40
2.0
  9
$DIMCEN
 40
0.09
  9
$DIMTSZ
 40
0.0
  9
$DIMTOL
 70
     0
  9
$DIMLIM
 70
     0
  9
$DIMTIH
 70
     0
  9
$DIMTOH
 70
     0
  9
$DIMSE1
 70
     0
  9
$DIMSE2
 70
     0
  9
$DIMTAD
 70
     1
  9
$DIMZIN
 70
     8
  9
$DIMBLK
  1
Dot
  9
$DIMASO
 70
     1
  9
$DIMSHO
 70
     1
  9
$DIMPOST
  1

  9
$DIMAPOST
  1

  9
$DIMALT
 70
     0
  9
$DIMALTD
 70
     2
  9
$DIMALTF
 40
25.4
  9
$DIMLFAC
 40
1.0
  9
$DIMTOFL
 70
     0
  9
$DIMTVP
 40
0.0
  9
$DIMTIX
 70
     0
  9
$DIMSOXD
 70
     0
  9
$DIMSAH
 70
     0
  9
$DIMBLK1
  1

  9
$DIMBLK2
  1

  9
$DIMSTYLE
  2
style1
  9
$DIMCLRD
 70
     0
  9
$DIMCLRE
 70
     0
  9
$DIMCLRT
 70
     0
  9
$DIMTFAC
 40
1.0
  9
$DIMGAP
 40
0.09
  9
$DIMJUST
 70
     0
  9
$DIMSD1
 70
     0
  9
$DIMSD2
 70
     0
  9
$DIMTOLJ
 70
     1
  9
$DIMTZIN
 70
     0
  9
$DIMALTZ
 70
     0
  9
$DIMALTTZ
 70
     0
  9
$DIMUPT
 70
     0
  9
$DIMDEC
 70
     2
  9
$DIMTDEC
 70
     2
  9
$DIMALTU
 70
     2
  9
$DIMALTTD
 70
     2
  9
$DIMTXSTY
  7
ｽﾀｲﾙ1
  9
$DIMAUNIT
 70
     0
  9
$DIMADEC
 70
     1
  9
$DIMALTRND
 40
0.0
  9
$DIMAZIN
 70
     2
  9
$DIMDSEP
 70
    46
  9
$DIMATFIT
 70
     3
  9
$DIMFRAC
 70
     0
  9
$DIMLDRBLK
  1
Dot
  9
$DIMLUNIT
 70
     2
  9
$DIMLWD
 70
    -2
  9
$DIMLWE
 70
    -2
  9
$DIMTMOVE
 70
     2
  9
$DIMFXL
 40
1.0
  9
$DIMFXLON
 70
     0
  9
$DIMJOGANG
 40
1.570796326794896
  9
$DIMTFILL
 70
     0
  9
$DIMTFILLCLR
 70
     0
  9
$DIMARCSYM
 70
     0
  9
$DIMLTYPE
  6

  9
$DIMLTEX1
  6

  9
$DIMLTEX2
  6

  9
$DIMTXTDIRECTION
 70
     0
  9
$LUNITS
 70
     2
  9
$LUPREC
 70
     4
  9
$SKETCHINC
 40
1.0
  9
$FILLETRAD
 40
0.0
  9
$AUNITS
 70
     0
  9
$AUPREC
 70
     0
  9
$MENU
  1
.
  9
$ELEVATION
 40
0.0
  9
$PELEVATION
 40
0.0
  9
$THICKNESS
 40
0.0
  9
$LIMCHECK
 70
     0
  9
$CHAMFERA
 40
0.0
  9
$CHAMFERB
 40
0.0
  9
$CHAMFERC
 40
0.0
  9
$CHAMFERD
 40
0.0
  9
$SKPOLY
 70
     0
  9
$TDCREATE
 40
2458464.423576389
  9
$TDUCREATE
 40
2458464.048579468
  9
$TDUPDATE
 40
2459249.662071759
  9
$TDUUPDATE
 40
2459249.287071759
  9
$TDINDWG
 40
2.5183373032
  9
$TDUSRTIMER
 40
2.5183371296
  9
$USRTIMER
 70
     1
  9
$ANGBASE
 50
0.0
  9
$ANGDIR
 70
     0
  9
$PDMODE
 70
     0
  9
$PDSIZE
 40
0.0
  9
$PLINEWID
 40
0.0
  9
$SPLFRAME
 70
     0
  9
$SPLINETYPE
 70
     6
  9
$SPLINESEGS
 70
     8
  9
$HANDSEED
  5
1477F
  9
$SURFTAB1
 70
     6
  9
$SURFTAB2
 70
     6
  9
$SURFTYPE
 70
     6
  9
$SURFU
 70
     6
  9
$SURFV
 70
     6
  9
$UCSBASE
  2

  9
$UCSNAME
  2

  9
$UCSORG
 10
0.0
 20
0.0
 30
0.0
  9
$UCSXDIR
 10
1.0
 20
0.0
 30
0.0
  9
$UCSYDIR
 10
0.0
 20
1.0
 30
0.0
  9
$UCSORTHOREF
  2

  9
$UCSORTHOVIEW
 70
     0
  9
$UCSORGTOP
 10
0.0
 20
0.0
 30
0.0
  9
$UCSORGBOTTOM
 10
0.0
 20
0.0
 30
0.0
  9
$UCSORGLEFT
 10
0.0
 20
0.0
 30
0.0
  9
$UCSORGRIGHT
 10
0.0
 20
0.0
 30
0.0
  9
$UCSORGFRONT
 10
0.0
 20
0.0
 30
0.0
  9
$UCSORGBACK
 10
0.0
 20
0.0
 30
0.0
  9
$PUCSBASE
  2

  9
$PUCSNAME
  2

  9
$PUCSORG
 10
0.0
 20
0.0
 30
0.0
  9
$PUCSXDIR
 10
1.0
 20
0.0
 30
0.0
  9
$PUCSYDIR
 10
0.0
 20
1.0
 30
0.0
  9
$PUCSORTHOREF
  2

  9
$PUCSORTHOVIEW
 70
     0
  9
$PUCSORGTOP
 10
0.0
 20
0.0
 30
0.0
  9
$PUCSORGBOTTOM
 10
0.0
 20
0.0
 30
0.0
  9
$PUCSORGLEFT
 10
0.0
 20
0.0
 30
0.0
  9
$PUCSORGRIGHT
 10
0.0
 20
0.0
 30
0.0
  9
$PUCSORGFRONT
 10
0.0
 20
0.0
 30
0.0
  9
$PUCSORGBACK
 10
0.0
 20
0.0
 30
0.0
  9
$USERI1
 70
     0
  9
$USERI2
 70
     0
  9
$USERI3
 70
     0
  9
$USERI4
 70
     0
  9
$USERI5
 70
     0
  9
$USERR1
 40
0.0
  9
$USERR2
 40
0.0
  9
$USERR3
 40
0.0
  9
$USERR4
 40
0.0
  9
$USERR5
 40
0.0
  9
$WORLDVIEW
 70
     1
  9
$SHADEDGE
 70
     3
  9
$SHADEDIF
 70
    70
  9
$TILEMODE
 70
     1
  9
$MAXACTVP
 70
    64
  9
$PINSBASE
 10
0.0
 20
0.0
 30
0.0
  9
$PLIMCHECK
 70
     0
  9
$PEXTMIN
 10
-0.2193956399495391
 20
0.2233461379582877
 30
-0.0015258207003583
  9
$PEXTMAX
 10
286.3493478739973
 20
198.6913298351438
 30
0.0000000349246037
  9
$PLIMMIN
 10
-5.873748779296875
 20
-5.873749732971191
  9
$PLIMMAX
 10
291.05224609375
 20
204.0995779037475
  9
$UNITMODE
 70
     0
  9
$VISRETAIN
 70
     1
  9
$PLINEGEN
 70
     0
  9
$PSLTSCALE
 70
     1
  9
$TREEDEPTH
 70
  3020
  9
$CMLSTYLE
  2
Standard
  9
$CMLJUST
 70
     0
  9
$CMLSCALE
 40
20.0
  9
$PROXYGRAPHICS
 70
     1
  9
$MEASUREMENT
 70
     1
  9
$CELWEIGHT
370
    -1
  9
$ENDCAPS
280
     0
  9
$JOINSTYLE
280
     0
  9
$LWDISPLAY
290
     0
  9
$INSUNITS
 70
     4
  9
$HYPERLINKBASE
  1

  9
$STYLESHEET
  1
MONOKURO.CTB
  9
$XEDIT
290
     1
  9
$CEPSNTYPE
380
     0
  9
$PSTYLEMODE
290
     1
  9
$FINGERPRINTGUID
  2
{C451E287-BBF3-4EF6-9D2D-2466D87C14DE}
  9
$VERSIONGUID
  2
{E606ACB0-61B4-4C40-B774-C46BD793DD3D}
  9
$EXTNAMES
290
     1
  9
$PSVPSCALE
 40
0.0
  9
$OLESTARTUP
290
     0
  9
$SORTENTS
280
   127
  9
$INDEXCTL
280
     0
  9
$HIDETEXT
280
     1
  9
$XCLIPFRAME
280
     2
  9
$HALOGAP
280
     0
  9
$OBSCOLOR
 70
   257
  9
$OBSLTYPE
280
     0
  9
$INTERSECTIONDISPLAY
280
     0
  9
$INTERSECTIONCOLOR
 70
   257
  9
$DIMASSOC
280
     2
  9
$PROJECTNAME
  1

  9
$CAMERADISPLAY
290
     0
  9
$LENSLENGTH
 40
50.0
  9
$CAMERAHEIGHT
 40
0.0
  9
$STEPSPERSEC
 40
2.0
  9
$STEPSIZE
 40
6.0
  9
$3DDWFPREC
 40
2.0
  9
$PSOLWIDTH
 40
5.0
  9
$PSOLHEIGHT
 40
80.0
  9
$LOFTANG1
 40
1.570796326794896
  9
$LOFTANG2
 40
1.570796326794896
  9
$LOFTMAG1
 40
0.0
  9
$LOFTMAG2
 40
0.0
  9
$LOFTPARAM
 70
     7
  9
$LOFTNORMALS
280
     1
  9
$LATITUDE
 40
37.795
  9
$LONGITUDE
 40
-122.394
  9
$NORTHDIRECTION
 40
0.0
  9
$TIMEZONE
 70
 -8000
  9
$LIGHTGLYPHDISPLAY
280
     1
  9
$TILEMODELIGHTSYNCH
280
     1
  9
$CMATERIAL
347
EC
  9
$SOLIDHIST
280
     1
  9
$SHOWHIST
280
     1
  9
$DWFFRAME
280
     2
  9
$DGNFRAME
280
     0
  9
$REALWORLDSCALE
290
     1
  9
$INTERFERECOLOR
 62
     1
  9
$INTERFEREOBJVS
345
F9
  9
$INTERFEREVPVS
346
F6
  9
$CSHADOW
280
     0
  9
$SHADOWPLANELOCATION
 40
0.0
  0
ENDSEC
  0
SECTION
  2
CLASSES
  0
CLASS
  1
ACDBDICTIONARYWDFLT
  2
AcDbDictionaryWithDefault
  3
ObjectDBX Classes
 90
        0
 91
        1
280
     0
281
     0
  0
CLASS
  1
DICTIONARYVAR
  2
AcDbDictionaryVar
  3
ObjectDBX Classes
 90
        0
 91
       10
280
     0
281
     0
  0
CLASS
  1
TABLESTYLE
  2
AcDbTableStyle
  3
ObjectDBX Classes
 90
     4095
 91
        1
280
     0
281
     0
  0
CLASS
  1
MATERIAL
  2
AcDbMaterial
  3
ObjectDBX Classes
 90
     1153
 91
        3
280
     0
281
     0
  0
CLASS
  1
VISUALSTYLE
  2
AcDbVisualStyle
  3
ObjectDBX Classes
 90
     4095
 91
       24
280
     0
281
     0
  0
CLASS
  1
SCALE
  2
AcDbScale
  3
ObjectDBX Classes
 90
     1153
 91
       17
280
     0
281
     0
  0
CLASS
  1
MLEADERSTYLE
  2
AcDbMLeaderStyle
  3
ACDB_MLEADERSTYLE_CLASS
 90
     4095
 91
        2
280
     0
281
     0
  0
CLASS
  1
CELLSTYLEMAP
  2
AcDbCellStyleMap
  3
ObjectDBX Classes
 90
     1152
 91
        2
280
     0
281
     0
  0
CLASS
  1
EXACXREFPANELOBJECT
  2
ExAcXREFPanelObject
  3
EXAC_ESW
 90
     1025
 91
        0
280
     0
281
     0
  0
CLASS
  1
NPOCOLLECTION
  2
AcDbImpNonPersistentObjectsCollection
  3
ObjectDBX Classes
 90
     1153
 91
        0
280
     0
281
     0
  0
CLASS
  1
LAYER_INDEX
  2
AcDbLayerIndex
  3
ObjectDBX Classes
 90
        0
 91
        0
280
     0
281
     0
  0
CLASS
  1
SPATIAL_INDEX
  2
AcDbSpatialIndex
  3
ObjectDBX Classes
 90
        0
 91
        0
280
     0
281
     0
  0
CLASS
  1
IDBUFFER
  2
AcDbIdBuffer
  3
ObjectDBX Classes
 90
        0
 91
        0
280
     0
281
     0
  0
CLASS
  1
SORTENTSTABLE
  2
AcDbSortentsTable
  3
ObjectDBX Classes
 90
        0
 91
        1
280
     0
281
     0
  0
CLASS
  1
DIMASSOC
  2
AcDbDimAssoc
  3
"AcDbDimAssoc|Product Desc:     AcDim ARX App For Dimension|Company:          Autodesk, Inc.|WEB Address:      www.autodesk.com"
 90
        0
 91
        9
280
     0
281
     0
  0
CLASS
  1
MULTILEADER
  2
AcDbMLeader
  3
ACDB_MLEADER_CLASS
 90
     1025
 91
        5
280
     0
281
     1
  0
CLASS
  1
ARC_DIMENSION
  2
AcDbArcDimension
  3
ObjectDBX Classes
 90
     1025
 91
        0
280
     0
281
     1
  0
CLASS
  1
PLOTSETTINGS
  2
AcDbPlotSettings
  3
ObjectDBX Classes
 90
        0
 91
        1
280
     0
281
     0
  0
CLASS
  1
ACDBSECTIONVIEWSTYLE
  2
AcDbSectionViewStyle
  3
ObjectDBX Classes
 90
     1025
 91
        1
280
     0
281
     0
  0
CLASS
  1
ACDBDETAILVIEWSTYLE
  2
AcDbDetailViewStyle
  3
ObjectDBX Classes
 90
     1025
 91
        1
280
     0
281
     0
  0
ENDSEC
  0
SECTION
  2
TABLES
  0
TABLE
  2
VPORT
  5
8
330
0
100
AcDbSymbolTable
 70
     1
  0
VPORT
  5
EA
330
8
100
AcDbSymbolTableRecord
100
AcDbViewportTableRecord
  2
*Active
 70
     0
 10
0.0
 20
0.0
 11
1.0
 21
1.0
 12
1423.168899465349
 22
245.904528400939
 13
0.0
 23
0.0
 14
10.0
 24
10.0
 15
10.0
 25
10.0
 16
0.0
 26
0.0
 36
1.0
 17
0.0
 27
0.0
 37
0.0
 40
142.2491080271589
 41
1.613899613899613
 42
50.0
 43
0.0
 44
0.0
 50
0.0
 51
0.0
 71
     0
 72
  1000
 73
     1
 74
     3
 75
     0
 76
     0
 77
     0
 78
     0
281
     0
 65
     1
110
0.0
120
0.0
130
0.0
111
1.0
121
0.0
131
0.0
112
0.0
122
1.0
132
0.0
 79
     0
146
0.0
348
F5
 60
     3
 61
     5
292
     1
282
     1
141
0.0
142
0.0
 63
   250
421
  3355443
1001
ACAD_NAV_VCDISPLAY
1070
     3
  0
ENDTAB
  0
TABLE
  2
LTYPE
  5
5
330
0
100
AcDbSymbolTable
 70
     3
  0
LTYPE
  5
14
330
5
100
AcDbSymbolTableRecord
100
AcDbLinetypeTableRecord
  2
ByBlock
 70
     0
  3

 72
    65
 73
     0
 40
0.0
  0
LTYPE
  5
15
330
5
100
AcDbSymbolTableRecord
100
AcDbLinetypeTableRecord
  2
ByLayer
 70
     0
  3

 72
    65
 73
     0
 40
0.0
  0
LTYPE
  5
16
330
5
100
AcDbSymbolTableRecord
100
AcDbLinetypeTableRecord
  2
Continuous
 70
     0
  3
Solid line
 72
    65
 73
     0
 40
0.0
  0
LTYPE
  5
A8BF
330
5
100
AcDbSymbolTableRecord
100
AcDbLinetypeTableRecord
  2
DASHED
 70
     0
  3
___  ___  ___  ___  
 72
    65
 73
     2
 40
4.0
 49
3.0
 74
     0
 49
-1.0
 74
     0
  0
LTYPE
  5
A8C0
330
5
100
AcDbSymbolTableRecord
100
AcDbLinetypeTableRecord
  2
CENTER2
 70
     0
  3
Center (.5x) ___ _ ___ _ ___ _ ___ _ ___ _ ___
 72
    65
 73
     4
 40
28.575
 49
19.05
 74
     0
 49
-3.174999999999998
 74
     0
 49
3.174999999999998
 74
     0
 49
-3.174999999999998
 74
     0
  0
ENDTAB
  0
TABLE
  2
LAYER
  5
2
102
{ACAD_XDICTIONARY
360
1FF
102
}
330
0
100
AcDbSymbolTable
 70
    11
  0
LAYER
  5
10
102
{ACAD_XDICTIONARY
360
13C
102
}
330
2
100
AcDbSymbolTableRecord
100
AcDbLayerTableRecord
  2
0
 70
     0
 62
     7
  6
Continuous
290
     0
370
    -3
390
F
347
EE
348
0
  0
LAYER
  5
218
102
{ACAD_XDICTIONARY
360
219
102
}
330
2
100
AcDbSymbolTableRecord
100
AcDbLayerTableRecord
  2
金物
 70
     0
 62
     7
  6
Continuous
370
    -3
390
F
347
EE
348
0
  0
LAYER
  5
21A
102
{ACAD_XDICTIONARY
360
21B
102
}
330
2
100
AcDbSymbolTableRecord
100
AcDbLayerTableRecord
  2
寸法線
 70
     0
 62
     8
  6
Continuous
370
    -3
390
F
347
EE
348
0
  0
LAYER
  5
253
330
2
100
AcDbSymbolTableRecord
100
AcDbLayerTableRecord
  2
Defpoints
 70
     0
 62
     7
  6
Continuous
290
     0
370
    -3
390
F
347
EE
348
0
  0
LAYER
  5
285
330
2
100
AcDbSymbolTableRecord
100
AcDbLayerTableRecord
  2
製品名
 70
     0
 62
     6
  6
Continuous
370
    -3
390
F
347
EE
348
0
1001
AcAecLayerStandard
1000

1000

1001
AcCmTransparency
1071
        0
  0
LAYER
  5
7AB3
330
2
100
AcDbSymbolTableRecord
100
AcDbLayerTableRecord
  2
枠
 70
     0
 62
     9
  6
Continuous
370
    -3
390
F
347
EE
348
0
1001
AcAecLayerStandard
1000

1000

1001
AcCmTransparency
1071
        0
  0
LAYER
  5
AFF7
330
2
100
AcDbSymbolTableRecord
100
AcDbLayerTableRecord
  2
文字
 70
     0
 62
     8
  6
Continuous
370
    -3
390
F
347
EE
348
0
1001
AcAecLayerStandard
1000

1000

1001
AcCmTransparency
1071
        0
  0
LAYER
  5
C860
330
2
100
AcDbSymbolTableRecord
100
AcDbLayerTableRecord
  2
センター
 70
     0
 62
     7
  6
Continuous
370
    -3
390
F
347
EE
348
0
1001
AcAecLayerStandard
1000

1000

1001
AcCmTransparency
1071
        0
  0
LAYER
  5
12FA3
330
2
100
AcDbSymbolTableRecord
100
AcDbLayerTableRecord
  2
EPTゴム
 70
     0
 62
     4
  6
Continuous
370
    -3
390
F
347
EE
348
0
1001
AcAecLayerStandard
1000

1000

1001
AcCmTransparency
1071
        0
  0
LAYER
  5
13089
330
2
100
AcDbSymbolTableRecord
100
AcDbLayerTableRecord
  2
ハッチング
 70
     0
 62
     8
  6
Continuous
370
    -3
390
F
347
EE
348
0
1001
AcAecLayerStandard
1000

1000

1001
AcCmTransparency
1071
        0
  0
LAYER
  5
130F6
330
2
100
AcDbSymbolTableRecord
100
AcDbLayerTableRecord
  2
ジョイント
 70
     0
 62
     7
  6
DASHED
370
    -3
390
F
347
EE
348
0
1001
AcAecLayerStandard
1000

1000

1001
AcCmTransparency
1071
        0
  0
ENDTAB
  0
TABLE
  2
STYLE
  5
3
330
0
100
AcDbSymbolTable
 70
     4
  0
STYLE
  5
11
330
3
100
AcDbSymbolTableRecord
100
AcDbTextStyleTableRecord
  2
Standard
 70
     0
 40
0.0
 41
1.0
 50
0.0
 71
     0
 42
2.5
  3
arial.ttf
  4

1001
ACAD
1000
Arial
1071
       34
  0
STYLE
  5
21C
330
3
100
AcDbSymbolTableRecord
100
AcDbTextStyleTableRecord
  2
ｽﾀｲﾙ1
 70
     0
 40
2.0
 41
1.0
 50
0.0
 71
     0
 42
2.5
  3
txt.shx
  4
bigfont.shx
  0
STYLE
  5
E8B8
330
3
100
AcDbSymbolTableRecord
100
AcDbTextStyleTableRecord
  2
社名
 70
     0
 40
2.5
 41
1.0
 50
0.0
 71
     0
 42
2.5
  3
txt.shx
  4
extfont.shx
  0
STYLE
  5
E983
330
3
100
AcDbSymbolTableRecord
100
AcDbTextStyleTableRecord
  2
スタイル2
 70
     0
 40
1.5
 41
1.0
 50
0.0
 71
     0
 42
1.5
  3
txt.shx
  4
extfont.shx
  0
ENDTAB
  0
TABLE
  2
VIEW
  5
6
330
0
100
AcDbSymbolTable
 70
     0
  0
ENDTAB
  0
TABLE
  2
UCS
  5
7
330
0
100
AcDbSymbolTable
 70
     0
  0
ENDTAB
  0
TABLE
  2
APPID
  5
9
330
0
100
AcDbSymbolTable
 70
    15
  0
APPID
  5
12
330
9
100
AcDbSymbolTableRecord
100
AcDbRegAppTableRecord
  2
ACAD
 70
     0
  0
APPID
  5
9E
330
9
100
AcDbSymbolTableRecord
100
AcDbRegAppTableRecord
  2
ACAD_PSEXT
 70
     0
  0
APPID
  5
133
330
9
100
AcDbSymbolTableRecord
100
AcDbRegAppTableRecord
  2
AcadAnnoPO
 70
     0
  0
APPID
  5
134
330
9
100
AcDbSymbolTableRecord
100
AcDbRegAppTableRecord
  2
AcadAnnotative
 70
     0
  0
APPID
  5
135
330
9
100
AcDbSymbolTableRecord
100
AcDbRegAppTableRecord
  2
ACAD_DSTYLE_DIMJAG
 70
     0
  0
APPID
  5
136
330
9
100
AcDbSymbolTableRecord
100
AcDbRegAppTableRecord
  2
ACAD_DSTYLE_DIMTALN
 70
     0
  0
APPID
  5
165
330
9
100
AcDbSymbolTableRecord
100
AcDbRegAppTableRecord
  2
ACAD_MLEADERVER
 70
     0
  0
APPID
  5
21E
330
9
100
AcDbSymbolTableRecord
100
AcDbRegAppTableRecord
  2
ACAD_DSTYLE_DIMBREAK
 70
     0
  0
APPID
  5
286
330
9
100
AcDbSymbolTableRecord
100
AcDbRegAppTableRecord
  2
AcAecLayerStandard
 70
     0
  0
APPID
  5
287
330
9
100
AcDbSymbolTableRecord
100
AcDbRegAppTableRecord
  2
AcCmTransparency
 70
     0
  0
APPID
  5
288
330
9
100
AcDbSymbolTableRecord
100
AcDbRegAppTableRecord
  2
ACAD_EXEMPT_FROM_CAD_STANDARDS
 70
     0
  0
APPID
  5
4ABD
330
9
100
AcDbSymbolTableRecord
100
AcDbRegAppTableRecord
  2
GradientColor1ACI
 70
     0
  0
APPID
  5
4ABE
330
9
100
AcDbSymbolTableRecord
100
AcDbRegAppTableRecord
  2
GradientColor2ACI
 70
     0
  0
APPID
  5
6047
330
9
100
AcDbSymbolTableRecord
100
AcDbRegAppTableRecord
  2
ACAD_NAV_VCDISPLAY
 70
     0
  0
APPID
  5
68DA
330
9
100
AcDbSymbolTableRecord
100
AcDbRegAppTableRecord
  2
ACAD_DSTYLE_DIMJOGGED_JOGANGLE_SYMBOL
 70
     0
  0
ENDTAB
  0
TABLE
  2
DIMSTYLE
  5
A
330
0
100
AcDbSymbolTable
 70
     2
100
AcDbDimStyleTable
 71
     1
340
21D
  0
DIMSTYLE
105
1B0
330
A
100
AcDbSymbolTableRecord
100
AcDbDimStyleTableRecord
  2
Standard
 70
     0
340
11
  0
DIMSTYLE
105
21D
102
{ACAD_REACTORS
330
B015
330
B125
330
B186
330
B1A6
330
BCE0
330
BCE1
330
C610
330
C628
330
B250
330
B2E9
330
B454
330
B46C
330
B541
330
C711
330
143A9
330
14407
330
14664
330
1371B
330
146D3
330
1471F
102
}
330
A
100
AcDbSymbolTableRecord
100
AcDbDimStyleTableRecord
  2
style1
 70
     0
 40
0.0
 41
0.5
 42
2.0
 44
0.0
 50
89.99999999999998
 73
     0
 74
     0
 77
     1
 78
     8
 79
     2
140
2.0
179
     1
271
     2
272
     2
279
     2
340
21C
341
1391C
342
1391C
1001
ACAD_DSTYLE_DIMBREAK
1070
   391
1040
3.75
1001
ACAD_DSTYLE_DIMJAG
1070
   388
1040
1.5
1001
ACAD_DSTYLE_DIMTALN
1070
   392
1070
     0
  0
ENDTAB
  0
TABLE
  2
BLOCK_RECORD
  5
1
330
0
100
AcDbSymbolTable
 70
    21
  0
BLOCK_RECORD
  5
1F
102
{ACAD_XDICTIONARY
360
1CE
102
}
330
1
100
AcDbSymbolTableRecord
100
AcDbBlockTableRecord
  2
*Model_Space
340
22
 70
     0
280
     1
281
     0
  0
BLOCK_RECORD
  5
12E94
330
1
100
AcDbSymbolTableRecord
100
AcDbBlockTableRecord
  2
*Paper_Space
340
12E95
 70
     0
280
     1
281
     0
  0
BLOCK_RECORD
  5
B016
330
1
100
AcDbSymbolTableRecord
100
AcDbBlockTableRecord
  2
*D0
340
0
 70
     0
280
     1
281
     0
  0
BLOCK_RECORD
  5
B126
330
1
100
AcDbSymbolTableRecord
100
AcDbBlockTableRecord
  2
*D1
340
0
 70
     0
280
     1
281
     0
  0
BLOCK_RECORD
  5
B187
330
1
100
AcDbSymbolTableRecord
100
AcDbBlockTableRecord
  2
*D2
340
0
 70
     0
280
     1
281
     0
  0
BLOCK_RECORD
  5
B1A7
330
1
100
AcDbSymbolTableRecord
100
AcDbBlockTableRecord
  2
*D3
340
0
 70
     0
280
     1
281
     0
  0
BLOCK_RECORD
  5
B251
330
1
100
AcDbSymbolTableRecord
100
AcDbBlockTableRecord
  2
*D4
340
0
 70
     0
280
     1
281
     0
  0
BLOCK_RECORD
  5
B2EA
330
1
100
AcDbSymbolTableRecord
100
AcDbBlockTableRecord
  2
*D5
340
0
 70
     0
280
     1
281
     0
  0
BLOCK_RECORD
  5
B455
330
1
100
AcDbSymbolTableRecord
100
AcDbBlockTableRecord
  2
*D6
340
0
 70
     0
280
     1
281
     0
  0
BLOCK_RECORD
  5
B46D
330
1
100
AcDbSymbolTableRecord
100
AcDbBlockTableRecord
  2
*D7
340
0
 70
     0
280
     1
281
     0
  0
BLOCK_RECORD
  5
B542
330
1
100
AcDbSymbolTableRecord
100
AcDbBlockTableRecord
  2
*D8
340
0
 70
     0
280
     1
281
     0
  0
BLOCK_RECORD
  5
BCF1
330
1
100
AcDbSymbolTableRecord
100
AcDbBlockTableRecord
  2
*D9
340
0
 70
     0
280
     1
281
     0
  0
BLOCK_RECORD
  5
BD1B
330
1
100
AcDbSymbolTableRecord
100
AcDbBlockTableRecord
  2
*D10
340
0
 70
     0
280
     1
281
     0
  0
BLOCK_RECORD
  5
C611
330
1
100
AcDbSymbolTableRecord
100
AcDbBlockTableRecord
  2
*D11
340
0
 70
     0
280
     1
281
     0
  0
BLOCK_RECORD
  5
C629
330
1
100
AcDbSymbolTableRecord
100
AcDbBlockTableRecord
  2
*D12
340
0
 70
     0
280
     1
281
     0
  0
BLOCK_RECORD
  5
C712
330
1
100
AcDbSymbolTableRecord
100
AcDbBlockTableRecord
  2
*D13
340
0
 70
     0
280
     1
281
     0
  0
BLOCK_RECORD
  5
1371C
330
1
100
AcDbSymbolTableRecord
100
AcDbBlockTableRecord
  2
*D14
340
0
 70
     0
280
     1
281
     0
  0
BLOCK_RECORD
  5
1391C
330
1
100
AcDbSymbolTableRecord
100
AcDbBlockTableRecord
  2
_Dot
340
0
102
{BLKREFS
331
13D89
331
13D8A
331
13DA4
331
13DA5
331
13E34
331
13E35
331
13E58
331
13E59
331
13E61
331
13E62
331
13EB2
331
13EB3
331
13EBB
331
13EBC
331
13ECD
331
13ECE
331
143BA
331
143BB
331
144CE
331
144CF
331
146A0
331
146A1
331
146B2
331
146B3
331
146BB
331
146BC
331
146DA
331
146DB
331
14730
331
14731
331
144F2
331
144F3
331
14504
331
14505
331
14594
331
14595
331
145B4
331
145B5
331
145D6
331
145D7
102
}
 70
     0
280
     1
281
     0
  0
BLOCK_RECORD
  5
143AA
330
1
100
AcDbSymbolTableRecord
100
AcDbBlockTableRecord
  2
*D16
340
0
 70
     0
280
     1
281
     0
  0
BLOCK_RECORD
  5
14408
330
1
100
AcDbSymbolTableRecord
100
AcDbBlockTableRecord
  2
*D17
340
0
 70
     0
280
     1
281
     0
  0
BLOCK_RECORD
  5
14665
330
1
100
AcDbSymbolTableRecord
100
AcDbBlockTableRecord
  2
*D18
340
0
 70
     0
280
     1
281
     0
  0
BLOCK_RECORD
  5
146D4
330
1
100
AcDbSymbolTableRecord
100
AcDbBlockTableRecord
  2
*D19
340
0
 70
     0
280
     1
281
     0
  0
BLOCK_RECORD
  5
14720
330
1
100
AcDbSymbolTableRecord
100
AcDbBlockTableRecord
  2
*D20
340
0
 70
     0
280
     1
281
     0
  0
ENDTAB
  0
ENDSEC
  0
SECTION
  2
BLOCKS
  0
BLOCK
  5
20
330
1F
100
AcDbEntity
  8
0
100
AcDbBlockBegin
  2
*Model_Space
 70
     0
 10
0.0
 20
0.0
 30
0.0
  3
*Model_Space
  1

  0
ENDBLK
  5
21
330
1F
100
AcDbEntity
  8
0
100
AcDbBlockEnd
  0
BLOCK
  5
12E96
330
12E94
100
AcDbEntity
 67
     1
  8
0
 48
1.5
100
AcDbBlockBegin
  2
*Paper_Space
 70
     0
 10
0.0
 20
0.0
 30
0.0
  3
*Paper_Space
  1

  0
ENDBLK
  5
12E97
330
12E94
100
AcDbEntity
 67
     1
  8
0
 48
1.5
100
AcDbBlockEnd
  0
BLOCK
  5
B017
330
B016
100
AcDbEntity
  8
0
 48
1.5
100
AcDbBlockBegin
  2
*D0
 70
     1
 10
0.0
 20
0.0
 30
0.0
  3
*D0
  1

  0
LINE
  5
14501
330
B016
100
AcDbEntity
  8
寸法線
 62
     0
440
 16777216
370
    -2
100
AcDbLine
 10
1384.695533724354
 20
286.9833850609828
 30
0.0
 11
1384.695533724354
 21
289.3024732234048
 31
0.0
  0
LINE
  5
14502
330
B016
100
AcDbEntity
  8
寸法線
 62
     0
440
 16777216
370
    -2
100
AcDbLine
 10
1390.695533724354
 20
286.9833850609828
 30
0.0
 11
1390.695533724354
 21
289.3024732234048
 31
0.0
  0
LINE
  5
14503
330
B016
100
AcDbEntity
  8
寸法線
 62
     0
440
 16777216
370
    -2
100
AcDbLine
 10
1385.195533724354
 20
289.3024732234048
 30
0.0
 11
1390.195533724354
 21
289.3024732234048
 31
0.0
  0
INSERT
  5
14504
330
B016
100
AcDbEntity
  8
寸法線
 62
     0
440
 16777216
370
    -2
100
AcDbBlockReference
  2
_Dot
 10
1384.695533724354
 20
289.3024732234048
 30
0.0
 41
0.5
 42
0.5
 43
0.5
 50
180.0
  0
INSERT
  5
14505
330
B016
100
AcDbEntity
  8
寸法線
 62
     0
440
 16777216
370
    -2
100
AcDbBlockReference
  2
_Dot
 10
1390.695533724354
 20
289.3024732234048
 30
0.0
 41
0.5
 42
0.5
 43
0.5
  0
MTEXT
  5
14506
330
B016
100
AcDbEntity
  8
寸法線
 62
     0
440
 16777216
100
AcDbMText
 10
1387.695533724354
 20
290.3924732234047
 30
0.0
 40
2.0
 41
0.0
 46
0.0
 71
     5
 72
     1
  1
\A1;6
  7
ｽﾀｲﾙ1
 73
     1
 44
1.0
  0
POINT
  5
14507
330
B016
100
AcDbEntity
  8
Defpoints
 62
     0
440
 16777216
100
AcDbPoint
 10
1384.695533724354
 20
284.9833850609828
 30
0.0
  0
POINT
  5
14508
330
B016
100
AcDbEntity
  8
Defpoints
 62
     0
440
 16777216
100
AcDbPoint
 10
1390.695533724354
 20
284.9833850609828
 30
0.0
  0
POINT
  5
14509
330
B016
100
AcDbEntity
  8
Defpoints
 62
     0
440
 16777216
100
AcDbPoint
 10
1390.695533724354
 20
289.3024732234048
 30
0.0
  0
ENDBLK
  5
B018
330
B016
100
AcDbEntity
  8
0
100
AcDbBlockEnd
  0
BLOCK
  5
B127
330
B126
100
AcDbEntity
  8
0
100
AcDbBlockBegin
  2
*D1
 70
     1
 10
0.0
 20
0.0
 30
0.0
  3
*D1
  1

  0
LINE
  5
13D86
330
B126
100
AcDbEntity
  8
寸法線
 62
     0
440
 16777216
370
    -2
100
AcDbLine
 10
1411.695533724354
 20
258.4393000893197
 30
0.0
 11
1417.694935752904
 21
258.4393000893197
 31
0.0
  0
LINE
  5
13D87
330
B126
100
AcDbEntity
  8
寸法線
 62
     0
440
 16777216
370
    -2
100
AcDbLine
 10
1411.695533724354
 20
203.4393000893197
 30
0.0
 11
1417.694935752904
 21
203.4393000893197
 31
0.0
  0
LINE
  5
13D88
330
B126
100
AcDbEntity
  8
寸法線
 62
     0
440
 16777216
370
    -2
100
AcDbLine
 10
1417.694935752904
 20
257.9393000893197
 30
0.0
 11
1417.694935752904
 21
203.9393000893197
 31
0.0
  0
INSERT
  5
13D89
330
B126
100
AcDbEntity
  8
寸法線
 62
     0
440
 16777216
370
    -2
100
AcDbBlockReference
  2
_Dot
 10
1417.694935752904
 20
258.4393000893197
 30
0.0
 41
0.5
 42
0.5
 43
0.5
 50
90.0
  0
INSERT
  5
13D8A
330
B126
100
AcDbEntity
  8
寸法線
 62
     0
440
 16777216
370
    -2
100
AcDbBlockReference
  2
_Dot
 10
1417.694935752904
 20
203.4393000893197
 30
0.0
 41
0.5
 42
0.5
 43
0.5
 50
270.0
  0
MTEXT
  5
13D8B
330
B126
100
AcDbEntity
  8
寸法線
 62
     0
440
 16777216
100
AcDbMText
 10
1416.604935752905
 20
230.93930008932
 30
0.0
 40
2.0
 41
0.0
 46
0.0
 71
     5
 72
     1
  1
\A1;55
  7
ｽﾀｲﾙ1
 11
0.0000000000000001
 21
1.0
 31
0.0
 73
     1
 44
1.0
  0
POINT
  5
13D8C
330
B126
100
AcDbEntity
  8
Defpoints
 62
     0
440
 16777216
100
AcDbPoint
 10
1409.695533724354
 20
258.4393000893197
 30
0.0
  0
POINT
  5
13D8D
330
B126
100
AcDbEntity
  8
Defpoints
 62
     0
440
 16777216
100
AcDbPoint
 10
1409.695533724354
 20
203.4393000893197
 30
0.0
  0
POINT
  5
13D8E
330
B126
100
AcDbEntity
  8
Defpoints
 62
     0
440
 16777216
100
AcDbPoint
 10
1417.694935752904
 20
203.4393000893197
 30
0.0
  0
ENDBLK
  5
B128
330
B126
100
AcDbEntity
  8
0
100
AcDbBlockEnd
  0
BLOCK
  5
B188
330
B187
100
AcDbEntity
  8
0
100
AcDbBlockBegin
  2
*D2
 70
     1
 10
0.0
 20
0.0
 30
0.0
  3
*D2
  1

  0
LINE
  5
13DA1
330
B187
100
AcDbEntity
  8
寸法線
 62
     0
440
 16777216
370
    -2
100
AcDbLine
 10
1411.695533724354
 20
258.4393000893197
 30
0.0
 11
1417.694935752905
 21
258.4393000893197
 31
0.0
  0
LINE
  5
13DA2
330
B187
100
AcDbEntity
  8
寸法線
 62
     0
440
 16777216
370
    -2
100
AcDbLine
 10
1391.654131956854
 20
263.4393000893197
 30
0.0
 11
1417.694935752905
 21
263.4393000893197
 31
0.0
  0
LINE
  5
13DA3
330
B187
100
AcDbEntity
  8
寸法線
 62
     0
440
 16777216
370
    -2
100
AcDbLine
 10
1417.694935752905
 20
258.9393000893196
 30
0.0
 11
1417.694935752905
 21
262.9393000893196
 31
0.0
  0
INSERT
  5
13DA4
330
B187
100
AcDbEntity
  8
寸法線
 62
     0
440
 16777216
370
    -2
100
AcDbBlockReference
  2
_Dot
 10
1417.694935752905
 20
258.4393000893197
 30
0.0
 41
0.5
 42
0.5
 43
0.5
 50
270.0
  0
INSERT
  5
13DA5
330
B187
100
AcDbEntity
  8
寸法線
 62
     0
440
 16777216
370
    -2
100
AcDbBlockReference
  2
_Dot
 10
1417.694935752905
 20
263.4393000893197
 30
0.0
 41
0.5
 42
0.5
 43
0.5
 50
90.0
  0
MTEXT
  5
13DA6
330
B187
100
AcDbEntity
  8
寸法線
 62
     0
440
 16777216
100
AcDbMText
 10
1416.604935752905
 20
260.93930008932
 30
0.0
 40
2.0
 41
0.0
 46
0.0
 71
     5
 72
     1
  1
\A1;5
  7
ｽﾀｲﾙ1
 11
0.0000000000000001
 21
1.0
 31
0.0
 73
     1
 44
1.0
  0
POINT
  5
13DA7
330
B187
100
AcDbEntity
  8
Defpoints
 62
     0
440
 16777216
100
AcDbPoint
 10
1409.695533724354
 20
258.4393000893197
 30
0.0
  0
POINT
  5
13DA8
330
B187
100
AcDbEntity
  8
Defpoints
 62
     0
440
 16777216
100
AcDbPoint
 10
1389.654131956854
 20
263.4393000893197
 30
0.0
  0
POINT
  5
13DA9
330
B187
100
AcDbEntity
  8
Defpoints
 62
     0
440
 16777216
100
AcDbPoint
 10
1417.694935752905
 20
263.4393000893197
 30
0.0
  0
ENDBLK
  5
B189
330
B187
100
AcDbEntity
  8
0
100
AcDbBlockEnd
  0
BLOCK
  5
B1A8
330
B1A7
100
AcDbEntity
  8
0
100
AcDbBlockBegin
  2
*D3
 70
     1
 10
0.0
 20
0.0
 30
0.0
  3
*D3
  1

  0
LINE
  5
144EF
330
B1A7
100
AcDbEntity
  8
寸法線
 62
     0
440
 16777216
370
    -2
100
AcDbLine
 10
1388.75059882891
 20
285.4393000893196
 30
0.0
 11
1417.694935752905
 21
285.4393000893196
 31
0.0
  0
LINE
  5
144F0
330
B1A7
100
AcDbEntity
  8
寸法線
 62
     0
440
 16777216
370
    -2
100
AcDbLine
 10
1391.654131956854
 20
263.4393000893197
 30
0.0
 11
1417.694935752905
 21
263.4393000893197
 31
0.0
  0
LINE
  5
144F1
330
B1A7
100
AcDbEntity
  8
寸法線
 62
     0
440
 16777216
370
    -2
100
AcDbLine
 10
1417.694935752905
 20
284.9393000893197
 30
0.0
 11
1417.694935752905
 21
263.9393000893197
 31
0.0
  0
INSERT
  5
144F2
330
B1A7
100
AcDbEntity
  8
寸法線
 62
     0
440
 16777216
370
    -2
100
AcDbBlockReference
  2
_Dot
 10
1417.694935752905
 20
285.4393000893196
 30
0.0
 41
0.5
 42
0.5
 43
0.5
 50
90.0
  0
INSERT
  5
144F3
330
B1A7
100
AcDbEntity
  8
寸法線
 62
     0
440
 16777216
370
    -2
100
AcDbBlockReference
  2
_Dot
 10
1417.694935752905
 20
263.4393000893197
 30
0.0
 41
0.5
 42
0.5
 43
0.5
 50
270.0
  0
MTEXT
  5
144F4
330
B1A7
100
AcDbEntity
  8
寸法線
 62
     0
440
 16777216
100
AcDbMText
 10
1416.604935752905
 20
274.4393000893199
 30
0.0
 40
2.0
 41
0.0
 46
0.0
 71
     5
 72
     1
  1
\A1;22
  7
ｽﾀｲﾙ1
 11
0.0000000000000001
 21
1.0
 31
0.0
 73
     1
 44
1.0
  0
POINT
  5
144F5
330
B1A7
100
AcDbEntity
  8
Defpoints
 62
     0
440
 16777216
100
AcDbPoint
 10
1386.750598828909
 20
285.4393000893196
 30
0.0
  0
POINT
  5
144F6
330
B1A7
100
AcDbEntity
  8
Defpoints
 62
     0
440
 16777216
100
AcDbPoint
 10
1389.654131956854
 20
263.4393000893197
 30
0.0
  0
POINT
  5
144F7
330
B1A7
100
AcDbEntity
  8
Defpoints
 62
     0
440
 16777216
100
AcDbPoint
 10
1417.694935752905
 20
263.4393000893197
 30
0.0
  0
ENDBLK
  5
B1A9
330
B1A7
100
AcDbEntity
  8
0
100
AcDbBlockEnd
  0
BLOCK
  5
B252
330
B251
100
AcDbEntity
  8
0
100
AcDbBlockBegin
  2
*D4
 70
     1
 10
0.0
 20
0.0
 30
0.0
  3
*D4
  1

  0
LINE
  5
145D3
330
B251
100
AcDbEntity
  8
寸法線
 62
     0
440
 16777216
370
    -2
100
AcDbLine
 10
1461.070725301155
 20
284.5405561503522
 30
0.0
 11
1514.413626751272
 21
284.5405561503522
 31
0.0
  0
LINE
  5
145D4
330
B251
100
AcDbEntity
  8
寸法線
 62
     0
440
 16777216
370
    -2
100
AcDbLine
 10
1463.937909066755
 20
262.5405561503522
 30
0.0
 11
1514.413626751272
 21
262.5405561503522
 31
0.0
  0
LINE
  5
145D5
330
B251
100
AcDbEntity
  8
寸法線
 62
     0
440
 16777216
370
    -2
100
AcDbLine
 10
1514.413626751272
 20
284.0405561503522
 30
0.0
 11
1514.413626751272
 21
263.0405561503522
 31
0.0
  0
INSERT
  5
145D6
330
B251
100
AcDbEntity
  8
寸法線
 62
     0
440
 16777216
370
    -2
100
AcDbBlockReference
  2
_Dot
 10
1514.413626751272
 20
284.5405561503522
 30
0.0
 41
0.5
 42
0.5
 43
0.5
 50
90.0
  0
INSERT
  5
145D7
330
B251
100
AcDbEntity
  8
寸法線
 62
     0
440
 16777216
370
    -2
100
AcDbBlockReference
  2
_Dot
 10
1514.413626751272
 20
262.5405561503522
 30
0.0
 41
0.5
 42
0.5
 43
0.5
 50
270.0
  0
MTEXT
  5
145D8
330
B251
100
AcDbEntity
  8
寸法線
 62
     0
440
 16777216
100
AcDbMText
 10
1513.323626751272
 20
273.5405561503525
 30
0.0
 40
2.0
 41
0.0
 46
0.0
 71
     5
 72
     1
  1
\A1;22
  7
ｽﾀｲﾙ1
 11
0.0000000000000001
 21
1.0
 31
0.0
 73
     1
 44
1.0
  0
POINT
  5
145D9
330
B251
100
AcDbEntity
  8
Defpoints
 62
     0
440
 16777216
100
AcDbPoint
 10
1459.070725301155
 20
284.5405561503522
 30
0.0
  0
POINT
  5
145DA
330
B251
100
AcDbEntity
  8
Defpoints
 62
     0
440
 16777216
100
AcDbPoint
 10
1461.937909066755
 20
262.5405561503522
 30
0.0
  0
POINT
  5
145DB
330
B251
100
AcDbEntity
  8
Defpoints
 62
     0
440
 16777216
100
AcDbPoint
 10
1514.413626751272
 20
262.5405561503522
 30
0.0
  0
ENDBLK
  5
B253
330
B251
100
AcDbEntity
  8
0
100
AcDbBlockEnd
  0
BLOCK
  5
B2EB
330
B2EA
100
AcDbEntity
  8
0
100
AcDbBlockBegin
  2
*D5
 70
     1
 10
0.0
 20
0.0
 30
0.0
  3
*D5
  1

  0
LINE
  5
14591
330
B2EA
100
AcDbEntity
  8
寸法線
 62
     0
440
 16777216
370
    -2
100
AcDbLine
 10
1501.979310834255
 20
201.0405561503521
 30
0.0
 11
1501.979310834255
 21
193.8807516838842
 31
0.0
  0
LINE
  5
14592
330
B2EA
100
AcDbEntity
  8
寸法線
 62
     0
440
 16777216
370
    -2
100
AcDbLine
 10
1506.979310834255
 20
201.0405561503521
 30
0.0
 11
1506.979310834255
 21
193.8807516838842
 31
0.0
  0
LINE
  5
14593
330
B2EA
100
AcDbEntity
  8
寸法線
 62
     0
440
 16777216
370
    -2
100
AcDbLine
 10
1502.479310834255
 20
193.8807516838842
 30
0.0
 11
1506.479310834255
 21
193.8807516838842
 31
0.0
  0
INSERT
  5
14594
330
B2EA
100
AcDbEntity
  8
寸法線
 62
     0
440
 16777216
370
    -2
100
AcDbBlockReference
  2
_Dot
 10
1501.979310834255
 20
193.8807516838842
 30
0.0
 41
0.5
 42
0.5
 43
0.5
 50
180.0
  0
INSERT
  5
14595
330
B2EA
100
AcDbEntity
  8
寸法線
 62
     0
440
 16777216
370
    -2
100
AcDbBlockReference
  2
_Dot
 10
1506.979310834255
 20
193.8807516838842
 30
0.0
 41
0.5
 42
0.5
 43
0.5
  0
MTEXT
  5
14596
330
B2EA
100
AcDbEntity
  8
寸法線
 62
     0
440
 16777216
100
AcDbMText
 10
1504.479310834255
 20
194.9707516838842
 30
0.0
 40
2.0
 41
0.0
 46
0.0
 71
     5
 72
     1
  1
\A1;5
  7
ｽﾀｲﾙ1
 73
     1
 44
1.0
  0
POINT
  5
14597
330
B2EA
100
AcDbEntity
  8
Defpoints
 62
     0
440
 16777216
100
AcDbPoint
 10
1501.979310834255
 20
203.0405561503521
 30
0.0
  0
POINT
  5
14598
330
B2EA
100
AcDbEntity
  8
Defpoints
 62
     0
440
 16777216
100
AcDbPoint
 10
1506.979310834255
 20
203.0405561503521
 30
0.0
  0
POINT
  5
14599
330
B2EA
100
AcDbEntity
  8
Defpoints
 62
     0
440
 16777216
100
AcDbPoint
 10
1506.979310834255
 20
193.8807516838842
 30
0.0
  0
ENDBLK
  5
B2EC
330
B2EA
100
AcDbEntity
  8
0
100
AcDbBlockEnd
  0
BLOCK
  5
B456
330
B455
100
AcDbEntity
  8
0
100
AcDbBlockBegin
  2
*D6
 70
     1
 10
0.0
 20
0.0
 30
0.0
  3
*D6
  1

  0
LINE
  5
13EAF
330
B455
100
AcDbEntity
  8
寸法線
 62
     0
440
 16777216
370
    -2
100
AcDbLine
 10
1456.979310834255
 20
286.0489837799523
 30
0.0
 11
1456.979310834255
 21
289.0309488027649
 31
0.0
  0
LINE
  5
13EB0
330
B455
100
AcDbEntity
  8
寸法線
 62
     0
440
 16777216
370
    -2
100
AcDbLine
 10
1462.979310834255
 20
285.5347572225522
 30
0.0
 11
1462.979310834255
 21
289.0309488027649
 31
0.0
  0
LINE
  5
13EB1
330
B455
100
AcDbEntity
  8
寸法線
 62
     0
440
 16777216
370
    -2
100
AcDbLine
 10
1457.479310834255
 20
289.0309488027649
 30
0.0
 11
1462.479310834256
 21
289.0309488027649
 31
0.0
  0
INSERT
  5
13EB2
330
B455
100
AcDbEntity
  8
寸法線
 62
     0
440
 16777216
370
    -2
100
AcDbBlockReference
  2
_Dot
 10
1456.979310834255
 20
289.0309488027649
 30
0.0
 41
0.5
 42
0.5
 43
0.5
 50
180.0
  0
INSERT
  5
13EB3
330
B455
100
AcDbEntity
  8
寸法線
 62
     0
440
 16777216
370
    -2
100
AcDbBlockReference
  2
_Dot
 10
1462.979310834255
 20
289.0309488027649
 30
0.0
 41
0.5
 42
0.5
 43
0.5
  0
MTEXT
  5
13EB4
330
B455
100
AcDbEntity
  8
寸法線
 62
     0
440
 16777216
100
AcDbMText
 10
1459.979310834255
 20
290.1209488027649
 30
0.0
 40
2.0
 41
0.0
 46
0.0
 71
     5
 72
     1
  1
\A1;6
  7
ｽﾀｲﾙ1
 73
     1
 44
1.0
  0
POINT
  5
13EB5
330
B455
100
AcDbEntity
  8
Defpoints
 62
     0
440
 16777216
100
AcDbPoint
 10
1456.979310834255
 20
284.0489837799523
 30
0.0
  0
POINT
  5
13EB6
330
B455
100
AcDbEntity
  8
Defpoints
 62
     0
440
 16777216
100
AcDbPoint
 10
1462.979310834255
 20
283.5347572225522
 30
0.0
  0
POINT
  5
13EB7
330
B455
100
AcDbEntity
  8
Defpoints
 62
     0
440
 16777216
100
AcDbPoint
 10
1462.979310834255
 20
289.0309488027649
 30
0.0
  0
ENDBLK
  5
B457
330
B455
100
AcDbEntity
  8
0
100
AcDbBlockEnd
  0
BLOCK
  5
B46E
330
B46D
100
AcDbEntity
  8
0
100
AcDbBlockBegin
  2
*D7
 70
     1
 10
0.0
 20
0.0
 30
0.0
  3
*D7
  1

  0
LINE
  5
13EB8
330
B46D
100
AcDbEntity
  8
寸法線
 62
     0
440
 16777216
370
    -2
100
AcDbLine
 10
1462.979310834255
 20
285.5347572225522
 30
0.0
 11
1462.979310834255
 21
289.0309488027649
 31
0.0
  0
LINE
  5
13EB9
330
B46D
100
AcDbEntity
  8
寸法線
 62
     0
440
 16777216
370
    -2
100
AcDbLine
 10
1506.979310834256
 20
259.0437889150522
 30
0.0
 11
1506.979310834256
 21
289.0309488027649
 31
0.0
  0
LINE
  5
13EBA
330
B46D
100
AcDbEntity
  8
寸法線
 62
     0
440
 16777216
370
    -2
100
AcDbLine
 10
1463.479310834255
 20
289.0309488027649
 30
0.0
 11
1506.479310834255
 21
289.0309488027649
 31
0.0
  0
INSERT
  5
13EBB
330
B46D
100
AcDbEntity
  8
寸法線
 62
     0
440
 16777216
370
    -2
100
AcDbBlockReference
  2
_Dot
 10
1462.979310834255
 20
289.0309488027649
 30
0.0
 41
0.5
 42
0.5
 43
0.5
 50
180.0
  0
INSERT
  5
13EBC
330
B46D
100
AcDbEntity
  8
寸法線
 62
     0
440
 16777216
370
    -2
100
AcDbBlockReference
  2
_Dot
 10
1506.979310834256
 20
289.0309488027649
 30
0.0
 41
0.5
 42
0.5
 43
0.5
  0
MTEXT
  5
13EBD
330
B46D
100
AcDbEntity
  8
寸法線
 62
     0
440
 16777216
100
AcDbMText
 10
1484.979310834255
 20
290.1209488027649
 30
0.0
 40
2.0
 41
0.0
 46
0.0
 71
     5
 72
     1
  1
\A1;44
  7
ｽﾀｲﾙ1
 73
     1
 44
1.0
  0
POINT
  5
13EBE
330
B46D
100
AcDbEntity
  8
Defpoints
 62
     0
440
 16777216
100
AcDbPoint
 10
1462.979310834255
 20
283.5347572225522
 30
0.0
  0
POINT
  5
13EBF
330
B46D
100
AcDbEntity
  8
Defpoints
 62
     0
440
 16777216
100
AcDbPoint
 10
1506.979310834256
 20
257.0437889150522
 30
0.0
  0
POINT
  5
13EC0
330
B46D
100
AcDbEntity
  8
Defpoints
 62
     0
440
 16777216
100
AcDbPoint
 10
1506.979310834256
 20
289.0309488027649
 30
0.0
  0
ENDBLK
  5
B46F
330
B46D
100
AcDbEntity
  8
0
100
AcDbBlockEnd
  0
BLOCK
  5
B543
330
B542
100
AcDbEntity
  8
0
100
AcDbBlockBegin
  2
*D8
 70
     1
 10
0.0
 20
0.0
 30
0.0
  3
*D8
  1

  0
LINE
  5
145B1
330
B542
100
AcDbEntity
  8
寸法線
 62
     0
440
 16777216
370
    -2
100
AcDbLine
 10
1509.737320242348
 20
257.5405561503522
 30
0.0
 11
1514.413626751272
 21
257.5405561503522
 31
0.0
  0
LINE
  5
145B2
330
B542
100
AcDbEntity
  8
寸法線
 62
     0
440
 16777216
370
    -2
100
AcDbLine
 10
1508.479310834255
 20
202.5405561503522
 30
0.0
 11
1514.413626751272
 21
202.5405561503522
 31
0.0
  0
LINE
  5
145B3
330
B542
100
AcDbEntity
  8
寸法線
 62
     0
440
 16777216
370
    -2
100
AcDbLine
 10
1514.413626751272
 20
257.0405561503522
 30
0.0
 11
1514.413626751272
 21
203.0405561503521
 31
0.0
  0
INSERT
  5
145B4
330
B542
100
AcDbEntity
  8
寸法線
 62
     0
440
 16777216
370
    -2
100
AcDbBlockReference
  2
_Dot
 10
1514.413626751272
 20
257.5405561503522
 30
0.0
 41
0.5
 42
0.5
 43
0.5
 50
90.0
  0
INSERT
  5
145B5
330
B542
100
AcDbEntity
  8
寸法線
 62
     0
440
 16777216
370
    -2
100
AcDbBlockReference
  2
_Dot
 10
1514.413626751272
 20
202.5405561503522
 30
0.0
 41
0.5
 42
0.5
 43
0.5
 50
270.0
  0
MTEXT
  5
145B6
330
B542
100
AcDbEntity
  8
寸法線
 62
     0
440
 16777216
100
AcDbMText
 10
1513.323626751272
 20
230.0405561503525
 30
0.0
 40
2.0
 41
0.0
 46
0.0
 71
     5
 72
     1
  1
\A1;55
  7
ｽﾀｲﾙ1
 11
0.0000000000000001
 21
1.0
 31
0.0
 73
     1
 44
1.0
  0
POINT
  5
145B7
330
B542
100
AcDbEntity
  8
Defpoints
 62
     0
440
 16777216
100
AcDbPoint
 10
1507.737320242348
 20
257.5405561503522
 30
0.0
  0
POINT
  5
145B8
330
B542
100
AcDbEntity
  8
Defpoints
 62
     0
440
 16777216
100
AcDbPoint
 10
1506.479310834255
 20
202.5405561503522
 30
0.0
  0
POINT
  5
145B9
330
B542
100
AcDbEntity
  8
Defpoints
 62
     0
440
 16777216
100
AcDbPoint
 10
1514.413626751272
 20
202.5405561503522
 30
0.0
  0
ENDBLK
  5
B544
330
B542
100
AcDbEntity
  8
0
100
AcDbBlockEnd
  0
BLOCK
  5
BCF2
330
BCF1
100
AcDbEntity
  8
0
100
AcDbBlockBegin
  2
*D9
 70
     1
 10
0.0
 20
0.0
 30
0.0
  3
*D9
  1

  0
LINE
  5
146AF
330
BCF1
100
AcDbEntity
  8
寸法線
 62
     0
440
 16777216
370
    -2
100
AcDbLine
 10
1349.590478354216
 20
276.5927460157207
 30
0.0
 11
1353.753896953467
 21
276.5927460157207
 31
0.0
  0
LINE
  5
146B0
330
BCF1
100
AcDbEntity
  8
寸法線
 62
     0
440
 16777216
370
    -2
100
AcDbLine
 10
1347.590478354216
 20
284.5927460157207
 30
0.0
 11
1353.753896953467
 21
284.5927460157207
 31
0.0
  0
LINE
  5
146B1
330
BCF1
100
AcDbEntity
  8
寸法線
 62
     0
440
 16777216
370
    -2
100
AcDbLine
 10
1353.753896953467
 20
277.0927460157206
 30
0.0
 11
1353.753896953467
 21
284.0927460157207
 31
0.0
  0
INSERT
  5
146B2
330
BCF1
100
AcDbEntity
  8
寸法線
 62
     0
440
 16777216
370
    -2
100
AcDbBlockReference
  2
_Dot
 10
1353.753896953467
 20
276.5927460157207
 30
0.0
 41
0.5
 42
0.5
 43
0.5
 50
270.0
  0
INSERT
  5
146B3
330
BCF1
100
AcDbEntity
  8
寸法線
 62
     0
440
 16777216
370
    -2
100
AcDbBlockReference
  2
_Dot
 10
1353.753896953467
 20
284.5927460157207
 30
0.0
 41
0.5
 42
0.5
 43
0.5
 50
90.0
  0
MTEXT
  5
146B4
330
BCF1
100
AcDbEntity
  8
寸法線
 62
     0
440
 16777216
100
AcDbMText
 10
1352.663896953467
 20
280.5927460157209
 30
0.0
 40
2.0
 41
0.0
 46
0.0
 71
     5
 72
     1
  1
\A1;8
  7
ｽﾀｲﾙ1
 11
0.0000000000000001
 21
1.0
 31
0.0
 73
     1
 44
1.0
  0
POINT
  5
146B5
330
BCF1
100
AcDbEntity
  8
Defpoints
 62
     0
440
 16777216
100
AcDbPoint
 10
1347.590478354216
 20
276.5927460157207
 30
0.0
  0
POINT
  5
146B6
330
BCF1
100
AcDbEntity
  8
Defpoints
 62
     0
440
 16777216
100
AcDbPoint
 10
1345.590478354216
 20
284.5927460157207
 30
0.0
  0
POINT
  5
146B7
330
BCF1
100
AcDbEntity
  8
Defpoints
 62
     0
440
 16777216
100
AcDbPoint
 10
1353.753896953467
 20
284.5927460157207
 30
0.0
  0
ENDBLK
  5
BCF3
330
BCF1
100
AcDbEntity
  8
0
100
AcDbBlockEnd
  0
BLOCK
  5
BD1C
330
BD1B
100
AcDbEntity
  8
0
100
AcDbBlockBegin
  2
*D10
 70
     1
 10
0.0
 20
0.0
 30
0.0
  3
*D10
  1

  0
LINE
  5
13E31
330
BD1B
100
AcDbEntity
  8
寸法線
 62
     0
440
 16777216
370
    -2
100
AcDbLine
 10
1339.590478354216
 20
286.3433927512966
 30
0.0
 11
1339.590478354216
 21
288.5589909714353
 31
0.0
  0
LINE
  5
13E32
330
BD1B
100
AcDbEntity
  8
寸法線
 62
     0
440
 16777216
370
    -2
100
AcDbLine
 10
1345.590478354216
 20
286.3433927512966
 30
0.0
 11
1345.590478354216
 21
288.5589909714353
 31
0.0
  0
LINE
  5
13E33
330
BD1B
100
AcDbEntity
  8
寸法線
 62
     0
440
 16777216
370
    -2
100
AcDbLine
 10
1340.090478354216
 20
288.5589909714353
 30
0.0
 11
1345.090478354216
 21
288.5589909714353
 31
0.0
  0
INSERT
  5
13E34
330
BD1B
100
AcDbEntity
  8
寸法線
 62
     0
440
 16777216
370
    -2
100
AcDbBlockReference
  2
_Dot
 10
1339.590478354216
 20
288.5589909714353
 30
0.0
 41
0.5
 42
0.5
 43
0.5
 50
180.0
  0
INSERT
  5
13E35
330
BD1B
100
AcDbEntity
  8
寸法線
 62
     0
440
 16777216
370
    -2
100
AcDbBlockReference
  2
_Dot
 10
1345.590478354216
 20
288.5589909714353
 30
0.0
 41
0.5
 42
0.5
 43
0.5
  0
MTEXT
  5
13E36
330
BD1B
100
AcDbEntity
  8
寸法線
 62
     0
440
 16777216
100
AcDbMText
 10
1342.590478354216
 20
289.6489909714353
 30
0.0
 40
2.0
 41
0.0
 46
0.0
 71
     5
 72
     1
  1
\A1;6
  7
ｽﾀｲﾙ1
 73
     1
 44
1.0
  0
POINT
  5
13E37
330
BD1B
100
AcDbEntity
  8
Defpoints
 62
     0
440
 16777216
100
AcDbPoint
 10
1339.590478354216
 20
284.3433927512966
 30
0.0
  0
POINT
  5
13E38
330
BD1B
100
AcDbEntity
  8
Defpoints
 62
     0
440
 16777216
100
AcDbPoint
 10
1345.590478354216
 20
284.3433927512966
 30
0.0
  0
POINT
  5
13E39
330
BD1B
100
AcDbEntity
  8
Defpoints
 62
     0
440
 16777216
100
AcDbPoint
 10
1345.590478354216
 20
288.5589909714353
 30
0.0
  0
ENDBLK
  5
BD1D
330
BD1B
100
AcDbEntity
  8
0
100
AcDbBlockEnd
  0
BLOCK
  5
C612
330
C611
100
AcDbEntity
  8
0
100
AcDbBlockBegin
  2
*D11
 70
     1
 10
0.0
 20
0.0
 30
0.0
  3
*D11
  1

  0
LINE
  5
13E55
330
C611
100
AcDbEntity
  8
寸法線
 62
     0
440
 16777216
370
    -2
100
AcDbLine
 10
1409.695533724354
 20
260.4393000893197
 30
0.0
 11
1409.695533724354
 21
289.3024732234048
 31
0.0
  0
LINE
  5
13E56
330
C611
100
AcDbEntity
  8
寸法線
 62
     0
440
 16777216
370
    -2
100
AcDbLine
 10
1390.695533724354
 20
286.5405561503528
 30
0.0
 11
1390.695533724354
 21
289.3024732234048
 31
0.0
  0
LINE
  5
13E57
330
C611
100
AcDbEntity
  8
寸法線
 62
     0
440
 16777216
370
    -2
100
AcDbLine
 10
1409.195533724354
 20
289.3024732234048
 30
0.0
 11
1391.195533724354
 21
289.3024732234048
 31
0.0
  0
INSERT
  5
13E58
330
C611
100
AcDbEntity
  8
寸法線
 62
     0
440
 16777216
370
    -2
100
AcDbBlockReference
  2
_Dot
 10
1409.695533724354
 20
289.3024732234048
 30
0.0
 41
0.5
 42
0.5
 43
0.5
  0
INSERT
  5
13E59
330
C611
100
AcDbEntity
  8
寸法線
 62
     0
440
 16777216
370
    -2
100
AcDbBlockReference
  2
_Dot
 10
1390.695533724354
 20
289.3024732234048
 30
0.0
 41
0.5
 42
0.5
 43
0.5
 50
180.0
  0
MTEXT
  5
13E5A
330
C611
100
AcDbEntity
  8
寸法線
 62
     0
440
 16777216
100
AcDbMText
 10
1400.195533724354
 20
290.3924732234047
 30
0.0
 40
2.0
 41
0.0
 46
0.0
 71
     5
 72
     1
  1
\A1;19
  7
ｽﾀｲﾙ1
 73
     1
 44
1.0
  0
POINT
  5
13E5B
330
C611
100
AcDbEntity
  8
Defpoints
 62
     0
440
 16777216
100
AcDbPoint
 10
1409.695533724354
 20
258.4393000893197
 30
0.0
  0
POINT
  5
13E5C
330
C611
100
AcDbEntity
  8
Defpoints
 62
     0
440
 16777216
100
AcDbPoint
 10
1390.695533724354
 20
284.5405561503526
 30
0.0
  0
POINT
  5
13E5D
330
C611
100
AcDbEntity
  8
Defpoints
 62
     0
440
 16777216
100
AcDbPoint
 10
1390.695533724354
 20
289.3024732234048
 30
0.0
  0
ENDBLK
  5
C613
330
C611
100
AcDbEntity
  8
0
100
AcDbBlockEnd
  0
BLOCK
  5
C62A
330
C629
100
AcDbEntity
  8
0
100
AcDbBlockBegin
  2
*D12
 70
     1
 10
0.0
 20
0.0
 30
0.0
  3
*D12
  1

  0
LINE
  5
13E5E
330
C629
100
AcDbEntity
  8
寸法線
 62
     0
440
 16777216
370
    -2
100
AcDbLine
 10
1390.750598828909
 20
285.4393000893196
 30
0.0
 11
1422.353672503214
 21
285.4393000893196
 31
0.0
  0
LINE
  5
13E5F
330
C629
100
AcDbEntity
  8
寸法線
 62
     0
440
 16777216
370
    -2
100
AcDbLine
 10
1413.695533724354
 20
203.4393000893197
 30
0.0
 11
1422.353672503214
 21
203.4393000893197
 31
0.0
  0
LINE
  5
13E60
330
C629
100
AcDbEntity
  8
寸法線
 62
     0
440
 16777216
370
    -2
100
AcDbLine
 10
1422.353672503214
 20
284.9393000893197
 30
0.0
 11
1422.353672503214
 21
203.9393000893197
 31
0.0
  0
INSERT
  5
13E61
330
C629
100
AcDbEntity
  8
寸法線
 62
     0
440
 16777216
370
    -2
100
AcDbBlockReference
  2
_Dot
 10
1422.353672503214
 20
285.4393000893196
 30
0.0
 41
0.5
 42
0.5
 43
0.5
 50
90.0
  0
INSERT
  5
13E62
330
C629
100
AcDbEntity
  8
寸法線
 62
     0
440
 16777216
370
    -2
100
AcDbBlockReference
  2
_Dot
 10
1422.353672503214
 20
203.4393000893197
 30
0.0
 41
0.5
 42
0.5
 43
0.5
 50
270.0
  0
MTEXT
  5
13E63
330
C629
100
AcDbEntity
  8
寸法線
 62
     0
440
 16777216
100
AcDbMText
 10
1421.263672503214
 20
244.4393000893199
 30
0.0
 40
2.0
 41
0.0
 46
0.0
 71
     5
 72
     1
  1
\A1;82
  7
ｽﾀｲﾙ1
 11
0.0000000000000001
 21
1.0
 31
0.0
 73
     1
 44
1.0
  0
POINT
  5
13E64
330
C629
100
AcDbEntity
  8
Defpoints
 62
     0
440
 16777216
100
AcDbPoint
 10
1388.75059882891
 20
285.4393000893196
 30
0.0
  0
POINT
  5
13E65
330
C629
100
AcDbEntity
  8
Defpoints
 62
     0
440
 16777216
100
AcDbPoint
 10
1411.695533724354
 20
203.4393000893197
 30
0.0
  0
POINT
  5
13E66
330
C629
100
AcDbEntity
  8
Defpoints
 62
     0
440
 16777216
100
AcDbPoint
 10
1422.353672503214
 20
203.4393000893197
 30
0.0
  0
ENDBLK
  5
C62B
330
C629
100
AcDbEntity
  8
0
100
AcDbBlockEnd
  0
BLOCK
  5
C713
330
C712
100
AcDbEntity
  8
0
100
AcDbBlockBegin
  2
*D13
 70
     1
 10
0.0
 20
0.0
 30
0.0
  3
*D13
  1

  0
LINE
  5
13ECA
330
C712
100
AcDbEntity
  8
寸法線
 62
     0
440
 16777216
370
    -2
100
AcDbLine
 10
1510.479310834255
 20
202.5405561503522
 30
0.0
 11
1522.850511655305
 21
202.5405561503522
 31
0.0
  0
LINE
  5
13ECB
330
C712
100
AcDbEntity
  8
寸法線
 62
     0
440
 16777216
370
    -2
100
AcDbLine
 10
1463.070725301155
 20
284.5405561503522
 30
0.0
 11
1522.850511655305
 21
284.5405561503522
 31
0.0
  0
LINE
  5
13ECC
330
C712
100
AcDbEntity
  8
寸法線
 62
     0
440
 16777216
370
    -2
100
AcDbLine
 10
1522.850511655305
 20
203.0405561503521
 30
0.0
 11
1522.850511655305
 21
284.0405561503522
 31
0.0
  0
INSERT
  5
13ECD
330
C712
100
AcDbEntity
  8
寸法線
 62
     0
440
 16777216
370
    -2
100
AcDbBlockReference
  2
_Dot
 10
1522.850511655305
 20
202.5405561503522
 30
0.0
 41
0.5
 42
0.5
 43
0.5
 50
270.0
  0
INSERT
  5
13ECE
330
C712
100
AcDbEntity
  8
寸法線
 62
     0
440
 16777216
370
    -2
100
AcDbBlockReference
  2
_Dot
 10
1522.850511655305
 20
284.5405561503522
 30
0.0
 41
0.5
 42
0.5
 43
0.5
 50
90.0
  0
MTEXT
  5
13ECF
330
C712
100
AcDbEntity
  8
寸法線
 62
     0
440
 16777216
100
AcDbMText
 10
1521.760511655306
 20
243.5405561503525
 30
0.0
 40
2.0
 41
0.0
 46
0.0
 71
     5
 72
     1
  1
\A1;82
  7
ｽﾀｲﾙ1
 11
0.0000000000000001
 21
1.0
 31
0.0
 73
     1
 44
1.0
  0
POINT
  5
13ED0
330
C712
100
AcDbEntity
  8
Defpoints
 62
     0
440
 16777216
100
AcDbPoint
 10
1508.479310834255
 20
202.5405561503522
 30
0.0
  0
POINT
  5
13ED1
330
C712
100
AcDbEntity
  8
Defpoints
 62
     0
440
 16777216
100
AcDbPoint
 10
1461.070725301155
 20
284.5405561503522
 30
0.0
  0
POINT
  5
13ED2
330
C712
100
AcDbEntity
  8
Defpoints
 62
     0
440
 16777216
100
AcDbPoint
 10
1522.850511655305
 20
284.5405561503522
 30
0.0
  0
ENDBLK
  5
C714
330
C712
100
AcDbEntity
  8
0
100
AcDbBlockEnd
  0
BLOCK
  5
1371D
330
1371C
100
AcDbEntity
  8
0
 48
1.5
100
AcDbBlockBegin
  2
*D14
 70
     1
 10
0.0
 20
0.0
 30
0.0
  3
*D14
  1

  0
LINE
  5
1469D
330
1371C
100
AcDbEntity
  8
寸法線
 62
     0
440
 16777216
 48
1.5
370
    -2
100
AcDbLine
 10
1347.560710283944
 20
234.5971319667258
 30
0.0
 11
1358.043881267615
 21
234.5971319667258
 31
0.0
  0
LINE
  5
1469E
330
1371C
100
AcDbEntity
  8
寸法線
 62
     0
440
 16777216
 48
1.5
370
    -2
100
AcDbLine
 10
1347.731945208121
 20
284.5927460157207
 30
0.0
 11
1358.043881267615
 21
284.5927460157207
 31
0.0
  0
LINE
  5
1469F
330
1371C
100
AcDbEntity
  8
寸法線
 62
     0
440
 16777216
 48
1.5
370
    -2
100
AcDbLine
 10
1358.043881267615
 20
235.0971319667258
 30
0.0
 11
1358.043881267615
 21
284.0927460157207
 31
0.0
  0
INSERT
  5
146A0
330
1371C
100
AcDbEntity
  8
寸法線
 62
     0
440
 16777216
 48
1.5
370
    -2
100
AcDbBlockReference
  2
_Dot
 10
1358.043881267615
 20
234.5971319667258
 30
0.0
 41
0.5
 42
0.5
 43
0.5
 50
270.0
  0
INSERT
  5
146A1
330
1371C
100
AcDbEntity
  8
寸法線
 62
     0
440
 16777216
 48
1.5
370
    -2
100
AcDbBlockReference
  2
_Dot
 10
1358.043881267615
 20
284.5927460157207
 30
0.0
 41
0.5
 42
0.5
 43
0.5
 50
90.0
  0
MTEXT
  5
146A2
330
1371C
100
AcDbEntity
  8
寸法線
 62
     0
440
 16777216
 48
1.5
100
AcDbMText
 10
1356.953881267615
 20
259.5949389912235
 30
0.0
 40
2.0
 41
0.0
 46
0.0
 71
     5
 72
     1
  1
\A1;50
  7
ｽﾀｲﾙ1
 11
0.0000000000000001
 21
1.0
 31
0.0
 73
     1
 44
1.0
  0
POINT
  5
146A3
330
1371C
100
AcDbEntity
  8
Defpoints
 62
     0
440
 16777216
 48
1.5
100
AcDbPoint
 10
1345.560710283944
 20
234.5971319667258
 30
0.0
  0
POINT
  5
146A4
330
1371C
100
AcDbEntity
  8
Defpoints
 62
     0
440
 16777216
 48
1.5
100
AcDbPoint
 10
1345.731945208121
 20
284.5927460157207
 30
0.0
  0
POINT
  5
146A5
330
1371C
100
AcDbEntity
  8
Defpoints
 62
     0
440
 16777216
 48
1.5
100
AcDbPoint
 10
1358.043881267615
 20
284.5927460157207
 30
0.0
  0
ENDBLK
  5
1371E
330
1371C
100
AcDbEntity
  8
0
 48
1.5
100
AcDbBlockEnd
  0
BLOCK
  5
1391F
330
1391C
100
AcDbEntity
  8
0
 48
1.5
100
AcDbBlockBegin
  2
_Dot
 70
     0
 10
0.0
 20
0.0
 30
0.0
  3
_Dot
  1

  0
LWPOLYLINE
  5
1391D
330
1391C
100
AcDbEntity
  8
0
  6
ByBlock
 62
     0
100
AcDbPolyline
 90
        2
 70
     1
 43
0.5
 10
-0.25
 20
0.0
 42
1.0
 10
0.25
 20
0.0
 42
1.0
  0
LINE
  5
1391E
330
1391C
100
AcDbEntity
  8
0
  6
ByBlock
 62
     0
370
    -2
100
AcDbLine
 10
-0.5
 20
0.0
 30
0.0
 11
-1.0
 21
0.0
 31
0.0
  0
ENDBLK
  5
13920
330
1391C
100
AcDbEntity
  8
0
 48
1.5
100
AcDbBlockEnd
  0
BLOCK
  5
143AB
330
143AA
100
AcDbEntity
  8
0
 48
1.5
100
AcDbBlockBegin
  2
*D16
 70
     1
 10
0.0
 20
0.0
 30
0.0
  3
*D16
  1

  0
LINE
  5
143B7
330
143AA
100
AcDbEntity
  8
寸法線
 62
     0
440
 16777216
 48
1.5
370
    -2
100
AcDbLine
 10
1342.560710283944
 20
233.2287595866094
 30
0.0
 11
1342.560710283944
 21
228.7223705738637
 31
0.0
  0
LINE
  5
143B8
330
143AA
100
AcDbEntity
  8
寸法線
 62
     0
440
 16777216
 48
1.5
370
    -2
100
AcDbLine
 10
1345.560710283944
 20
240.8690144778167
 30
0.0
 11
1345.560710283944
 21
228.7223705738637
 31
0.0
  0
LINE
  5
143B9
330
143AA
100
AcDbEntity
  8
寸法線
 62
     0
440
 16777216
 48
1.5
370
    -2
100
AcDbLine
 10
1343.060710283944
 20
228.7223705738637
 30
0.0
 11
1345.060710283944
 21
228.7223705738637
 31
0.0
  0
INSERT
  5
143BA
330
143AA
100
AcDbEntity
  8
寸法線
 62
     0
440
 16777216
 48
1.5
370
    -2
100
AcDbBlockReference
  2
_Dot
 10
1342.560710283944
 20
228.7223705738637
 30
0.0
 41
0.5
 42
0.5
 43
0.5
 50
180.0
  0
INSERT
  5
143BB
330
143AA
100
AcDbEntity
  8
寸法線
 62
     0
440
 16777216
 48
1.5
370
    -2
100
AcDbBlockReference
  2
_Dot
 10
1345.560710283944
 20
228.7223705738637
 30
0.0
 41
0.5
 42
0.5
 43
0.5
  0
MTEXT
  5
143BC
330
143AA
100
AcDbEntity
  8
寸法線
 62
     0
440
 16777216
 48
1.5
100
AcDbMText
 10
1344.060710283944
 20
229.8123705738637
 30
0.0
 40
2.0
 41
0.0
 46
0.0
 71
     5
 72
     1
  1
\A1;3
  7
ｽﾀｲﾙ1
 73
     1
 44
1.0
  0
POINT
  5
143BD
330
143AA
100
AcDbEntity
  8
Defpoints
 62
     0
440
 16777216
 48
1.5
100
AcDbPoint
 10
1342.560710283944
 20
235.2287595866094
 30
0.0
  0
POINT
  5
143BE
330
143AA
100
AcDbEntity
  8
Defpoints
 62
     0
440
 16777216
 48
1.5
100
AcDbPoint
 10
1345.560710283944
 20
242.8690144778167
 30
0.0
  0
POINT
  5
143BF
330
143AA
100
AcDbEntity
  8
Defpoints
 62
     0
440
 16777216
 48
1.5
100
AcDbPoint
 10
1345.560710283944
 20
228.7223705738637
 30
0.0
  0
ENDBLK
  5
143AC
330
143AA
100
AcDbEntity
  8
0
 48
1.5
100
AcDbBlockEnd
  0
BLOCK
  5
14409
330
14408
100
AcDbEntity
  8
0
 48
1.5
100
AcDbBlockBegin
  2
*D17
 70
     1
 10
0.0
 20
0.0
 30
0.0
  3
*D17
  1

  0
LINE
  5
144CB
330
14408
100
AcDbEntity
  8
寸法線
 62
     0
440
 16777216
 48
1.5
370
    -2
100
AcDbLine
 10
1384.695533724354
 20
262.9312700522198
 30
0.0
 11
1384.695533724354
 21
253.6089109661962
 31
0.0
  0
LINE
  5
144CC
330
14408
100
AcDbEntity
  8
寸法線
 62
     0
440
 16777216
 48
1.5
370
    -2
100
AcDbLine
 10
1409.695533724353
 20
256.4393000893196
 30
0.0
 11
1409.695533724353
 21
253.6089109661962
 31
0.0
  0
LINE
  5
144CD
330
14408
100
AcDbEntity
  8
寸法線
 62
     0
440
 16777216
 48
1.5
370
    -2
100
AcDbLine
 10
1385.195533724354
 20
253.6089109661962
 30
0.0
 11
1409.195533724354
 21
253.6089109661962
 31
0.0
  0
INSERT
  5
144CE
330
14408
100
AcDbEntity
  8
寸法線
 62
     0
440
 16777216
 48
1.5
370
    -2
100
AcDbBlockReference
  2
_Dot
 10
1384.695533724354
 20
253.6089109661962
 30
0.0
 41
0.5
 42
0.5
 43
0.5
 50
180.0
  0
INSERT
  5
144CF
330
14408
100
AcDbEntity
  8
寸法線
 62
     0
440
 16777216
 48
1.5
370
    -2
100
AcDbBlockReference
  2
_Dot
 10
1409.695533724353
 20
253.6089109661962
 30
0.0
 41
0.5
 42
0.5
 43
0.5
  0
MTEXT
  5
144D0
330
14408
100
AcDbEntity
  8
寸法線
 62
     0
440
 16777216
 48
1.5
100
AcDbMText
 10
1397.195533724354
 20
254.6989109661962
 30
0.0
 40
2.0
 41
0.0
 46
0.0
 71
     5
 72
     1
  1
\A1;25
  7
ｽﾀｲﾙ1
 73
     1
 44
1.0
  0
POINT
  5
144D1
330
14408
100
AcDbEntity
  8
Defpoints
 62
     0
440
 16777216
 48
1.5
100
AcDbPoint
 10
1384.695533724354
 20
264.9312700522198
 30
0.0
  0
POINT
  5
144D2
330
14408
100
AcDbEntity
  8
Defpoints
 62
     0
440
 16777216
 48
1.5
100
AcDbPoint
 10
1409.695533724353
 20
258.4393000893197
 30
0.0
  0
POINT
  5
144D3
330
14408
100
AcDbEntity
  8
Defpoints
 62
     0
440
 16777216
 48
1.5
100
AcDbPoint
 10
1409.695533724353
 20
253.6089109661962
 30
0.0
  0
ENDBLK
  5
1440A
330
14408
100
AcDbEntity
  8
0
 48
1.5
100
AcDbBlockEnd
  0
BLOCK
  5
14666
330
14665
100
AcDbEntity
  8
0
 48
1.5
100
AcDbBlockBegin
  2
*D18
 70
     1
 10
0.0
 20
0.0
 30
0.0
  3
*D18
  1

  0
LINE
  5
146B8
330
14665
100
AcDbEntity
  8
寸法線
  6
ByBlock
 62
     0
440
 16777216
 48
1.5
370
    -2
100
AcDbLine
 10
1347.731945208121
 20
242.5927460157207
 30
0.0
 11
1353.753896953467
 21
242.5927460157207
 31
0.0
  0
LINE
  5
146B9
330
14665
100
AcDbEntity
  8
寸法線
  6
ByBlock
 62
     0
440
 16777216
 48
1.5
370
    -2
100
AcDbLine
 10
1349.731945208121
 20
276.5927460157207
 30
0.0
 11
1353.753896953467
 21
276.5927460157207
 31
0.0
  0
LINE
  5
146BA
330
14665
100
AcDbEntity
  8
寸法線
  6
ByBlock
 62
     0
440
 16777216
 48
1.5
370
    -2
100
AcDbLine
 10
1353.753896953467
 20
243.0927460157207
 30
0.0
 11
1353.753896953467
 21
276.0927460157207
 31
0.0
  0
INSERT
  5
146BB
330
14665
100
AcDbEntity
  8
寸法線
  6
ByBlock
 62
     0
440
 16777216
 48
1.5
370
    -2
100
AcDbBlockReference
  2
_Dot
 10
1353.753896953467
 20
242.5927460157207
 30
0.0
 41
0.5
 42
0.5
 43
0.5
 50
270.0
  0
INSERT
  5
146BC
330
14665
100
AcDbEntity
  8
寸法線
  6
ByBlock
 62
     0
440
 16777216
 48
1.5
370
    -2
100
AcDbBlockReference
  2
_Dot
 10
1353.753896953467
 20
276.5927460157207
 30
0.0
 41
0.5
 42
0.5
 43
0.5
 50
90.0
  0
MTEXT
  5
146BD
330
14665
100
AcDbEntity
  8
寸法線
  6
ByBlock
 62
     0
440
 16777216
 48
1.5
100
AcDbMText
 10
1352.663896953467
 20
259.5927460157209
 30
0.0
 40
2.0
 41
0.0
 46
0.0
 71
     5
 72
     1
  1
\A1;34
  7
ｽﾀｲﾙ1
 11
0.0000000000000001
 21
1.0
 31
0.0
 73
     1
 44
1.0
  0
POINT
  5
146BE
330
14665
100
AcDbEntity
  8
Defpoints
  6
ByBlock
 62
     0
440
 16777216
 48
1.5
100
AcDbPoint
 10
1345.731945208121
 20
242.5927460157207
 30
0.0
  0
POINT
  5
146BF
330
14665
100
AcDbEntity
  8
Defpoints
  6
ByBlock
 62
     0
440
 16777216
 48
1.5
100
AcDbPoint
 10
1347.731945208121
 20
276.5927460157207
 30
0.0
  0
POINT
  5
146C0
330
14665
100
AcDbEntity
  8
Defpoints
  6
ByBlock
 62
     0
440
 16777216
 48
1.5
100
AcDbPoint
 10
1353.753896953467
 20
276.5927460157207
 30
0.0
  0
ENDBLK
  5
14667
330
14665
100
AcDbEntity
  8
0
 48
1.5
100
AcDbBlockEnd
  0
BLOCK
  5
146D5
330
146D4
100
AcDbEntity
  8
0
 48
1.5
100
AcDbBlockBegin
  2
*D19
 70
     1
 10
0.0
 20
0.0
 30
0.0
  3
*D19
  1

  0
LINE
  5
146D7
330
146D4
100
AcDbEntity
  8
寸法線
  6
ByBlock
 62
     0
440
 16777216
 48
1.5
370
    -2
100
AcDbLine
 10
1511.737320242348
 20
257.5405561503522
 30
0.0
 11
1514.413626751272
 21
257.5405561503522
 31
0.0
  0
LINE
  5
146D8
330
146D4
100
AcDbEntity
  8
寸法線
  6
ByBlock
 62
     0
440
 16777216
 48
1.5
370
    -2
100
AcDbLine
 10
1465.937909066755
 20
262.5405561503522
 30
0.0
 11
1514.413626751272
 21
262.5405561503522
 31
0.0
  0
LINE
  5
146D9
330
146D4
100
AcDbEntity
  8
寸法線
  6
ByBlock
 62
     0
440
 16777216
 48
1.5
370
    -2
100
AcDbLine
 10
1514.413626751272
 20
258.0405561503523
 30
0.0
 11
1514.413626751272
 21
262.0405561503523
 31
0.0
  0
INSERT
  5
146DA
330
146D4
100
AcDbEntity
  8
寸法線
  6
ByBlock
 62
     0
440
 16777216
 48
1.5
370
    -2
100
AcDbBlockReference
  2
_Dot
 10
1514.413626751272
 20
257.5405561503522
 30
0.0
 41
0.5
 42
0.5
 43
0.5
 50
270.0
  0
INSERT
  5
146DB
330
146D4
100
AcDbEntity
  8
寸法線
  6
ByBlock
 62
     0
440
 16777216
 48
1.5
370
    -2
100
AcDbBlockReference
  2
_Dot
 10
1514.413626751272
 20
262.5405561503522
 30
0.0
 41
0.5
 42
0.5
 43
0.5
 50
90.0
  0
MTEXT
  5
146DC
330
146D4
100
AcDbEntity
  8
寸法線
  6
ByBlock
 62
     0
440
 16777216
 48
1.5
100
AcDbMText
 10
1513.323626751272
 20
260.0405561503525
 30
0.0
 40
2.0
 41
0.0
 46
0.0
 71
     5
 72
     1
  1
\A1;5
  7
ｽﾀｲﾙ1
 11
0.0000000000000001
 21
1.0
 31
0.0
 73
     1
 44
1.0
  0
POINT
  5
146DD
330
146D4
100
AcDbEntity
  8
Defpoints
  6
ByBlock
 62
     0
440
 16777216
 48
1.5
100
AcDbPoint
 10
1509.737320242348
 20
257.5405561503522
 30
0.0
  0
POINT
  5
146DE
330
146D4
100
AcDbEntity
  8
Defpoints
  6
ByBlock
 62
     0
440
 16777216
 48
1.5
100
AcDbPoint
 10
1463.937909066755
 20
262.5405561503522
 30
0.0
  0
POINT
  5
146DF
330
146D4
100
AcDbEntity
  8
Defpoints
  6
ByBlock
 62
     0
440
 16777216
 48
1.5
100
AcDbPoint
 10
1514.413626751272
 20
262.5405561503522
 30
0.0
  0
ENDBLK
  5
146D6
330
146D4
100
AcDbEntity
  8
0
 48
1.5
100
AcDbBlockEnd
  0
BLOCK
  5
14721
330
14720
100
AcDbEntity
  8
0
 48
1.5
100
AcDbBlockBegin
  2
*D20
 70
     1
 10
0.0
 20
0.0
 30
0.0
  3
*D20
  1

  0
LINE
  5
1472D
330
14720
100
AcDbEntity
  8
寸法線
  6
ByBlock
 62
     0
440
 16777216
 48
1.5
370
    -2
100
AcDbLine
 10
1404.695533724354
 20
201.9393000893197
 30
0.0
 11
1404.695533724354
 21
195.2795265581458
 31
0.0
  0
LINE
  5
1472E
330
14720
100
AcDbEntity
  8
寸法線
  6
ByBlock
 62
     0
440
 16777216
 48
1.5
370
    -2
100
AcDbLine
 10
1409.695533724354
 20
201.9393000893197
 30
0.0
 11
1409.695533724354
 21
195.2795265581458
 31
0.0
  0
LINE
  5
1472F
330
14720
100
AcDbEntity
  8
寸法線
  6
ByBlock
 62
     0
440
 16777216
 48
1.5
370
    -2
100
AcDbLine
 10
1405.195533724354
 20
195.2795265581458
 30
0.0
 11
1409.195533724354
 21
195.2795265581458
 31
0.0
  0
INSERT
  5
14730
330
14720
100
AcDbEntity
  8
寸法線
  6
ByBlock
 62
     0
440
 16777216
 48
1.5
370
    -2
100
AcDbBlockReference
  2
_Dot
 10
1404.695533724354
 20
195.2795265581458
 30
0.0
 41
0.5
 42
0.5
 43
0.5
 50
180.0
  0
INSERT
  5
14731
330
14720
100
AcDbEntity
  8
寸法線
  6
ByBlock
 62
     0
440
 16777216
 48
1.5
370
    -2
100
AcDbBlockReference
  2
_Dot
 10
1409.695533724354
 20
195.2795265581458
 30
0.0
 41
0.5
 42
0.5
 43
0.5
  0
MTEXT
  5
14732
330
14720
100
AcDbEntity
  8
寸法線
  6
ByBlock
 62
     0
440
 16777216
 48
1.5
100
AcDbMText
 10
1407.195533724354
 20
196.3695265581458
 30
0.0
 40
2.0
 41
0.0
 46
0.0
 71
     5
 72
     1
  1
\A1;5
  7
ｽﾀｲﾙ1
 73
     1
 44
1.0
  0
POINT
  5
14733
330
14720
100
AcDbEntity
  8
Defpoints
  6
ByBlock
 62
     0
440
 16777216
 48
1.5
100
AcDbPoint
 10
1404.695533724354
 20
203.9393000893197
 30
0.0
  0
POINT
  5
14734
330
14720
100
AcDbEntity
  8
Defpoints
  6
ByBlock
 62
     0
440
 16777216
 48
1.5
100
AcDbPoint
 10
1409.695533724354
 20
203.9393000893197
 30
0.0
  0
POINT
  5
14735
330
14720
100
AcDbEntity
  8
Defpoints
  6
ByBlock
 62
     0
440
 16777216
 48
1.5
100
AcDbPoint
 10
1409.695533724354
 20
195.2795265581458
 30
0.0
  0
ENDBLK
  5
14722
330
14720
100
AcDbEntity
  8
0
 48
1.5
100
AcDbBlockEnd
  0
ENDSEC
  0
SECTION
  2
ENTITIES
  0
LINE
  5
AABE
330
1F
100
AcDbEntity
  8
金物
100
AcDbLine
 10
1406.091512270376
 20
204.8040584769893
 30
0.0
 11
1408.483098159056
 21
204.8040584769893
 31
0.0
  0
LINE
  5
AAD5
102
{ACAD_REACTORS
330
B13C
330
B19D
330
C627
330
1441E
102
}
330
1F
100
AcDbEntity
  8
金物
100
AcDbLine
 10
1389.654131956854
 20
263.4393000893197
 30
0.0
 11
1409.695533724354
 21
258.4393000893197
 31
0.0
  0
LINE
  5
AADA
330
1F
100
AcDbEntity
  8
金物
100
AcDbLine
 10
1388.25059882891
 20
271.6912847107983
 30
0.0
 11
1388.25059882891
 21
281.4589405323313
 31
0.0
  0
LINE
  5
AADB
330
1F
100
AcDbEntity
  8
金物
100
AcDbLine
 10
1388.25059882891
 20
281.4589405323313
 30
0.0
 11
1388.25059882891
 21
271.6912847107983
 31
0.0
  0
LINE
  5
AAE6
330
1F
100
AcDbEntity
  8
金物
100
AcDbLine
 10
1388.254131956854
 20
267.4395669954197
 30
0.0
 11
1388.254131956854
 21
262.4145203160197
 31
0.0
  0
LINE
  5
AAED
330
1F
100
AcDbEntity
  8
金物
100
AcDbLine
 10
1388.254131956854
 20
262.8622078234197
 30
0.0
 11
1388.254131956854
 21
262.3686145703197
 31
0.0
  0
ARC
  5
AAEF
330
1F
100
AcDbEntity
  8
金物
100
AcDbCircle
 10
1385.400720784516
 20
270.9783957548546
 30
0.0
 40
0.7012104790046903
100
AcDbArc
 50
7.745521336725805
 51
176.0703483831225
  0
ARC
  5
AAF0
102
{ACAD_REACTORS
330
1441E
102
}
330
1F
100
AcDbEntity
  8
金物
100
AcDbCircle
 10
1385.395533724354
 20
264.9312700522198
 30
0.0
 40
0.7
100
AcDbArc
 50
180.0
 51
0.0
  0
LINE
  5
AAF2
330
1F
100
AcDbEntity
  8
金物
100
AcDbLine
 10
1384.695533724354
 20
270.9445624822838
 30
0.0
 11
1384.701158889161
 21
271.0264508319335
 31
0.0
  0
LINE
  5
AAF3
102
{ACAD_REACTORS
330
1441E
102
}
330
1F
100
AcDbEntity
  8
金物
100
AcDbLine
 10
1384.695533724354
 20
270.9445624822841
 30
0.0
 11
1384.695533724354
 21
264.9312700522198
 31
0.0
  0
LINE
  5
AAF6
330
1F
100
AcDbEntity
  8
金物
100
AcDbLine
 10
1386.554131956854
 20
267.4395669954197
 30
0.0
 11
1387.754131956854
 21
267.4395669954197
 31
0.0
  0
LINE
  5
AAF9
330
1F
100
AcDbEntity
  8
金物
100
AcDbLine
 10
1386.095533724354
 20
269.6456702818196
 30
0.0
 11
1388.254131956854
 21
269.6456702818196
 31
0.0
  0
LINE
  5
AAFA
330
1F
100
AcDbEntity
  8
金物
100
AcDbLine
 10
1388.254131956854
 20
267.4395669954197
 30
0.0
 11
1386.095533724354
 21
267.4395669954197
 31
0.0
  0
LINE
  5
AAFB
330
1F
100
AcDbEntity
  8
金物
100
AcDbLine
 10
1386.095533724354
 20
271.0729003288198
 30
0.0
 11
1386.095533724354
 21
269.6456702818196
 31
0.0
  0
LINE
  5
AAFD
330
1F
100
AcDbEntity
  8
金物
100
AcDbLine
 10
1386.095533724354
 20
267.4395669954197
 30
0.0
 11
1386.095533724354
 21
264.9312700522198
 31
0.0
  0
LINE
  5
AB00
102
{ACAD_REACTORS
330
14617
102
}
330
1F
100
AcDbEntity
  8
センター
  6
CENTER2
 48
0.3
370
     5
100
AcDbLine
 10
1394.66734293004
 20
275.3325531186948
 30
0.0
 11
1376.39516017924
 21
275.3325531186948
 31
0.0
  0
ARC
  5
AB0C
330
1F
100
AcDbEntity
  8
金物
100
AcDbCircle
 10
1385.395533724354
 20
282.2405561503528
 30
0.0
 40
0.7
100
AcDbArc
 50
180.0
 51
0.0
  0
LINE
  5
AB10
330
1F
100
AcDbEntity
  8
金物
100
AcDbLine
 10
1389.354131956854
 20
275.327810734954
 30
0.0
 11
1389.654131956854
 21
275.027810734954
 31
0.0
  0
LINE
  5
AB11
330
1F
100
AcDbEntity
  8
金物
100
AcDbLine
 10
1389.654131956854
 20
275.6278107349539
 30
0.0
 11
1389.354131956854
 21
275.327810734954
 31
0.0
  0
LINE
  5
AB14
330
1F
100
AcDbEntity
  8
金物
100
AcDbLine
 10
1386.059283150814
 20
283.5405561503529
 30
0.0
 11
1386.059283150814
 21
283.5405561503529
 31
0.0
  0
LINE
  5
AB2C
330
1F
100
AcDbEntity
  8
金物
100
AcDbLine
 10
1409.695533724354
 20
258.4393000893197
 30
0.0
 11
1409.695533724354
 21
203.9393000893197
 31
0.0
  0
LINE
  5
AB40
102
{ACAD_REACTORS
330
14635
102
}
330
1F
100
AcDbEntity
  8
センター
  6
CENTER2
 48
0.3
370
     5
100
AcDbLine
 10
1466.615031943855
 20
274.7772592459152
 30
0.0
 11
1448.342849193055
 21
274.7772592459152
 31
0.0
  0
ARC
  5
AB42
330
1F
100
AcDbEntity
  8
金物
100
AcDbCircle
 10
1457.679310834256
 20
281.2347572225523
 30
0.0
 40
0.7
100
AcDbArc
 50
180.0
 51
0.0
  0
ARC
  5
AB44
330
1F
100
AcDbEntity
  8
金物
100
AcDbCircle
 10
-1457.679310834256
 20
270.1741563898522
 30
0.0
 40
0.7
210
0.0
220
0.0
230
-1.0
100
AcDbArc
 50
0.0
 51
180.0
  0
ARC
  5
AB45
330
1F
100
AcDbEntity
  8
金物
100
AcDbCircle
 10
1457.679310834256
 20
264.0325261132522
 30
0.0
 40
0.7
100
AcDbArc
 50
180.0
 51
0.0
  0
ARC
  5
AB51
102
{ACAD_REACTORS
330
B46B
102
}
330
1F
100
AcDbEntity
  8
金物
100
AcDbCircle
 10
1457.479310834255
 20
284.0489837799523
 30
0.0
 40
0.5
100
AcDbArc
 50
79.46541925109791
 51
180.0
  0
LINE
  5
AB5A
330
1F
100
AcDbEntity
  8
金物
100
AcDbLine
 10
1461.937909066755
 20
275.0986006333677
 30
0.0
 11
1461.637909066755
 21
274.7986006333678
 31
0.0
  0
LINE
  5
AB68
330
1F
100
AcDbEntity
  8
金物
100
AcDbLine
 10
1461.637909066755
 20
274.7986006333678
 30
0.0
 11
1461.937909066754
 21
274.4986006333689
 31
0.0
  0
LINE
  5
AB8D
102
{ACAD_REACTORS
330
B483
102
}
330
1F
100
AcDbEntity
  8
金物
100
AcDbLine
 10
1506.979310834255
 20
257.0437889150522
 30
0.0
 11
1506.979310834255
 21
203.0405561503521
 31
0.0
  0
ARC
  5
AB9B
330
1F
100
AcDbEntity
  8
金物
100
AcDbCircle
 10
-1502.679310834255
 20
206.8405561503524
 30
0.0
 40
0.7
210
0.0
220
0.0
230
-1.0
100
AcDbArc
 50
0.0
 51
180.0
  0
ARC
  5
ABA1
102
{ACAD_REACTORS
330
B483
102
}
330
1F
100
AcDbEntity
  8
金物
100
AcDbCircle
 10
-1506.479310834255
 20
257.0437889150522
 30
0.0
 40
0.5
210
0.0
220
0.0
230
-1.0
100
AcDbArc
 50
96.5188944435957
 51
180.0
  0
DIMENSION
  5
B015
330
1F
100
AcDbEntity
  8
寸法線
100
AcDbDimension
280
     0
  2
*D0
 10
1390.695533724354
 20
289.3024732234048
 30
0.0
 11
1387.695533724354
 21
290.3924732234047
 31
0.0
 70
    32
 71
     5
 42
6.0
 73
     0
 74
     0
 75
     0
  3
style1
100
AcDbAlignedDimension
 13
1384.695533724354
 23
284.9833850609828
 33
0.0
 14
1390.695533724354
 24
284.9833850609828
 34
0.0
100
AcDbRotatedDimension
1001
ACAD
1000
DSTYLE
1002
{
1070
    40
1040
1.0
1002
}
  0
DIMENSION
  5
B125
102
{ACAD_XDICTIONARY
360
B132
102
}
102
{ACAD_REACTORS
330
B13C
102
}
330
1F
100
AcDbEntity
  8
寸法線
100
AcDbDimension
280
     0
  2
*D1
 10
1417.694935752904
 20
203.4393000893197
 30
0.0
 11
1416.604935752905
 21
230.93930008932
 31
0.0
 70
    32
 71
     5
 42
55.00000000000003
 73
     0
 74
     0
 75
     0
  3
style1
100
AcDbAlignedDimension
 13
1409.695533724354
 23
258.4393000893197
 33
0.0
 14
1409.695533724354
 24
203.4393000893197
 34
0.0
 50
90.0
100
AcDbRotatedDimension
1001
ACAD
1000
DSTYLE
1002
{
1070
    40
1040
1.0
1002
}
  0
MULTILEADER
  5
B175
330
1F
100
AcDbEntity
  8
文字
160
              1281
310
01050000270000000C00000016000000000000C00C00000033000000000000000C00000013000000993A0000DC000000260000000980DB1FE1859540BC5895FC9C5D6B40000000000000000000000000000000000000000000000000000000000000F03F000000000000F03F00000000000000000000000000000000B830E7
310
30A430F330C830D730EC30FC30C830000009000000010000000000000000000040000000000000F03F0000000000000000000000000000F03F000000000000000000000000000000000000000000000000000000000100000000000000000062007400780074002E00730068007800000062006900670066006F006E007400
310
2E0073006800780000000C00000033000000000000000C00000010000000060000000C00000016000000000000C00C00000012000000FF7F00000C0000001300000001000000880000001D000000230400000000D03F474A58E87AB6DBBF000000000000000021FAD53D12FD9540474A58E87AB6DB3F230400000000D03F00
310
00000000000000BCB600DE2A2B6C4000000000000000000000000000000000000000000000E03F0000000000000000000000000000000000000000000000000000000000000000000000000000F03F0C00000016000000080000C30C00000017000000FDFFFFFF0C0000001400000002000000100000001900000000000000
310
0000000035000000210000002600000005008000000000000E03F40902000000000000D0BF0000000000000000C00000000000340FC50465210C00000012000000000000006400000004000000000000000000000000000000000000000000000000000000000000000000D03F000000000000000000000000000000000000
310
00000000F03F000000000000D0BF00000000000000000000000000000000182D4454FB210940000000006400000004000000000000000000000000000000000000000000000000000000000000000000D03F00000000000000000000000000000000000000000000F03F000000000000D03F00000000000000000000000000
310
000000182D4454FB210940000000006400000004000000000000000000D0BF00000000000000000000000000000000000000000000000000000000000000000000000000000000000000000000F03F000000000000F03F000000000000000000000000000000000000000000000000000000000C0000001400000001000000
310
0C00000016000000080000C30C00000017000000FDFFFFFF540000002000000002000000000000000000E0BF00000000000000000000000000000000000000000000F0BF0000000000000000000000000000000000000000000000000000000000000000000000000000F03F080000001F0000000C00000016000000000000
310
C00C00000012000000FF7F00000C00000033000000000000000C00000013000000891300003C000000060000000200000021FAD53D12FC9540978A8CA04F1D6C400000000000000000B42A86CA8BF09540BC5895FC9C7D6B4000000000000000000C00000013000000112700003C0000000600000002000000B42A86CA8BF0
310
9540BC5895FC9C7D6B400000000000000000B42A86CA8BE09540BC5895FC9C7D6B4000000000000000000C00000016000000000000C00C00000012000000FF7F00000C00000017000000000000000C000000130000009A3A00000C00000016000000000000C00C00000012000000FF7F00000C00000017000000FFFFFFFF0C
310
0000003300000000000000
100
AcDbMLeader
270
     2
300
CONTEXT_DATA{
 40
1.0
 10
1375.736514755589
 20
219.9254134098936
 30
0.0
 41
2.0
140
0.5
145
2.0
174
     1
175
     1
176
     2
177
     0
290
     1
304
ジョイントプレート
 11
0.0
 21
0.0
 31
1.0
340
21C
 12
1398.136514755589
 22
220.9254134098936
 32
0.0
 13
1.0
 23
0.0
 33
0.0
 42
0.0
 43
0.0
 44
0.0
 45
1.0
170
     1
 90
-1073741824
171
     3
172
     5
 91
-1073741824
141
0.0
 92
        0
291
     0
292
     0
173
     0
293
     0
142
0.0
143
0.0
294
     0
295
     0
296
     0
110
1407.26781401004
120
215.3489828123038
130
0.0
111
1.0
121
0.0
131
0.0
112
0.0
122
1.0
132
0.0
297
     0
302
LEADER{
290
     1
291
     1
 10
1404.136514755589
 20
219.9254134098936
 30
0.0
 11
-1.0
 21
0.0
 31
0.0
 90
        0
 40
4.0
304
LEADER_LINE{
 10
1407.26781401004
 20
225.3489828123037
 30
0.0
 91
        0
305
}
271
     0
303
}
272
     9
273
     9
301
}
340
4A8E
 90
   279552
170
     1
 91
-1056964608
341
14
171
    -2
290
     1
291
     1
 41
4.0
342
1391C
 42
0.5
172
     2
343
21C
173
     1
 95
        1
174
     1
175
     2
 92
-1056964608
292
     0
 93
-1056964608
 10
1.0
 20
1.0
 30
1.0
 43
0.0
176
     0
293
     0
294
     0
178
     0
179
     3
 45
1.0
271
     0
272
     9
273
     9
295
     0
  0
DIMENSION
  5
B186
102
{ACAD_XDICTIONARY
360
B193
102
}
102
{ACAD_REACTORS
330
B19D
102
}
330
1F
100
AcDbEntity
  8
寸法線
100
AcDbDimension
280
     0
  2
*D2
 10
1417.694935752905
 20
263.4393000893197
 30
0.0
 11
1416.604935752905
 21
260.93930008932
 31
0.0
 70
    32
 71
     5
 42
4.999999999999943
 73
     0
 74
     0
 75
     0
  3
style1
100
AcDbAlignedDimension
 13
1409.695533724354
 23
258.4393000893197
 33
0.0
 14
1389.654131956854
 24
263.4393000893197
 34
0.0
 50
90.0
100
AcDbRotatedDimension
1001
ACAD
1000
DSTYLE
1002
{
1070
    40
1040
1.0
1002
}
  0
DIMENSION
  5
B1A6
330
1F
100
AcDbEntity
  8
寸法線
100
AcDbDimension
280
     0
  2
*D3
 10
1417.694935752905
 20
263.4393000893197
 30
0.0
 11
1416.604935752905
 21
274.4393000893199
 31
0.0
 70
    32
 71
     5
 42
22.0
 73
     0
 74
     0
 75
     0
  3
style1
100
AcDbAlignedDimension
 13
1386.750598828909
 23
285.4393000893196
 33
0.0
 14
1389.654131956854
 24
263.4393000893197
 34
0.0
 50
90.0
100
AcDbRotatedDimension
1001
ACAD
1000
DSTYLE
1002
{
1070
    40
1040
1.0
1002
}
  0
MULTILEADER
  5
B1CE
102
{ACAD_REACTORS
330
14617
102
}
330
1F
100
AcDbEntity
  8
文字
160
              1273
310
F9040000270000000C00000016000000000000C00C00000033000000000000000C00000013000000993A0000D400000026000000345B2C6732CF95403B2FC8D189B57040000000000000000000000000000000000000000000000000000000000000F03F000000000000F03F00000000000000000000000000000000450050
310
005400B430E030000005000000010000000000000000000040000000000000F03F0000000000000000000000000000F03F000000000000000000000000000000000000000000000000000000000100000000000000000000007400780074002E00730068007800000062006900670066006F006E0074002E00730068007800
310
00000C00000033000000000000000C00000010000000060000000C00000016000000000000C00C00000012000000FF7F00000C0000001300000001000000880000001D000000F40000000000D0BF1E4C58E87AB6DBBF000000000000000044EB308459AB95401E4C58E87AB6DB3FF40000000000D0BF000000000000000016
310
4748469E17714000000000000000000000000000000000000000000000E03F0000000000000000000000000000000000000000000000000000000000000000000000000000F03F0C00000016000000080000C30C00000017000000FDFFFFFF0C00000014000000020000001000000019000000000000000000000035000000
310
210000002600000005008000000000000E03F40902000000000000D0BF0000000000000000C00000000000340FC5764F210C00000012000000000000006400000004000000000000000000000000000000000000000000000000000000000000000000D03F00000000000000000000000000000000000000000000F03F0000
310
00000000D0BF00000000000000000000000000000000182D4454FB210940000000006400000004000000000000000000000000000000000000000000000000000000000000000000D03F00000000000000000000000000000000000000000000F03F000000000000D03F00000000000000000000000000000000182D4454FB
310
210940000000006400000004000000000000000000D0BF00000000000000000000000000000000000000000000000000000000000000000000000000000000000000000000F03F000000000000F03F000000000000000000000000000000000000000000000000000000000C00000014000000010000000C00000016000000
310
080000C30C00000017000000FDFFFFFF540000002000000002000000000000000000E0BF00000000000000000000000000000000000000000000F0BF0000000000000000000000000000000000000000000000000000000000000000000000000000F03F080000001F0000000C00000016000000000000C00C000000120000
310
00FF7F00000C00000033000000000000000C00000013000000891300003C000000060000000200000044EB308459AC954003318EA7B01071400000000000000000345B2C6732B795403B2FC8D189C5704000000000000000000C00000013000000112700003C0000000600000002000000345B2C6732B795403B2FC8D189C5
310
70400000000000000000345B2C6732C795403B2FC8D189C5704000000000000000000C00000016000000000000C00C00000012000000FF7F00000C00000017000000000000000C000000130000009A3A00000C00000016000000000000C00C00000012000000FF7F00000C00000017000000FFFFFFFF0C0000003300000000
310
000000
100
AcDbMLeader
270
     2
300
CONTEXT_DATA{
 40
1.0
 10
1393.799221699778
 20
268.3461473293025
 30
0.0
 41
2.0
140
0.5
145
2.0
174
     1
175
     1
176
     0
177
     0
290
     1
304
EPTゴム
 11
0.0
 21
0.0
 31
1.0
340
21C
 12
1395.799221699778
 22
269.3461473293025
 32
0.0
 13
1.0
 23
0.0
 33
0.0
 42
0.0
 43
0.0
 44
0.0
 45
1.0
170
     1
 90
-1073741824
171
     1
172
     5
 91
-1073741824
141
0.0
 92
        0
291
     0
292
     0
173
     0
293
     0
142
0.0
143
0.0
294
     0
295
     0
296
     0
110
1386.837418331489
120
263.4761412452075
130
0.0
111
1.0
121
0.0
131
0.0
112
0.0
122
1.0
132
0.0
297
     0
302
LEADER{
290
     1
291
     1
 10
1389.799221699778
 20
268.3461473293025
 30
0.0
 11
1.0
 21
0.0
 31
0.0
 90
        0
 40
4.0
304
LEADER_LINE{
 10
1386.837418331489
 20
273.4761412452075
 30
0.0
 91
        0
305
}
271
     0
303
}
272
     9
273
     9
301
}
340
4A8E
 90
   279552
170
     1
 91
-1056964608
341
14
171
    -2
290
     1
291
     1
 41
4.0
342
1391C
 42
0.5
172
     2
343
21C
173
     1
 95
        1
174
     1
175
     0
 92
-1056964608
292
     0
 93
-1056964608
 10
1.0
 20
1.0
 30
1.0
 43
0.0
176
     0
293
     0
294
     0
178
     0
179
     1
 45
1.0
271
     0
272
     9
273
     9
295
     0
  0
DIMENSION
  5
B250
330
1F
100
AcDbEntity
  8
寸法線
100
AcDbDimension
280
     0
  2
*D4
 10
1514.413626751272
 20
262.5405561503522
 30
0.0
 11
1513.323626751272
 21
273.5405561503525
 31
0.0
 70
    32
 71
     5
 42
22.0
 73
     0
 74
     0
 75
     0
  3
style1
100
AcDbAlignedDimension
 13
1459.070725301155
 23
284.5405561503522
 33
0.0
 14
1461.937909066755
 24
262.5405561503522
 34
0.0
 50
90.0
100
AcDbRotatedDimension
1001
ACAD
1000
DSTYLE
1002
{
1070
    40
1040
1.0
1002
}
  0
DIMENSION
  5
B2E9
330
1F
100
AcDbEntity
  8
寸法線
100
AcDbDimension
280
     0
  2
*D5
 10
1506.979310834255
 20
193.8807516838842
 30
0.0
 11
1504.479310834255
 21
194.9707516838842
 31
0.0
 70
    32
 71
     5
 42
5.0
 73
     0
 74
     0
 75
     0
  3
style1
100
AcDbAlignedDimension
 13
1501.979310834255
 23
203.0405561503521
 33
0.0
 14
1506.979310834255
 24
203.0405561503521
 34
0.0
100
AcDbRotatedDimension
1001
ACAD
1000
DSTYLE
1002
{
1070
    40
1040
1.0
1002
}
  0
DIMENSION
  5
B454
102
{ACAD_XDICTIONARY
360
B461
102
}
102
{ACAD_REACTORS
330
B46B
102
}
330
1F
100
AcDbEntity
  8
寸法線
100
AcDbDimension
280
     0
  2
*D6
 10
1462.979310834255
 20
289.0309488027649
 30
0.0
 11
1459.979310834255
 21
290.1209488027649
 31
0.0
 70
    32
 71
     5
 42
6.0
 73
     0
 74
     0
 75
     0
  3
style1
100
AcDbAlignedDimension
 13
1456.979310834255
 23
284.0489837799523
 33
0.0
 14
1462.979310834255
 24
283.5347572225522
 34
0.0
100
AcDbRotatedDimension
1001
ACAD
1000
DSTYLE
1002
{
1070
    40
1040
1.0
1002
}
  0
DIMENSION
  5
B46C
102
{ACAD_XDICTIONARY
360
B479
102
}
102
{ACAD_REACTORS
330
B483
102
}
330
1F
100
AcDbEntity
  8
寸法線
100
AcDbDimension
280
     0
  2
*D7
 10
1506.979310834256
 20
289.0309488027649
 30
0.0
 11
1484.979310834255
 21
290.1209488027649
 31
0.0
 70
    32
 71
     5
 42
44.00000000000022
 73
     0
 74
     0
 75
     0
  3
style1
100
AcDbAlignedDimension
 13
1462.979310834255
 23
283.5347572225522
 33
0.0
 14
1506.979310834256
 24
257.0437889150522
 34
0.0
100
AcDbRotatedDimension
1001
ACAD
1000
DSTYLE
1002
{
1070
    40
1040
1.0
1002
}
  0
MULTILEADER
  5
B48C
102
{ACAD_REACTORS
330
14635
102
}
330
1F
100
AcDbEntity
  8
文字
160
              1273
310
F9040000270000000C00000016000000000000C00C00000033000000000000000C00000013000000993A0000D400000026000000C599B4E367F2964083F80470289F7040000000000000000000000000000000000000000000000000000000000000F03F000000000000F03F00000000000000000000000000000000450050
310
005400B430E030000005000000010000000000000000000040000000000000F03F0000000000000000000000000000F03F000000000000000000000000000000000000000000000000000000000100000000000000000000007400780074002E00730068007800000062006900670066006F006E0074002E00730068007800
310
00000C00000033000000000000000C00000010000000060000000C00000016000000000000C00C00000012000000FF7F00000C0000001300000001000000880000001D0000009CFFFFFFFFFFCFBFC74C58E87AB6DBBF0000000000000000D629B9008FCE9640C74C58E87AB6DB3F9CFFFFFFFFFFCFBF00000000000000005D
310
1085E43C01714000000000000000000000000000000000000000000000E03F0000000000000000000000000000000000000000000000000000000000000000000000000000F03F0C00000016000000080000C30C00000017000000FDFFFFFF0C00000014000000020000001000000019000000000000000000000035000000
310
210000002600000005008000000000000E03F40902000000000000D0BF0000000000000000C00000000000340FC50465210C00000012000000000000006400000004000000000000000000000000000000000000000000000000000000000000000000D03F00000000000000000000000000000000000000000000F03F0000
310
00000000D0BF00000000000000000000000000000000182D4454FB210940000000006400000004000000000000000000000000000000000000000000000000000000000000000000D03F00000000000000000000000000000000000000000000F03F000000000000D03F00000000000000000000000000000000182D4454FB
310
210940000000006400000004000000000000000000D0BF00000000000000000000000000000000000000000000000000000000000000000000000000000000000000000000F03F000000000000F03F000000000000000000000000000000000000000000000000000000000C00000014000000010000000C00000016000000
310
080000C30C00000017000000FDFFFFFF540000002000000002000000000000000000E0BF00000000000000000000000000000000000000000000F0BF0000000000000000000000000000000000000000000000000000000000000000000000000000F03F080000001F0000000C00000016000000000000C00C000000120000
310
00FF7F00000C00000033000000000000000C00000013000000891300003C0000000600000002000000D629B9008FCF96404AFACA454FFA70400000000000000000C599B4E367DA964081F8047028AF704000000000000000000C00000013000000112700003C0000000600000002000000C599B4E367DA964081F8047028AF
310
70400000000000000000C599B4E367EA964081F8047028AF704000000000000000000C00000016000000000000C00C00000012000000FF7F00000C00000017000000000000000C000000130000009A3A00000C00000016000000000000C00C00000012000000FF7F00000C00000017000000FFFFFFFF0C0000003300000000
310
000000
100
AcDbMLeader
270
     2
300
CONTEXT_DATA{
 40
1.0
 10
1466.601454564939
 20
266.9473724550408
 30
0.0
 41
2.0
140
0.5
145
2.0
174
     1
175
     1
176
     0
177
     0
290
     1
304
EPTゴム
 11
0.0
 21
0.0
 31
1.0
340
21C
 12
1468.601454564939
 22
267.9473724550409
 32
0.0
 13
1.0
 23
0.0
 33
0.0
 42
0.0
 43
0.0
 44
0.0
 45
1.0
170
     1
 90
-1073741824
171
     1
172
     5
 91
-1073741824
141
0.0
 92
        0
291
     0
292
     0
173
     0
293
     0
142
0.0
143
0.0
294
     0
295
     0
296
     0
110
1459.63965119665
120
262.0773663709459
130
0.0
111
1.0
121
0.0
131
0.0
112
0.0
122
1.0
132
0.0
297
     0
302
LEADER{
290
     1
291
     1
 10
1462.601454564939
 20
266.9473724550408
 30
0.0
 11
1.0
 21
0.0
 31
0.0
 90
        0
 40
4.0
304
LEADER_LINE{
 10
1459.63965119665
 20
272.0773663709459
 30
0.0
 91
        0
305
}
271
     0
303
}
272
     9
273
     9
301
}
340
4A8E
 90
   279552
170
     1
 91
-1056964608
341
14
171
    -2
290
     1
291
     1
 41
4.0
342
1391C
 42
0.5
172
     2
343
21C
173
     1
 95
        1
174
     1
175
     0
 92
-1056964608
292
     0
 93
-1056964608
 10
1.0
 20
1.0
 30
1.0
 43
0.0
176
     0
293
     0
294
     0
178
     0
179
     1
 45
1.0
271
     0
272
     9
273
     9
295
     0
  0
MULTILEADER
  5
B48D
330
1F
100
AcDbEntity
  8
文字
160
              1281
310
01050000270000000C00000016000000000000C00C00000033000000000000000C00000013000000993A0000DC00000026000000D5C96720DF0A974024D7C3129CFB6D40000000000000000000000000000000000000000000000000000000000000F03F000000000000F03F00000000000000000000000000000000B830E7
310
30A430F330C830D730EC30FC30C830000009000000010000000000000000000040000000000000F03F0000000000000000000000000000F03F00000000000000000000000000000000000000000000000000000000010000000000000000002D007400780074002E00730068007800000062006900670066006F006E007400
310
2E0073006800780000000C00000033000000000000000C00000010000000060000000C00000016000000000000C00C00000012000000FF7F00000C0000001300000001000000880000001D000000E8FFFFFFFFFFCF3FB14C58E87AB6DBBF0000000000000000E943623E10829740B14C58E87AB6DB3FE8FFFFFFFFFFCF3F00
310
0000000000000029352FF429C96E4000000000000000000000000000000000000000000000E03F0000000000000000000000000000000000000000000000000000000000000000000000000000F03F0C00000016000000080000C30C00000017000000FDFFFFFF0C0000001400000002000000100000001900000000000000
310
0000000035000000210000002600000005008000000000000E03F40902000000000000D0BF0000000000000000C00000000000340FC50000000C00000012000000000000006400000004000000000000000000000000000000000000000000000000000000000000000000D03F000000000000000000000000000000000000
310
00000000F03F000000000000D0BF00000000000000000000000000000000182D4454FB210940000000006400000004000000000000000000000000000000000000000000000000000000000000000000D03F00000000000000000000000000000000000000000000F03F000000000000D03F00000000000000000000000000
310
000000182D4454FB210940000000006400000004000000000000000000D0BF00000000000000000000000000000000000000000000000000000000000000000000000000000000000000000000F03F000000000000F03F000000000000000000000000000000000000000000000000000000000C0000001400000001000000
310
0C00000016000000080000C30C00000017000000FDFFFFFF540000002000000002000000000000000000E0BF00000000000000000000000000000000000000000000F0BF0000000000000000000000000000000000000000000000000000000000000000000000000000F03F080000001F0000000C00000016000000000000
310
C00C00000012000000FF7F00000C00000033000000000000000C00000013000000891300003C0000000600000002000000E943623E108197400309BBB64EBB6E400000000000000000807412CB8975974024D7C3129C1B6E4000000000000000000C00000013000000112700003C0000000600000002000000807412CB8975
310
974024D7C3129C1B6E400000000000000000807412CB8965974024D7C3129C1B6E4000000000000000000C00000016000000000000C00C00000012000000FF7F00000C00000017000000000000000C000000130000009A3A00000C00000016000000000000C00C00000012000000FF7F00000C00000017000000FFFFFFFF0C
310
0000003300000000000000
100
AcDbMLeader
270
     2
300
CONTEXT_DATA{
 40
1.0
 10
1472.984563721047
 20
240.8628019166
 30
0.0
 41
2.0
140
0.5
145
2.0
174
     1
175
     1
176
     2
177
     0
290
     1
304
ジョイントプレート
 11
0.0
 21
0.0
 31
1.0
340
21C
 12
1495.384563721047
 22
241.8628019166
 32
0.0
 13
1.0
 23
0.0
 33
0.0
 42
0.0
 43
0.0
 44
0.0
 45
1.0
170
     1
 90
-1073741824
171
     3
172
     5
 91
-1073741824
141
0.0
 92
        0
291
     0
292
     0
173
     0
293
     0
142
0.0
143
0.0
294
     0
295
     0
296
     0
110
1504.515862975497
120
236.2863713190102
130
0.0
111
1.0
121
0.0
131
0.0
112
0.0
122
1.0
132
0.0
297
     0
302
LEADER{
290
     1
291
     1
 10
1501.384563721047
 20
240.8628019166
 30
0.0
 11
-1.0
 21
0.0
 31
0.0
 90
        0
 40
4.0
304
LEADER_LINE{
 10
1504.515862975497
 20
246.2863713190102
 30
0.0
 91
        0
305
}
271
     0
303
}
272
     9
273
     9
301
}
340
4A8E
 90
   279552
170
     1
 91
-1056964608
341
14
171
    -2
290
     1
291
     1
 41
4.0
342
1391C
 42
0.5
172
     2
343
21C
173
     1
 95
        1
174
     1
175
     2
 92
-1056964608
292
     0
 93
-1056964608
 10
1.0
 20
1.0
 30
1.0
 43
0.0
176
     0
293
     0
294
     0
178
     0
179
     3
 45
1.0
271
     0
272
     9
273
     9
295
     0
  0
DIMENSION
  5
B541
330
1F
100
AcDbEntity
  8
寸法線
100
AcDbDimension
280
     0
  2
*D8
 10
1514.413626751272
 20
202.5405561503522
 30
0.0
 11
1513.323626751272
 21
230.0405561503525
 31
0.0
 70
    32
 71
     5
 42
55.0
 73
     0
 74
     0
 75
     0
  3
style1
100
AcDbAlignedDimension
 13
1507.737320242348
 23
257.5405561503522
 33
0.0
 14
1506.479310834255
 24
202.5405561503522
 34
0.0
 50
90.0
100
AcDbRotatedDimension
1001
ACAD
1000
DSTYLE
1002
{
1070
    40
1040
1.0
1002
}
  0
LWPOLYLINE
  5
BC93
330
1F
100
AcDbEntity
  8
枠
100
AcDbPolyline
 90
        4
 70
     1
 43
0.0
 10
1309.036248705802
 20
310.8389179186279
 10
1369.036248705802
 20
310.8389179186279
 10
1369.036248705802
 20
188.0415463062093
 10
1309.036248705802
 20
188.0415463062093
  0
LWPOLYLINE
  5
BC94
330
1F
100
AcDbEntity
  8
枠
100
AcDbPolyline
 90
        4
 70
     1
 43
0.0
 10
1439.036248705802
 20
310.8389179186279
 10
1537.363959762059
 20
310.8389179186279
 10
1537.363959762059
 20
188.0415463062093
 10
1439.036248705802
 20
188.0415463062093
  0
LWPOLYLINE
  5
BC95
330
1F
100
AcDbEntity
  8
枠
100
AcDbPolyline
 90
        4
 70
     1
 43
0.0
 10
1369.036248705802
 20
310.8389179186279
 10
1439.036248705802
 20
310.8389179186279
 10
1439.036248705802
 20
188.0415463062093
 10
1369.036248705802
 20
188.0415463062093
  0
LINE
  5
BCA3
330
1F
100
AcDbEntity
  8
金物
100
AcDbLine
 10
1340.563445089796
 20
276.6170346627888
 30
0.0
 11
1340.563445089796
 21
275.1144079882497
 31
0.0
  0
LINE
  5
BCA5
330
1F
100
AcDbEntity
  8
金物
100
AcDbLine
 10
1340.981038807201
 20
276.8930269047573
 30
0.0
 11
1342.464911900643
 21
276.2607839403512
 31
0.0
  0
LINE
  5
BCAA
102
{ACAD_REACTORS
330
14497
330
144A8
102
}
330
1F
100
AcDbEntity
  8
センター
  6
CENTER2
 48
0.3
370
     5
100
AcDbLine
 10
1334.501317268532
 20
259.3471255710607
 30
0.0
 11
1347.86094052562
 21
259.3471255710607
 31
0.0
  0
LINE
  5
BCAF
330
1F
100
AcDbEntity
  8
金物
100
AcDbLine
 10
1344.079578319239
 20
244.0298948212006
 30
0.0
 11
1342.468039361219
 21
250.0442400909096
 31
0.0
  0
LINE
  5
BCB0
330
1F
100
AcDbEntity
  8
金物
100
AcDbLine
 10
1345.295466735945
 20
242.4243494614712
 30
0.0
 11
1342.560710283944
 21
240.5857972741689
 31
0.0
  0
LINE
  5
BCB3
330
1F
100
AcDbEntity
  8
金物
100
AcDbLine
 10
1341.078309594313
 20
244.6371797248549
 30
0.0
 11
1341.078309594313
 21
235.2287595866076
 31
0.0
  0
ARC
  5
BCB8
330
1F
100
AcDbEntity
  8
金物
100
AcDbCircle
 10
1341.424786702149
 20
244.6694835667394
 30
0.0
 40
0.3479797759279793
100
AcDbArc
 50
57.44176417330932
 51
185.3265813909269
  0
LINE
  5
BCBA
330
1F
100
AcDbEntity
  8
金物
100
AcDbLine
 10
1342.574460387415
 20
243.0195008317541
 30
0.0
 11
1344.063657941935
 21
244.0417448880423
 31
0.0
  0
LINE
  5
BCBB
330
1F
100
AcDbEntity
  8
金物
100
AcDbLine
 10
1341.61205430116
 20
244.9627765445204
 30
0.0
 11
1342.574460387415
 21
243.0093794604633
 31
0.0
  0
LINE
  5
BCBD
330
1F
100
AcDbEntity
  8
金物
100
AcDbLine
 10
1345.260710283944
 20
259.3890281708052
 30
0.0
 11
1345.560710283944
 21
259.0890281708052
 31
0.0
  0
LINE
  5
BCBE
330
1F
100
AcDbEntity
  8
金物
100
AcDbLine
 10
1345.560710283944
 20
259.6890281708052
 30
0.0
 11
1345.260710283944
 21
259.3890281708052
 31
0.0
  0
LINE
  5
BCBF
330
1F
100
AcDbEntity
  8
金物
100
AcDbLine
 10
1342.468039361219
 20
250.0442400909096
 30
0.0
 11
1342.468039361219
 21
276.1731575249811
 31
0.0
  0
LINE
  5
BCC3
330
1F
100
AcDbEntity
  8
金物
100
AcDbLine
 10
1342.464911900643
 20
275.682137081218
 30
0.0
 11
1342.464911900643
 21
276.271701706516
 31
0.0
  0
ARC
  5
BCD0
102
{ACAD_REACTORS
330
BCE3
102
}
330
1F
100
AcDbEntity
  8
金物
100
AcDbCircle
 10
1339.790478354216
 20
284.3433927512966
 30
0.0
 40
0.2
100
AcDbArc
 50
80.33868162330142
 51
180.0
  0
ARC
  5
BCD2
330
1F
100
AcDbEntity
  8
金物
100
AcDbCircle
 10
1341.358291490405
 20
278.9133008703474
 30
0.0
 40
0.5
100
AcDbArc
 50
180.0
 51
246.6549432617481
  0
LINE
  5
BCD6
330
1F
100
AcDbEntity
  8
金物
100
AcDbLine
 10
1341.348782455455
 20
276.5759187906896
 30
0.0
 11
1341.348782455455
 21
276.5759187906896
 31
0.0
  0
LINE
  5
BCD9
330
1F
100
AcDbEntity
  8
金物
100
AcDbLine
 10
1345.583508146119
 20
282.6135565550949
 30
0.0
 11
1345.583508146119
 21
282.6135565550949
 31
0.0
  0
DIMENSION
  5
BCE0
330
1F
100
AcDbEntity
  8
寸法線
100
AcDbDimension
280
     0
  2
*D9
 10
1353.753896953467
 20
284.5927460157207
 30
0.0
 11
1352.663896953467
 21
280.5927460157209
 31
0.0
 70
    32
 71
     5
 42
8.0
 73
     0
 74
     0
 75
     0
  3
style1
100
AcDbAlignedDimension
 13
1347.590478354216
 23
276.5927460157207
 33
0.0
 14
1345.590478354216
 24
284.5927460157207
 34
0.0
 50
90.0
100
AcDbRotatedDimension
1001
ACAD
1000
DSTYLE
1002
{
1070
    40
1040
1.0
1002
}
  0
DIMENSION
  5
BCE1
102
{ACAD_XDICTIONARY
360
BCE2
102
}
102
{ACAD_REACTORS
330
BCE3
102
}
330
1F
100
AcDbEntity
  8
寸法線
100
AcDbDimension
280
     0
  2
*D10
 10
1345.590478354216
 20
288.5589909714353
 30
0.0
 11
1342.590478354216
 21
289.6489909714353
 31
0.0
 70
    32
 71
     5
 42
6.0
 73
     0
 74
     0
 75
     0
  3
style1
100
AcDbAlignedDimension
 13
1339.590478354216
 23
284.3433927512966
 33
0.0
 14
1345.590478354216
 24
284.3433927512966
 34
0.0
100
AcDbRotatedDimension
1001
ACAD
1000
DSTYLE
1002
{
1070
    40
1040
1.0
1002
}
  0
MULTILEADER
  5
BCE4
102
{ACAD_REACTORS
330
144A8
102
}
330
1F
100
AcDbEntity
  8
寸法線
160
              1273
310
F9040000270000000C00000016000000000000C00C00000033000000000000000C00000013000000993A0000D400000026000000CF57FC5294A69440B40B074C5AB46E40000000000000000000000000000000000000000000000000000000000000F03F000000000000F03F00000000000000000000000000000000450050
310
005400B430E030000005000000010000000000000000000040000000000000F03F0000000000000000000000000000F03F000000000000000000000000000000000000000000000000000000000100000000000000000000007400780074002E00730068007800000062006900670066006F006E0074002E00730068007800
310
00000C00000033000000000000000C00000010000000020000000C00000016000000000000C00C00000012000000FF7F00000C0000001300000001000000880000001D0000002B0000000000D03F924C58E87AB6DBBF0000000000000000BC64C322ABEF9440924C58E87AB6DB3F2B0000000000D03F0000000000000000F6
310
2BEFAEE74A6F4000000000000000000000000000000000000000000000E03F0000000000000000000000000000000000000000000000000000000000000000000000000000F03F0C00000016000000080000C30C00000017000000FDFFFFFF0C00000014000000020000001000000019000000000000000000000035000000
310
210000002600000005008000000000000E03F40902000000000000D0BF0000000000000000C00000000000340FC5764F210C00000012000000000000006400000004000000000000000000000000000000000000000000000000000000000000000000D03F00000000000000000000000000000000000000000000F03F0000
310
00000000D0BF00000000000000000000000000000000182D4454FB210940000000006400000004000000000000000000000000000000000000000000000000000000000000000000D03F00000000000000000000000000000000000000000000F03F000000000000D03F00000000000000000000000000000000182D4454FB
310
210940000000006400000004000000000000000000D0BF00000000000000000000000000000000000000000000000000000000000000000000000000000000000000000000F03F000000000000F03F000000000000000000000000000000000000000000000000000000000C00000014000000010000000C00000016000000
310
080000C30C00000017000000FDFFFFFF540000002000000002000000000000000000E0BF00000000000000000000000000000000000000000000F0BF0000000000000000000000000000000000000000000000000000000000000000000000000000F03F080000001F0000000C00000016000000000000C00C000000120000
310
00FF7F00000C00000033000000000000000C00000013000000891300003C0000000600000002000000BC64C322ABEE9440D0FF7A710C3D6F40000000000000000058E084DB1CE79440B80B074C5AD46E4000000000000000000C00000013000000112700003C000000060000000200000058E084DB1CE79440B80B074C5AD4
310
6E40000000000000000058E084DB1CD79440B80B074C5AD46E4000000000000000000C00000016000000000000C00C00000012000000FF7F00000C00000017000000000000000C000000130000009A3A00000C00000016000000000000C00C00000012000000FF7F00000C00000017000000FFFFFFFF0C0000003300000000
310
000000
100
AcDbMLeader
270
     2
300
CONTEXT_DATA{
 40
1.0
 10
1319.64484781538
 20
246.6360225808728
 30
0.0
 41
2.0
140
0.5
145
2.0
174
     1
175
     1
176
     2
177
     0
290
     1
304
EPTゴム
 11
0.0
 21
0.0
 31
1.0
340
21C
 12
1331.778181148713
 22
247.6360225808727
 32
0.0
 13
1.0
 23
0.0
 33
0.0
 42
0.0
 43
0.0
 44
0.0
 45
1.0
170
     1
 90
-1073741824
171
     3
172
     5
 91
-1073741824
141
0.0
 92
        0
291
     0
292
     0
173
     0
293
     0
142
0.0
143
0.0
294
     0
295
     0
296
     0
110
1339.917124798797
120
242.3407816573451
130
0.0
111
1.0
121
0.0
131
0.0
112
0.0
122
1.0
132
0.0
297
     0
302
LEADER{
290
     1
291
     1
 10
1337.778181148713
 20
246.6360225808728
 30
0.0
 11
-1.0
 21
0.0
 31
0.0
 90
        0
 40
4.0
304
LEADER_LINE{
 10
1339.917124798797
 20
250.3407816573451
 30
0.0
 91
        0
305
}
271
     0
303
}
272
     9
273
     9
301
}
340
4A8E
 90
   279552
170
     1
 91
-1056964608
341
14
171
    -2
290
     1
291
     1
 41
4.0
342
1391C
 42
0.5
172
     2
343
21C
173
     1
 95
        1
174
     1
175
     2
 92
-1056964608
292
     0
 93
-1056964608
 10
1.0
 20
1.0
 30
1.0
 43
0.0
176
     0
293
     0
294
     0
178
     0
179
     3
 45
1.0
271
     0
272
     9
273
     9
295
     0
  0
MTEXT
  5
C013
330
1F
100
AcDbEntity
  8
製品名
100
AcDbMText
 10
1310.109445745891
 20
308.4613040190907
 30
0.0
 40
2.5
 41
14.10610007558625
 46
0.0
 71
     1
 72
     5
  1
MC-50S
  7
ｽﾀｲﾙ1
 73
     1
 44
1.0
101
Embedded Object
 70
     1
 10
1.0
 20
0.0
 30
0.0
 11
1310.109445745891
 21
308.4613040190907
 31
0.0
 40
14.10610007558625
 41
0.0
 42
13.75
 43
2.5
 71
     2
 72
     1
 44
14.10610007558625
 45
12.5
 73
     0
 74
     0
 46
0.0
  0
MTEXT
  5
C014
330
1F
100
AcDbEntity
  8
製品名
100
AcDbMText
 10
1440.535470328294
 20
308.4613040190907
 30
0.0
 40
2.5
 41
16.97537619883042
 46
0.0
 71
     1
 72
     5
  1
MC-55WS
  7
ｽﾀｲﾙ1
 73
     1
 44
1.0
101
Embedded Object
 70
     1
 10
1.0
 20
0.0
 30
0.0
 11
1440.535470328294
 21
308.4613040190907
 31
0.0
 40
16.97537619883042
 41
0.0
 42
17.5
 43
2.5
 71
     2
 72
     1
 44
16.97537619883042
 45
12.5
 73
     0
 74
     0
 46
0.0
  0
MTEXT
  5
C015
330
1F
100
AcDbEntity
  8
製品名
100
AcDbMText
 10
1370.194975170438
 20
308.7734963376608
 30
0.0
 40
2.5
 41
14.67995135094725
 46
0.0
 71
     1
 72
     5
  1
MC-55S
  7
ｽﾀｲﾙ1
 73
     1
 44
1.0
101
Embedded Object
 70
     1
 10
1.0
 20
0.0
 30
0.0
 11
1370.194975170438
 21
308.7734963376608
 31
0.0
 40
14.67995135094725
 41
0.0
 42
14.16666666666666
 43
2.5
 71
     2
 72
     1
 44
14.67995135094725
 45
12.5
 73
     0
 74
     0
 46
0.0
  0
DIMENSION
  5
C610
102
{ACAD_XDICTIONARY
360
C61D
102
}
102
{ACAD_REACTORS
330
C627
102
}
330
1F
100
AcDbEntity
  8
寸法線
100
AcDbDimension
280
     0
  2
*D11
 10
1390.695533724354
 20
289.3024732234048
 30
0.0
 11
1400.195533724354
 21
290.3924732234047
 31
0.0
 70
    32
 71
     5
 42
19.0
 73
     0
 74
     0
 75
     0
  3
style1
100
AcDbAlignedDimension
 13
1409.695533724354
 23
258.4393000893197
 33
0.0
 14
1390.695533724354
 24
284.5405561503526
 34
0.0
100
AcDbRotatedDimension
1001
ACAD
1000
DSTYLE
1002
{
1070
    40
1040
1.0
1002
}
  0
DIMENSION
  5
C628
330
1F
100
AcDbEntity
  8
寸法線
100
AcDbDimension
280
     0
  2
*D12
 10
1422.353672503214
 20
203.4393000893197
 30
0.0
 11
1421.263672503214
 21
244.4393000893199
 31
0.0
 70
    32
 71
     5
 42
81.99999999999997
 73
     0
 74
     0
 75
     0
  3
style1
100
AcDbAlignedDimension
 13
1388.75059882891
 23
285.4393000893196
 33
0.0
 14
1411.695533724354
 24
203.4393000893197
 34
0.0
 50
90.0
100
AcDbRotatedDimension
1001
ACAD
1000
DSTYLE
1002
{
1070
    40
1040
1.0
1002
}
  0
DIMENSION
  5
C711
330
1F
100
AcDbEntity
  8
寸法線
100
AcDbDimension
280
     0
  2
*D13
 10
1522.850511655305
 20
284.5405561503522
 30
0.0
 11
1521.760511655306
 21
243.5405561503525
 31
0.0
 70
    32
 71
     5
 42
82.0
 73
     0
 74
     0
 75
     0
  3
style1
100
AcDbAlignedDimension
 13
1508.479310834255
 23
202.5405561503522
 33
0.0
 14
1461.070725301155
 24
284.5405561503522
 34
0.0
 50
90.0
100
AcDbRotatedDimension
1001
ACAD
1000
DSTYLE
1002
{
1070
    40
1040
1.0
1002
}
  0
LWPOLYLINE
  5
F1AC
330
1F
100
AcDbEntity
  8
枠
100
AcDbPolyline
 90
        4
 70
     1
 43
0.0
 10
1309.036248705802
 20
188.0415463062093
 10
1537.363959762059
 20
188.0415463062093
 10
1537.363959762059
 20
180.9832346742648
 10
1309.036248705802
 20
180.9832346742648
  0
LINE
  5
F1AE
330
1F
100
AcDbEntity
  8
枠
100
AcDbLine
 10
1516.035224410496
 20
188.0415463062093
 30
0.0
 11
1516.035224410496
 21
180.9832346742648
 31
0.0
  0
LINE
  5
F1AF
330
1F
100
AcDbEntity
  8
枠
100
AcDbLine
 10
1516.035224410496
 20
185.6888905987439
 30
0.0
 11
1537.363959762059
 21
185.6888905987439
 31
0.0
  0
LINE
  5
F1B0
330
1F
100
AcDbEntity
  8
枠
100
AcDbLine
 10
1516.035224410496
 20
183.33589038173
 30
0.0
 11
1537.363959762059
 21
183.33589038173
 31
0.0
  0
LINE
  5
F1B1
330
1F
100
AcDbEntity
  8
枠
100
AcDbLine
 10
1309.036248705802
 20
182.7478125822509
 30
0.0
 11
1486.260980872385
 21
182.7478125822509
 31
0.0
  0
LINE
  5
F1B2
330
1F
100
AcDbEntity
  8
枠
100
AcDbLine
 10
1486.260980872385
 20
184.512390490237
 30
0.0
 11
1309.036248705802
 21
184.512390490237
 31
0.0
  0
LINE
  5
F1B3
330
1F
100
AcDbEntity
  8
枠
100
AcDbLine
 10
1309.036248705802
 20
186.2769683982232
 30
0.0
 11
1486.260980872385
 21
186.2769683982232
 31
0.0
  0
MTEXT
  5
F1B5
330
1F
100
AcDbEntity
  8
文字
100
AcDbMText
 10
1517.022191074637
 20
187.5867075161238
 30
0.0
 40
1.5
 41
16.05173193099836
 46
0.0
 71
     1
 72
     5
  1
アルミ製雨仕舞金物
  7
スタイル2
 73
     1
 44
1.0
101
Embedded Object
 70
     1
 10
1.0
 20
0.0
 30
0.0
 11
1517.022191074637
 21
187.5867075161238
 31
0.0
 40
16.05173193099836
 41
0.0
 42
15.6
 43
1.500000000000001
 71
     2
 72
     1
 44
16.05173193099836
 45
7.5
 73
     0
 74
     0
 46
0.0
  0
MTEXT
  5
F1B7
330
1F
100
AcDbEntity
  8
文字
100
AcDbMText
 10
1517.022191074637
 20
185.2073264845653
 30
0.0
 40
1.5
 41
18.42671089339365
 46
0.0
 71
     1
 72
     5
  1
壁用（EPTゴム付）
  7
スタイル2
 73
     1
 44
1.0
101
Embedded Object
 70
     1
 10
1.0
 20
0.0
 30
0.0
 11
1517.022191074637
 21
185.2073264845653
 31
0.0
 40
18.42671089339365
 41
0.0
 42
15.8
 43
1.5
 71
     2
 72
     1
 44
18.42671089339365
 45
7.5
 73
     0
 74
     0
 46
0.0
  0
LINE
  5
1129A
330
1F
100
AcDbEntity
  8
枠
100
AcDbLine
 10
1309.036248705802
 20
305.8389179186279
 30
0.0
 11
1537.363959762059
 21
305.8389179186279
 31
0.0
  0
LINE
  5
125F9
330
1F
100
AcDbEntity
  8
枠
100
AcDbLine
 10
1486.260980872385
 20
188.0415463062093
 30
0.0
 11
1486.260980872385
 21
180.9832346742648
 31
0.0
  0
LINE
  5
12FAA
102
{ACAD_REACTORS
330
144A8
102
}
330
1F
100
AcDbEntity
  8
EPTゴム
 48
1.5
100
AcDbLine
 10
1337.448782455455
 20
234.5759187906896
 30
0.0
 11
1340.448782455455
 21
234.5759187906896
 31
0.0
  0
LINE
  5
12FAB
102
{ACAD_REACTORS
330
144A8
102
}
330
1F
100
AcDbEntity
  8
EPTゴム
 48
1.5
100
AcDbLine
 10
1340.448782455455
 20
234.5759187906896
 30
0.0
 11
1340.448782455455
 21
246.5759187906896
 31
0.0
  0
LINE
  5
12FAC
102
{ACAD_REACTORS
330
144A8
102
}
330
1F
100
AcDbEntity
  8
EPTゴム
 48
1.5
100
AcDbLine
 10
1340.448782455455
 20
246.5759187906896
 30
0.0
 11
1342.239766802286
 21
246.5759187906896
 31
0.0
  0
LINE
  5
12FC9
102
{ACAD_REACTORS
330
14497
102
}
330
1F
100
AcDbEntity
  8
EPTゴム
 48
1.5
100
AcDbLine
 10
1342.348782455454
 20
273.1067470350073
 30
0.0
 11
1342.348782455454
 21
275.682137081218
 31
0.0
  0
ARC
  5
12FCA
102
{ACAD_REACTORS
330
14497
102
}
330
1F
100
AcDbEntity
  8
EPTゴム
 48
1.5
100
AcDbCircle
 10
1341.343910059156
 20
275.5641557854632
 30
0.0
 40
1.011774737276247
100
AcDbArc
 50
6.696395959678707
 51
89.72408006170544
  0
LINE
  5
12FCB
102
{ACAD_REACTORS
330
14497
102
}
330
1F
100
AcDbEntity
  8
EPTゴム
 48
1.5
100
AcDbLine
 10
1341.348782455408
 20
276.5759187906899
 30
0.0
 11
1341.348782455455
 21
274.5696302596854
 31
0.0
  0
LINE
  5
12FCC
102
{ACAD_REACTORS
330
14497
102
}
330
1F
100
AcDbEntity
  8
EPTゴム
 48
1.5
100
AcDbLine
 10
1341.348782455455
 20
274.5696302596854
 30
0.0
 11
1339.148782455455
 21
274.5696302596854
 31
0.0
  0
LINE
  5
12FCD
102
{ACAD_REACTORS
330
14497
102
}
330
1F
100
AcDbEntity
  8
EPTゴム
 48
1.5
100
AcDbLine
 10
1339.148782455455
 20
274.5696302596854
 30
0.0
 11
1339.158598480917
 21
285.0759187906898
 31
0.0
  0
LINE
  5
130CF
102
{ACAD_REACTORS
330
14617
102
}
330
1F
100
AcDbEntity
  8
EPTゴム
 48
1.5
100
AcDbLine
 10
1384.250598828909
 20
285.4749574312888
 30
0.0
 11
1384.250598828909
 21
281.4589405323314
 31
0.0
  0
LINE
  5
130D0
102
{ACAD_REACTORS
330
14617
102
}
330
1F
100
AcDbEntity
  8
EPTゴム
 48
1.5
100
AcDbLine
 10
1384.250598828909
 20
281.4589405323314
 30
0.0
 11
1386.750598828909
 21
281.4589405323313
 31
0.0
  0
LINE
  5
130D1
102
{ACAD_REACTORS
330
14617
102
}
330
1F
100
AcDbEntity
  8
EPTゴム
 48
1.5
100
AcDbLine
 10
1386.750598828909
 20
281.4589405323313
 30
0.0
 11
1386.750598828909
 21
282.9589405323313
 31
0.0
  0
LINE
  5
130D2
102
{ACAD_REACTORS
330
14617
102
}
330
1F
100
AcDbEntity
  8
EPTゴム
 48
1.5
100
AcDbLine
 10
1386.750598828909
 20
282.9589405323313
 30
0.0
 11
1388.25059882891
 21
281.4589405323313
 31
0.0
  0
LINE
  5
130D3
102
{ACAD_REACTORS
330
14617
102
}
330
1F
100
AcDbEntity
  8
EPTゴム
 48
1.5
100
AcDbLine
 10
1388.25059882891
 20
281.4589405323313
 30
0.0
 11
1388.25059882891
 21
271.6912847107983
 31
0.0
  0
LINE
  5
130D4
102
{ACAD_REACTORS
330
14617
102
}
330
1F
100
AcDbEntity
  8
EPTゴム
 48
1.5
100
AcDbLine
 10
1388.25059882891
 20
271.6912847107983
 30
0.0
 11
1386.750598828909
 21
270.1912847107982
 31
0.0
  0
LINE
  5
130D5
102
{ACAD_REACTORS
330
14617
102
}
330
1F
100
AcDbEntity
  8
EPTゴム
 48
1.5
100
AcDbLine
 10
1386.750598828909
 20
270.1912847107982
 30
0.0
 11
1386.750598828909
 21
271.6912847107983
 31
0.0
  0
LINE
  5
130D6
102
{ACAD_REACTORS
330
14617
102
}
330
1F
100
AcDbEntity
  8
EPTゴム
 48
1.5
100
AcDbLine
 10
1386.750598828909
 20
271.6912847107983
 30
0.0
 11
1384.250598828909
 21
271.6912847107983
 31
0.0
  0
LINE
  5
130D7
102
{ACAD_REACTORS
330
14617
102
}
330
1F
100
AcDbEntity
  8
EPTゴム
 48
1.5
100
AcDbLine
 10
1384.250598828909
 20
271.6912847107983
 30
0.0
 11
1384.250598828909
 21
263.9912847107983
 31
0.0
  0
LINE
  5
130D8
102
{ACAD_REACTORS
330
14617
102
}
330
1F
100
AcDbEntity
  8
EPTゴム
 48
1.5
100
AcDbLine
 10
1384.250598828909
 20
263.9912847107983
 30
0.0
 11
1380.020151450609
 21
263.9912847107961
 31
0.0
  0
ARC
  5
130D9
102
{ACAD_REACTORS
330
14617
102
}
330
1F
100
AcDbEntity
  8
EPTゴム
 48
1.5
100
AcDbCircle
 10
1349.536810008681
 20
275.8198913493923
 30
0.0
 40
32.69785987608123
100
AcDbArc
 50
338.7919986362312
 51
24.07603984851946
  0
LINE
  5
13165
102
{ACAD_REACTORS
330
14635
102
}
330
1F
100
AcDbEntity
  8
EPTゴム
 48
1.5
100
AcDbLine
 10
1451.537909066756
 20
288.3244953685434
 30
0.0
 11
1459.037909066756
 21
286.0475854287732
 31
0.0
  0
LINE
  5
13166
102
{ACAD_REACTORS
330
14635
102
}
330
1F
100
AcDbEntity
  8
EPTゴム
 48
1.5
100
AcDbLine
 10
1459.037909066756
 20
286.0475854287732
 30
0.0
 11
1459.037909066756
 21
284.5475854287732
 31
0.0
  0
LINE
  5
13167
102
{ACAD_REACTORS
330
14635
102
}
330
1F
100
AcDbEntity
  8
EPTゴム
 48
1.5
100
AcDbLine
 10
1459.037909066756
 20
284.5475854287732
 30
0.0
 11
1456.537909066756
 21
284.5475854287732
 31
0.0
  0
LINE
  5
13168
102
{ACAD_REACTORS
330
14635
102
}
330
1F
100
AcDbEntity
  8
EPTゴム
 48
1.5
100
AcDbLine
 10
1456.537909066756
 20
284.5475854287732
 30
0.0
 11
1456.537909066756
 21
280.5475854287733
 31
0.0
  0
LINE
  5
13169
102
{ACAD_REACTORS
330
14635
102
}
330
1F
100
AcDbEntity
  8
EPTゴム
 48
1.5
100
AcDbLine
 10
1456.537909066756
 20
280.5475854287733
 30
0.0
 11
1459.037909066756
 21
280.5475854287733
 31
0.0
  0
LINE
  5
1316A
102
{ACAD_REACTORS
330
14635
102
}
330
1F
100
AcDbEntity
  8
EPTゴム
 48
1.5
100
AcDbLine
 10
1459.037909066756
 20
280.5475854287733
 30
0.0
 11
1459.037909066756
 21
282.0475854287732
 31
0.0
  0
LINE
  5
1316B
102
{ACAD_REACTORS
330
14635
102
}
330
1F
100
AcDbEntity
  8
EPTゴム
 48
1.5
100
AcDbLine
 10
1459.037909066756
 20
282.0475854287732
 30
0.0
 11
1460.537909066755
 21
280.5475854287733
 31
0.0
  0
LINE
  5
1316C
330
1F
100
AcDbEntity
  8
EPTゴム
  6
DASHED
 48
1.5
100
AcDbLine
 10
1460.537909066755
 20
280.5475854287733
 30
0.0
 11
1460.537909066755
 21
270.8869845960732
 31
0.0
  0
LINE
  5
1316D
102
{ACAD_REACTORS
330
14635
102
}
330
1F
100
AcDbEntity
  8
EPTゴム
 48
1.5
100
AcDbLine
 10
1460.537909066755
 20
270.8869845960732
 30
0.0
 11
1459.037909066756
 21
269.3869845960731
 31
0.0
  0
LINE
  5
1316E
102
{ACAD_REACTORS
330
14635
102
}
330
1F
100
AcDbEntity
  8
EPTゴム
 48
1.5
100
AcDbLine
 10
1459.037909066756
 20
269.3869845960731
 30
0.0
 11
1459.037909066756
 21
270.8869845960732
 31
0.0
  0
LINE
  5
1316F
102
{ACAD_REACTORS
330
14635
102
}
330
1F
100
AcDbEntity
  8
EPTゴム
 48
1.5
100
AcDbLine
 10
1459.037909066756
 20
270.8869845960732
 30
0.0
 11
1456.537909066756
 21
270.8869845960732
 31
0.0
  0
LINE
  5
13170
102
{ACAD_REACTORS
330
14635
102
}
330
1F
100
AcDbEntity
  8
EPTゴム
 48
1.5
100
AcDbLine
 10
1456.537909066756
 20
270.8869845960732
 30
0.0
 11
1456.537909066756
 21
263.1869845960732
 31
0.0
  0
LINE
  5
13171
102
{ACAD_REACTORS
330
14635
102
}
330
1F
100
AcDbEntity
  8
EPTゴム
  6
DASHED
 48
1.5
100
AcDbLine
 10
1456.537909066756
 20
263.1869845960732
 30
0.0
 11
1452.307461688456
 21
263.1869845960722
 31
0.0
  0
ARC
  5
13172
102
{ACAD_REACTORS
330
14635
102
}
330
1F
100
AcDbEntity
  8
EPTゴム
 48
1.5
100
AcDbCircle
 10
1422.715874804133
 20
274.8616109712157
 30
0.0
 40
31.81130169187685
100
AcDbArc
 50
338.4695168918526
 51
25.03746127349859
  0
DIMENSION
  5
1371B
330
1F
100
AcDbEntity
  8
寸法線
 48
1.5
100
AcDbDimension
280
     0
  2
*D14
 10
1358.043881267615
 20
284.5927460157207
 30
0.0
 11
1356.953881267615
 21
259.5949389912235
 31
0.0
 70
    32
 71
     5
 42
49.99561404899487
 73
     0
 74
     0
 75
     0
  3
style1
100
AcDbAlignedDimension
 13
1345.560710283944
 23
234.5971319667258
 33
0.0
 14
1345.731945208121
 24
284.5927460157207
 34
0.0
 50
90.0
100
AcDbRotatedDimension
1001
ACAD
1000
DSTYLE
1002
{
1070
    40
1040
1.0
1002
}
  0
MTEXT
  5
13878
330
1F
100
AcDbEntity
  8
文字
100
AcDbMText
 10
1517.022191074637
 20
182.7207515520438
 30
0.0
 40
1.5
 41
10.67180796196317
 46
0.0
 71
     1
 72
     5
  1
2019年2月
  7
スタイル2
 73
     1
 44
1.0
101
Embedded Object
 70
     1
 10
1.0
 20
0.0
 30
0.0
 11
1517.022191074637
 21
182.7207515520438
 31
0.0
 40
10.67180796196317
 41
0.0
 42
9.75
 43
1.5
 71
     2
 72
     1
 44
10.67180796196317
 45
7.5
 73
     0
 74
     0
 46
0.0
  0
MTEXT
  5
13906
330
1F
100
AcDbEntity
  8
文字
 48
1.5
100
AcDbMText
 10
1489.351300293126
 20
185.7384674279861
 30
0.0
 40
2.5
 41
23.58508791190297
 46
0.0
 71
     1
 72
     5
  1
日新工業株式会社
  7
社名
 73
     1
 44
1.0
101
Embedded Object
 70
     1
 10
1.0
 20
0.0
 30
0.0
 11
1489.351300293126
 21
185.7384674279861
 31
0.0
 40
23.58508791190297
 41
0.0
 42
23.0
 43
2.500000000000001
 71
     2
 72
     1
 44
23.58508791190297
 45
12.5
 73
     0
 74
     0
 46
0.0
  0
ARC
  5
1421E
330
1F
100
AcDbEntity
  8
ジョイント
  6
DASHED
 48
1.5
100
AcDbCircle
 10
1459.837909066755
 20
260.6668566830018
 30
0.0
 40
1.0
100
AcDbArc
 50
179.9999999999979
 51
263.4811055564155
  0
LINE
  5
143A2
102
{ACAD_REACTORS
330
143C0
102
}
330
1F
100
AcDbEntity
  8
金物
100
AcDbLine
 10
1342.560710283944
 20
240.5857972741689
 30
0.0
 11
1342.560710283944
 21
235.2287595866072
 31
0.0
  0
LINE
  5
143A3
330
1F
100
AcDbEntity
  8
金物
100
AcDbLine
 10
1345.560710283944
 20
276.1497797816138
 30
0.0
 11
1345.560710283943
 21
259.689028170805
 31
0.0
  0
ARC
  5
143A8
102
{ACAD_REACTORS
330
143C0
102
}
330
1F
100
AcDbEntity
  8
金物
 48
1.5
100
AcDbCircle
 10
1341.819509939128
 20
235.3478364732272
 30
0.0
 40
0.7507045065013417
100
AcDbArc
 50
189.1268158163974
 51
350.8731841836074
  0
DIMENSION
  5
143A9
102
{ACAD_XDICTIONARY
360
143B6
102
}
102
{ACAD_REACTORS
330
143C0
102
}
330
1F
100
AcDbEntity
  8
寸法線
 48
1.5
100
AcDbDimension
280
     0
  2
*D16
 10
1345.560710283944
 20
228.7223705738637
 30
0.0
 11
1344.060710283944
 21
229.8123705738637
 31
0.0
 70
    32
 71
     5
 42
2.999999999999771
 73
     0
 74
     0
 75
     0
  3
style1
100
AcDbAlignedDimension
 13
1342.560710283944
 23
235.2287595866094
 33
0.0
 14
1345.560710283944
 24
242.8690144778167
 34
0.0
100
AcDbRotatedDimension
1001
ACAD
1000
DSTYLE
1002
{
1070
    40
1040
1.0
1002
}
  0
DIMENSION
  5
14407
102
{ACAD_XDICTIONARY
360
14414
102
}
102
{ACAD_REACTORS
330
1441E
102
}
330
1F
100
AcDbEntity
  8
寸法線
 48
1.5
100
AcDbDimension
280
     0
  2
*D17
 10
1409.695533724353
 20
253.6089109661962
 30
0.0
 11
1397.195533724354
 21
254.6989109661962
 31
0.0
 70
    32
 71
     5
 42
24.99999999999977
 73
     0
 74
     0
 75
     0
  3
style1
100
AcDbAlignedDimension
 13
1384.695533724354
 23
264.9312700522198
 33
0.0
 14
1409.695533724353
 24
258.4393000893197
 34
0.0
100
AcDbRotatedDimension
1001
ACAD
1000
DSTYLE
1002
{
1070
    40
1040
1.0
1002
}
  0
LINE
  5
14442
102
{ACAD_REACTORS
330
14497
330
144A8
102
}
330
1F
100
AcDbEntity
  8
EPTゴム
 48
1.5
100
AcDbLine
 10
1338.948782455455
 20
272.6007077754687
 30
0.0
 11
1338.948782455455
 21
236.0759187906896
 31
0.0
  0
ARC
  5
14446
102
{ACAD_REACTORS
330
14497
330
144A8
102
}
330
1F
100
AcDbEntity
  8
EPTゴム
 48
1.5
100
AcDbCircle
 10
1420.81487992639
 20
259.5186903253311
 30
0.0
 40
79.63393584059318
100
AcDbArc
 50
170.1754630660665
 51
189.353680795033
  0
LINE
  5
14447
102
{ACAD_REACTORS
330
144A8
102
}
330
1F
100
AcDbEntity
  8
EPTゴム
 48
1.5
100
AcDbLine
 10
1337.448782455455
 20
234.5759187906896
 30
0.0
 11
1338.948782455455
 21
236.0759187906896
 31
0.0
  0
LINE
  5
14448
102
{ACAD_REACTORS
330
14497
102
}
330
1F
100
AcDbEntity
  8
EPTゴム
 48
1.5
100
AcDbLine
 10
1338.948782455455
 20
272.6007077754687
 30
0.0
 11
1334.948782455455
 21
272.6007077754687
 31
0.0
  0
LINE
  5
14449
102
{ACAD_REACTORS
330
14497
102
}
330
1F
100
AcDbEntity
  8
EPTゴム
 48
1.5
100
AcDbLine
 10
1334.948782455455
 20
272.6007077754687
 30
0.0
 11
1335.948782455455
 21
274.6007077754687
 31
0.0
  0
LINE
  5
1444A
102
{ACAD_REACTORS
330
14497
102
}
330
1F
100
AcDbEntity
  8
EPTゴム
 48
1.5
100
AcDbLine
 10
1335.964740469332
 20
288.582255963216
 30
0.0
 11
1335.948782455455
 21
274.6007077754687
 31
0.0
  0
LINE
  5
1444B
102
{ACAD_REACTORS
330
14497
102
}
330
1F
100
AcDbEntity
  8
EPTゴム
 48
1.5
100
AcDbLine
 10
1333.956709972401
 20
291.5937485700106
 30
0.0
 11
1335.964740469332
 21
288.582255963216
 31
0.0
  0
ARC
  5
1444C
102
{ACAD_REACTORS
330
14497
102
}
330
1F
100
AcDbEntity
  8
EPTゴム
 48
1.5
100
AcDbCircle
 10
1332.885042263623
 20
282.6848165844572
 30
0.0
 40
8.973156679856488
100
AcDbArc
 50
9.829526061581301
 51
83.14076939324037
  0
LINE
  5
1444D
102
{ACAD_REACTORS
330
14497
102
}
330
1F
100
AcDbEntity
  8
EPTゴム
 48
1.5
100
AcDbLine
 10
1340.658598480917
 20
285.0759187906898
 30
0.0
 11
1341.726473488824
 21
284.2166895202141
 31
0.0
  0
LINE
  5
1444E
102
{ACAD_REACTORS
330
14497
102
}
330
1F
100
AcDbEntity
  8
EPTゴム
 48
1.5
100
AcDbLine
 10
1339.158598480917
 20
285.0759187906898
 30
0.0
 11
1340.658598480917
 21
285.0759187906898
 31
0.0
  0
LINE
  5
1444F
330
1F
100
AcDbEntity
  8
金物
 48
1.5
100
AcDbLine
 10
1340.858291490405
 20
278.9133008703474
 30
0.0
 11
1340.858291490405
 21
283.3570409993138
 31
0.0
  0
LINE
  5
14450
330
1F
100
AcDbEntity
  8
金物
 48
1.5
100
AcDbLine
 10
1341.160157672507
 20
278.4542333478571
 30
0.0
 11
1345.19969177379
 21
276.7001322573153
 31
0.0
  0
LINE
  5
14451
330
1F
100
AcDbEntity
  8
金物
 48
1.5
100
AcDbLine
 10
1340.858291490405
 20
283.3570409993138
 30
0.0
 11
1345.567466422462
 21
282.612653142608
 31
0.0
  0
LINE
  5
14453
330
1F
100
AcDbEntity
  8
金物
 48
1.5
100
AcDbLine
 10
1345.583508146119
 20
282.6135565550949
 30
0.0
 11
1345.583508146119
 21
283.5600742543735
 31
0.0
  0
LINE
  5
14454
330
1F
100
AcDbEntity
  8
金物
 48
1.5
100
AcDbLine
 10
1345.583508146119
 20
283.5600742543735
 30
0.0
 11
1339.824043128502
 21
284.5405561503521
 31
0.0
  0
LINE
  5
14455
330
1F
100
AcDbEntity
  8
金物
 48
1.5
100
AcDbLine
 10
1339.590478354216
 20
284.3433927512966
 30
0.0
 11
1339.590478354216
 21
275.1280576580173
 31
0.0
  0
ARC
  5
14456
330
1F
100
AcDbEntity
  8
金物
 48
1.5
100
AcDbCircle
 10
1340.076504527927
 20
275.0886434170758
 30
0.0
 40
0.4876217016509333
100
AcDbArc
 50
175.3637503322933
 51
3.028759626253652
  0
ARC
  5
14459
330
1F
100
AcDbEntity
  8
金物
100
AcDbCircle
 10
1340.863445089796
 20
276.6170346627888
 30
0.0
 40
0.3
100
AcDbArc
 50
66.92230165693472
 51
180.0
  0
ARC
  5
1445F
330
1F
100
AcDbEntity
  8
金物
100
AcDbCircle
 10
1344.960710283944
 20
276.1497797816138
 30
0.0
 40
0.6
100
AcDbArc
 50
0.0
 51
66.52789869233244
  0
LINE
  5
14460
330
1F
100
AcDbEntity
  8
金物
100
AcDbLine
 10
1345.560710283943
 20
259.0890281708054
 30
0.0
 11
1345.560710283944
 21
242.9222833103343
 31
0.0
  0
ARC
  5
14461
330
1F
100
AcDbEntity
  8
金物
100
AcDbCircle
 10
1344.960710283944
 20
242.9222833103343
 30
0.0
 40
0.6
100
AcDbArc
 50
303.9125858657673
 51
0.0000000000008015
  0
HATCH
  5
14497
330
1F
100
AcDbEntity
  8
ハッチング
 48
1.5
100
AcDbHatch
 10
0.0
 20
0.0
 30
0.0
210
0.0
220
0.0
230
1.0
  2
ANSI31
 70
     0
 71
     1
 91
        1
 92
        7
 72
     1
 73
     1
 93
       15
 10
1339.158598480917
 20
285.0759187906898
 42
0.0
 10
1340.658598480917
 20
285.0759187906898
 42
0.0
 10
1341.726473488824
 20
284.2166895202141
 42
0.3312569465996177
 10
1333.956709972401
 20
291.5937485700106
 42
0.0
 10
1335.964740469332
 20
288.582255963216
 42
0.0
 10
1335.948782455455
 20
274.6007077754687
 42
0.0
 10
1334.948782455455
 20
272.6007077754687
 42
0.0
 10
1338.948782455455
 20
272.6007077754687
 42
0.0
 10
1338.948782455455
 20
259.3471255710607
 42
0.0
 10
1341.181128897076
 20
259.3471255710607
 42
-0.043433515205036
 10
1342.348782455454
 20
273.1067470350073
 42
0.0
 10
1342.348782455454
 20
275.682137081218
 42
0.379004248525806
 10
1341.348782455408
 20
276.5759187906899
 42
0.0
 10
1341.348782455455
 20
274.5696302596854
 42
0.0
 10
1339.148782455455
 20
274.5696302596854
 42
0.0
 97
       15
330
1444E
330
1444D
330
1444C
330
1444B
330
1444A
330
14449
330
14448
330
14442
330
BCAA
330
14446
330
12FC9
330
12FCA
330
12FCB
330
12FCC
330
12FCD
 75
     1
 76
     1
 52
0.0
 41
0.5
 77
     0
 78
     1
 53
45.0
 43
0.0
 44
0.0
 45
-1.122532015133643
 46
1.122532015133643
 79
     0
 47
0.1986553185918787
 98
        1
 10
1337.350870994931
 20
281.9836170967857
1001
GradientColor1ACI
1070
     5
1001
GradientColor2ACI
1070
     2
1001
ACAD
1010
0.0
1020
0.0
1030
0.0
  0
HATCH
  5
144A8
330
1F
100
AcDbEntity
  8
ハッチング
 48
1.5
100
AcDbHatch
 10
0.0
 20
0.0
 30
0.0
210
0.0
220
0.0
230
1.0
  2
ANSI31
 70
     0
 71
     1
 91
        2
 92
        7
 72
     1
 73
     1
 93
        7
 10
1341.181128897076
 20
259.3471255710607
 42
0.0
 10
1338.948782455455
 20
259.3471255710607
 42
0.0
 10
1338.948782455455
 20
236.0759187906896
 42
0.0
 10
1337.448782455455
 20
234.5759187906896
 42
0.0
 10
1340.448782455455
 20
234.5759187906896
 42
0.0
 10
1340.448782455455
 20
246.5759187906896
 42
0.0
 10
1342.239766802286
 20
246.5759187906896
 42
-0.0402963166781698
 97
        7
330
BCAA
330
14442
330
14447
330
12FAA
330
12FAB
330
12FAC
330
14446
 92
       22
 72
     1
 73
     1
 93
        2
 10
1339.979624798797
 20
250.4490348328181
 42
-1.0
 10
1339.854624798797
 20
250.232528481872
 42
-1.0
 97
        1
330
BCE4
 75
     1
 76
     1
 52
0.0
 41
0.5
 77
     0
 78
     1
 53
45.0
 43
0.0
 44
0.0
 45
-1.122532015133643
 46
1.122532015133643
 79
     0
 47
0.1986553185918787
 98
        2
 10
1339.936710138162
 20
253.7745617102816
 10
1339.936710138162
 20
253.7745617102816
1001
GradientColor1ACI
1070
     5
1001
GradientColor2ACI
1070
     2
1001
ACAD
1010
0.0
1020
0.0
1030
0.0
  0
LINE
  5
144F8
330
1F
100
AcDbEntity
  8
金物
 48
1.5
100
AcDbLine
 10
1389.654131956854
 20
263.4393000893197
 30
0.0
 11
1389.654131956854
 21
275.027810734954
 31
0.0
  0
LINE
  5
144F9
330
1F
100
AcDbEntity
  8
金物
 48
1.5
100
AcDbLine
 10
1389.654131956854
 20
275.6278107349539
 30
0.0
 11
1389.654131956854
 21
283.5405561503529
 31
0.0
  0
LINE
  5
144FA
330
1F
100
AcDbEntity
  8
金物
 48
1.5
100
AcDbLine
 10
1390.695533724354
 20
284.5405561503526
 30
0.0
 11
1390.695533724354
 21
283.5405561503529
 31
0.0
  0
LINE
  5
144FB
330
1F
100
AcDbEntity
  8
金物
 48
1.5
100
AcDbLine
 10
1389.654131956854
 20
283.5405561503529
 30
0.0
 11
1390.695533724354
 21
283.5405561503529
 31
0.0
  0
LINE
  5
144FC
102
{ACAD_REACTORS
330
14617
102
}
330
1F
100
AcDbEntity
  8
EPTゴム
 48
1.5
100
AcDbLine
 10
1386.750598828909
 20
285.4749574312888
 30
0.0
 11
1384.250598828909
 21
285.4749574312888
 31
0.0
  0
LINE
  5
144FD
102
{ACAD_REACTORS
330
14617
102
}
330
1F
100
AcDbEntity
  8
EPTゴム
 48
1.5
100
AcDbLine
 10
1386.750598828909
 20
285.4749574312888
 30
0.0
 11
1386.750598828909
 21
286.9589405323313
 31
0.0
  0
LINE
  5
144FE
102
{ACAD_REACTORS
330
14617
102
}
330
1F
100
AcDbEntity
  8
EPTゴム
 48
1.5
100
AcDbLine
 10
1386.750598828909
 20
286.9589405323313
 30
0.0
 11
1379.390114806826
 21
289.1589405323313
 31
0.0
  0
LINE
  5
144FF
330
1F
100
AcDbEntity
  8
金物
 48
1.5
100
AcDbLine
 10
1388.254131956854
 20
283.5405561503529
 30
0.0
 11
1386.095533724354
 21
283.5405561503529
 31
0.0
  0
LINE
  5
14500
330
1F
100
AcDbEntity
  8
金物
 48
1.5
100
AcDbLine
 10
1386.095533724354
 20
283.5405561503529
 30
0.0
 11
1386.095533724354
 21
282.2405561503528
 31
0.0
  0
LINE
  5
1450A
330
1F
100
AcDbEntity
  8
金物
 48
1.5
100
AcDbLine
 10
1384.695533724354
 20
284.9527471712193
 30
0.0
 11
1384.695533724354
 21
282.2405561503528
 31
0.0
  0
LINE
  5
1450B
330
1F
100
AcDbEntity
  8
金物
 48
1.5
100
AcDbLine
 10
1385.277947653099
 20
285.4459083460383
 30
0.0
 11
1390.695533724354
 21
284.5405561503526
 31
0.0
  0
ARC
  5
1450D
330
1F
100
AcDbEntity
  8
金物
 48
1.5
100
AcDbCircle
 10
1385.195533724354
 20
284.9527471712193
 30
0.0
 40
0.5
100
AcDbArc
 50
80.51276549055256
 51
180.0
  0
LINE
  5
14518
330
1F
100
AcDbEntity
  8
金物
 48
1.5
100
AcDbLine
 10
1408.483098159056
 20
257.2662610839562
 30
0.0
 11
1388.254131956854
 21
262.3686145703197
 31
0.0
  0
LINE
  5
1452F
330
1F
100
AcDbEntity
  8
金物
 48
1.5
100
AcDbLine
 10
1404.695533724354
 20
203.9393000893197
 30
0.0
 11
1404.695533724354
 21
207.8556418097329
 31
0.0
  0
LINE
  5
14532
330
1F
100
AcDbEntity
  8
金物
 48
1.5
100
AcDbLine
 10
1406.091512270376
 20
204.8040584769893
 30
0.0
 11
1406.091512270376
 21
207.8556418097329
 31
0.0
  0
LINE
  5
14533
330
1F
100
AcDbEntity
  8
ジョイント
 48
1.5
100
AcDbLine
 10
1407.983117194643
 20
204.8040584769893
 30
0.0
 11
1407.983117194643
 21
256.1285067938019
 31
0.0
  0
LINE
  5
14534
330
1F
100
AcDbEntity
  8
ジョイント
 48
1.5
100
AcDbLine
 10
1406.787305214716
 20
204.8040584769893
 30
0.0
 11
1406.787305214716
 21
255.5855308685087
 31
0.0
  0
LINE
  5
14535
330
1F
100
AcDbEntity
  8
ジョイント
 48
1.5
100
AcDbLine
 10
1388.132079910212
 20
261.9048624892721
 30
0.0
 11
1407.227221287926
 21
257.0982558291933
 31
0.0
  0
LINE
  5
14536
330
1F
100
AcDbEntity
  8
ジョイント
 48
1.5
100
AcDbLine
 10
1387.304806843751
 20
260.9889864082306
 30
0.0
 11
1406.411967771268
 21
256.0697407888883
 31
0.0
  0
ARC
  5
14539
330
1F
100
AcDbEntity
  8
ジョイント
 48
1.5
100
AcDbCircle
 10
1406.287305214716
 20
255.5855308685087
 30
0.0
 40
0.5
100
AcDbArc
 50
0.0
 51
75.56242053938236
  0
ARC
  5
1453B
330
1F
100
AcDbEntity
  8
ジョイント
 48
1.5
100
AcDbCircle
 10
1406.983117194643
 20
256.1285067938019
 30
0.0
 40
1.0
100
AcDbArc
 50
0.0
 51
75.87110538163106
  0
ARC
  5
1453C
330
1F
100
AcDbEntity
  8
ジョイント
 48
1.5
100
AcDbCircle
 10
1387.554131956854
 20
261.9574062489899
 30
0.0
 40
1.0
100
AcDbArc
 50
180.0
 51
255.5624205393824
  0
ARC
  5
1453D
330
1F
100
AcDbEntity
  8
ジョイント
 48
1.5
100
AcDbCircle
 10
1388.254131956854
 20
262.3897370069678
 30
0.0
 40
0.5
100
AcDbArc
 50
180.0
 51
255.871105381631
  0
LINE
  5
1453E
330
1F
100
AcDbEntity
  8
ジョイント
 48
1.5
100
AcDbLine
 10
1386.554131956854
 20
261.9574062489899
 30
0.0
 11
1386.554131956854
 21
267.4395669954197
 31
0.0
  0
LINE
  5
1453F
330
1F
100
AcDbEntity
  8
ジョイント
 48
1.5
100
AcDbLine
 10
1387.754131956854
 20
262.3897370069678
 30
0.0
 11
1387.754131956854
 21
267.4395669954197
 31
0.0
  0
LINE
  5
1457D
330
1F
100
AcDbEntity
  8
金物
 48
1.5
100
AcDbLine
 10
1388.254131956854
 20
269.6456702818196
 30
0.0
 11
1388.254131956854
 21
283.5405561503529
 31
0.0
  0
ARC
  5
1459B
330
1F
100
AcDbEntity
  8
金物
100
AcDbCircle
 10
1405.195533724354
 20
203.9393000893197
 30
0.0
 40
0.5
100
AcDbArc
 50
180.0
 51
270.0
  0
LINE
  5
145AE
330
1F
100
AcDbEntity
  8
金物
 48
1.5
100
AcDbLine
 10
1405.195533724354
 20
203.4393000893197
 30
0.0
 11
1409.195533724354
 21
203.4393000893197
 31
0.0
  0
ARC
  5
145AF
102
{ACAD_REACTORS
330
14736
102
}
330
1F
100
AcDbEntity
  8
金物
100
AcDbCircle
 10
1409.195533724354
 20
203.9393000893197
 30
0.0
 40
0.5
100
AcDbArc
 50
270.0
 51
0.0
  0
LINE
  5
145B0
330
1F
100
AcDbEntity
  8
金物
 48
1.5
100
AcDbLine
 10
1502.479310834255
 20
202.5405561503522
 30
0.0
 11
1506.479310834255
 21
202.5405561503522
 31
0.0
  0
ARC
  5
145BA
330
1F
100
AcDbEntity
  8
金物
 48
1.5
100
AcDbCircle
 10
1502.479310834255
 20
203.0405561503521
 30
0.0
 40
0.5
100
AcDbArc
 50
180.0
 51
270.0
  0
ARC
  5
145BB
330
1F
100
AcDbEntity
  8
金物
100
AcDbCircle
 10
1506.479310834255
 20
203.0405561503521
 30
0.0
 40
0.5
100
AcDbArc
 50
270.0
 51
359.9999999999997
  0
LINE
  5
145BC
330
1F
100
AcDbEntity
  8
金物
 48
1.5
100
AcDbLine
 10
1501.979310834255
 20
203.0405561503521
 30
0.0
 11
1501.979310834255
 21
206.8405561503524
 31
0.0
  0
ARC
  5
145C2
330
1F
100
AcDbEntity
  8
金物
 48
1.5
100
AcDbCircle
 10
1505.079310834255
 20
255.7937040972117
 30
0.0
 40
0.5
100
AcDbArc
 50
0.0
 51
83.60243045437862
  0
LINE
  5
145C3
330
1F
100
AcDbEntity
  8
金物
 48
1.5
100
AcDbLine
 10
1460.537909066755
 20
266.5408230564521
 30
0.0
 11
1460.537909066755
 21
261.4698710825503
 31
0.0
  0
LINE
  5
145C9
330
1F
100
AcDbEntity
  8
金物
 48
1.5
100
AcDbLine
 10
1458.379310834255
 20
270.1741563898522
 30
0.0
 11
1458.379310834255
 21
268.7469263428521
 31
0.0
  0
LINE
  5
145CC
330
1F
100
AcDbEntity
  8
金物
 48
1.5
100
AcDbLine
 10
1460.537909066755
 20
282.5347572225521
 30
0.0
 11
1458.379310834255
 21
282.5347572225521
 31
0.0
  0
LINE
  5
145CF
330
1F
100
AcDbEntity
  8
金物
 48
1.5
100
AcDbLine
 10
1457.570725301118
 20
284.5405561502584
 30
0.0
 11
1462.979310834255
 21
283.5347572225522
 31
0.0
  0
LINE
  5
145D2
330
1F
100
AcDbEntity
  8
金物
 48
1.5
100
AcDbLine
 10
1461.937909066755
 20
282.5347572225521
 30
0.0
 11
1461.937909066755
 21
275.0986006333677
 31
0.0
  0
LINE
  5
145DF
330
1F
100
AcDbEntity
  8
ジョイント
 48
1.5
100
AcDbLine
 10
1505.079310834255
 20
203.9405561503524
 30
0.0
 11
1505.079310834255
 21
254.8061999734572
 31
0.0
  0
LINE
  5
145E0
330
1F
100
AcDbEntity
  8
ジョイント
 48
1.5
100
AcDbLine
 10
1503.879310834255
 20
203.9405561503524
 30
0.0
 11
1503.879310834255
 21
254.1816335791381
 31
0.0
  0
ARC
  5
145E1
330
1F
100
AcDbEntity
  8
ジョイント
 48
1.5
100
AcDbCircle
 10
1503.379310834256
 20
254.1816335791381
 30
0.0
 40
0.5
100
AcDbArc
 50
0.0
 51
83.48110555641545
  0
ARC
  5
145E2
330
1F
100
AcDbEntity
  8
ジョイント
 48
1.5
100
AcDbCircle
 10
1504.079310834256
 20
254.8061999734572
 30
0.0
 40
1.0
100
AcDbArc
 50
0.0
 51
83.48105501532094
  0
LINE
  5
145E4
330
1F
100
AcDbEntity
  8
ジョイント
 48
1.5
100
AcDbLine
 10
1460.48114319953
 20
260.7946949540387
 30
0.0
 11
1504.192842568708
 21
255.7997343439107
 31
0.0
  0
LINE
  5
145E5
330
1F
100
AcDbEntity
  8
ジョイント
 48
1.5
100
AcDbLine
 10
1503.436076263279
 20
254.6784008144383
 30
0.0
 11
1459.724378208709
 21
259.6733222124015
 31
0.0
  0
ARC
  5
145EB
330
1F
100
AcDbEntity
  8
ジョイント
 48
1.5
100
AcDbCircle
 10
1460.537909066755
 20
261.2914621392654
 30
0.0
 40
0.5
100
AcDbArc
 50
180.0
 51
263.4810550153209
  0
ARC
  5
145EC
330
1F
100
AcDbEntity
  8
金物
 48
1.5
100
AcDbCircle
 10
1460.737909066756
 20
261.4698710825503
 30
0.0
 40
0.2
100
AcDbArc
 50
180.0
 51
263.6024304543786
  0
LINE
  5
145ED
330
1F
100
AcDbEntity
  8
ジョイント
 48
1.5
100
AcDbLine
 10
1460.037909066756
 20
261.2914621392654
 30
0.0
 11
1460.037909066756
 21
266.5408230564521
 31
0.0
  0
LINE
  5
145EE
330
1F
100
AcDbEntity
  8
金物
 48
1.5
100
AcDbLine
 10
1458.837909066755
 20
260.6668566830019
 30
0.0
 11
1458.837909066755
 21
266.5408230564521
 31
0.0
  0
LINE
  5
145EF
330
1F
100
AcDbEntity
  8
ジョイント
 48
1.5
100
AcDbLine
 10
1458.379310834255
 20
266.5408230564521
 30
0.0
 11
1460.537909066755
 21
266.5408230564521
 31
0.0
  0
LINE
  5
145F0
330
1F
100
AcDbEntity
  8
ジョイント
 48
1.5
100
AcDbLine
 10
1458.379310834255
 20
266.5408230564521
 30
0.0
 11
1458.379310834255
 21
264.0325261132522
 31
0.0
  0
LINE
  5
145F1
330
1F
100
AcDbEntity
  8
ジョイント
 48
1.5
100
AcDbLine
 10
1456.979310834255
 20
270.1741563898522
 30
0.0
 11
1456.979310834255
 21
264.0325261132522
 31
0.0
  0
LINE
  5
145F2
330
1F
100
AcDbEntity
  8
ジョイント
 48
1.5
100
AcDbLine
 10
1458.379310834255
 20
268.7469263428521
 30
0.0
 11
1460.537909066755
 21
268.7469263428521
 31
0.0
  0
LINE
  5
145F3
102
{ACAD_REACTORS
330
14635
102
}
330
1F
100
AcDbEntity
  8
ジョイント
 48
1.5
100
AcDbLine
 10
1460.537909066755
 20
268.7469263428521
 30
0.0
 11
1460.537909066755
 21
282.5347572225521
 31
0.0
  0
LINE
  5
145F5
330
1F
100
AcDbEntity
  8
ジョイント
 48
1.5
100
AcDbLine
 10
1458.379310834255
 20
282.5347572225521
 30
0.0
 11
1458.379310834255
 21
281.2347572225523
 31
0.0
  0
LINE
  5
145F6
330
1F
100
AcDbEntity
  8
ジョイント
 48
1.5
100
AcDbLine
 10
1456.979310834255
 20
284.0489837799523
 30
0.0
 11
1456.979310834255
 21
281.2347572225523
 31
0.0
  0
LINE
  5
145F7
330
1F
100
AcDbEntity
  8
ジョイント
 48
1.5
100
AcDbLine
 10
1462.979310834255
 20
283.5347572225522
 30
0.0
 11
1462.979310834255
 21
282.5347572225521
 31
0.0
  0
LINE
  5
145F8
330
1F
100
AcDbEntity
  8
ジョイント
 48
1.5
100
AcDbLine
 10
1462.979310834255
 20
282.5347572225521
 30
0.0
 11
1461.937909066755
 21
282.5347572225521
 31
0.0
  0
LINE
  5
145F9
330
1F
100
AcDbEntity
  8
金物
 48
1.5
100
AcDbLine
 10
1461.937909066754
 20
262.5405561503523
 30
0.0
 11
1461.937909066754
 21
274.4986006333689
 31
0.0
  0
HATCH
  5
14617
330
1F
100
AcDbEntity
  8
ハッチング
  6
ByBlock
 48
1.5
100
AcDbHatch
 10
0.0
 20
0.0
 30
0.0
210
0.0
220
0.0
230
1.0
  2
ANSI31
 70
     0
 71
     1
 91
        3
 92
        7
 72
     1
 73
     1
 93
       10
 10
1388.25059882891
 20
281.4589405323313
 42
0.0
 10
1386.750598828909
 20
282.9589405323313
 42
0.0
 10
1386.750598828909
 20
281.4589405323313
 42
0.0
 10
1384.250598828909
 20
281.4589405323314
 42
0.0
 10
1384.250598828909
 20
285.4749574312888
 42
0.0
 10
1386.750598828909
 20
285.4749574312888
 42
0.0
 10
1386.750598828909
 20
286.9589405323313
 42
0.0
 10
1379.390114806826
 20
289.1589405323313
 42
-0.1092088324389084
 10
1382.231037969052
 20
275.3325531186948
 42
0.0
 10
1388.25059882891
 20
275.3325531186948
 42
0.0
 97
       10
330
130D2
330
130D1
330
130D0
330
130CF
330
144FC
330
144FD
330
144FE
330
130D9
330
AB00
330
130D3
 92
        7
 72
     1
 73
     1
 93
        8
 10
1388.25059882891
 20
275.3325531186948
 42
0.0
 10
1382.231037969052
 20
275.3325531186948
 42
-0.0890453896357792
 10
1380.020151450609
 20
263.9912847107961
 42
0.0
 10
1384.250598828909
 20
263.9912847107983
 42
0.0
 10
1384.250598828909
 20
271.6912847107983
 42
0.0
 10
1386.750598828909
 20
271.6912847107983
 42
0.0
 10
1386.750598828909
 20
270.1912847107982
 42
0.0
 10
1388.25059882891
 20
271.6912847107983
 42
0.0
 97
        7
330
130D9
330
130D8
330
130D7
330
130D6
330
130D5
330
130D4
330
130D3
 92
       22
 72
     1
 73
     1
 93
        2
 10
1386.774918331489
 20
273.5843944206806
 42
-1.0
 10
1386.899918331489
 20
273.3678880697345
 42
-1.0
 97
        1
330
B1CE
 75
     1
 76
     1
 52
0.0
 41
0.5
 77
     0
 78
     1
 53
45.0
 43
0.0
 44
0.0
 45
-1.122532015133643
 46
1.122532015133643
 79
     0
 47
0.1833755723392599
 98
        3
 10
1386.113809031587
 20
279.4303918903351
 10
1385.012140996599
 20
274.112500338939
 10
1385.012140996599
 20
274.112500338939
1001
GradientColor1ACI
1070
     5
1001
GradientColor2ACI
1070
     2
1001
ACAD
1010
0.0
1020
0.0
1030
0.0
  0
HATCH
  5
14635
330
1F
100
AcDbEntity
  8
ハッチング
  6
ByBlock
 48
1.5
100
AcDbHatch
 10
0.0
 20
0.0
 30
0.0
210
0.0
220
0.0
230
1.0
  2
ANSI31
 70
     0
 71
     1
 91
        3
 92
        7
 72
     1
 73
     1
 93
       10
 10
1459.037909066756
 20
286.0475854287732
 42
0.0
 10
1451.537909066756
 20
288.3244953685433
 42
-0.1103541624070119
 10
1454.527064661132
 20
274.7772592459152
 42
0.0
 10
1460.537909066755
 20
274.7772592459152
 42
0.0
 10
1460.537909066755
 20
280.5475854287733
 42
0.0
 10
1459.037909066756
 20
282.0475854287732
 42
0.0
 10
1459.037909066756
 20
280.5475854287733
 42
0.0
 10
1456.537909066756
 20
280.5475854287733
 42
0.0
 10
1456.537909066756
 20
284.5475854287732
 42
0.0
 10
1459.037909066756
 20
284.5475854287732
 42
0.0
 97
       10
330
13165
330
13172
330
AB40
330
145F3
330
1316B
330
1316A
330
13169
330
13168
330
13167
330
13166
 92
        7
 72
     1
 73
     1
 93
        8
 10
1460.537909066755
 20
274.7772592459152
 42
0.0
 10
1454.527064661132
 20
274.7772592459152
 42
-0.0935530537915537
 10
1452.307461688456
 20
263.1869845960722
 42
0.0
 10
1456.537909066756
 20
263.1869845960732
 42
0.0
 10
1456.537909066756
 20
270.8869845960732
 42
0.0
 10
1459.037909066756
 20
270.8869845960732
 42
0.0
 10
1459.037909066756
 20
269.3869845960731
 42
0.0
 10
1460.537909066755
 20
270.8869845960732
 42
0.0
 97
        7
330
13172
330
13171
330
13170
330
1316F
330
1316E
330
1316D
330
145F3
 92
       22
 72
     1
 73
     1
 93
        2
 10
1459.57715119665
 20
272.185619546419
 42
-1.0
 10
1459.70215119665
 20
271.9691131954729
 42
-1.0
 97
        1
330
B48C
 75
     1
 76
     1
 52
0.0
 41
0.5
 77
     0
 78
     1
 53
45.0
 43
0.0
 44
0.0
 45
-1.122532015133643
 46
1.122532015133643
 79
     0
 47
0.1291645467747644
 98
        3
 10
1454.403661187337
 20
285.3653989374553
 10
1457.248934417203
 20
272.5781088022592
 10
1457.248934417203
 20
272.5781088022592
1001
GradientColor1ACI
1070
     5
1001
GradientColor2ACI
1070
     2
1001
ACAD
1010
0.0
1020
0.0
1030
0.0
  0
LINE
  5
1464E
330
1F
100
AcDbEntity
  8
金物
  6
ByBlock
 48
1.5
100
AcDbLine
 10
1506.536076263279
 20
257.5405561503524
 30
0.0
 11
1461.937909066754
 21
262.5405561503523
 31
0.0
  0
LINE
  5
1464F
330
1F
100
AcDbEntity
  8
金物
  6
ByBlock
 48
1.5
100
AcDbLine
 10
1505.135024222773
 20
256.2905904205694
 30
0.0
 11
1460.715623711348
 21
261.2711165532073
 31
0.0
  0
LINE
  5
14650
330
1F
100
AcDbEntity
  8
金物
  6
ByBlock
 48
1.5
100
AcDbLine
 10
1505.579310834255
 20
203.9405561503524
 30
0.0
 11
1505.579310834255
 21
255.7937040972117
 31
0.0
  0
LINE
  5
14651
330
1F
100
AcDbEntity
  8
金物
  6
ByBlock
 48
1.5
100
AcDbLine
 10
1505.579310834255
 20
203.9405561503524
 30
0.0
 11
1503.379310834255
 21
203.9405561503524
 31
0.0
  0
LINE
  5
14652
330
1F
100
AcDbEntity
  8
金物
  6
ByBlock
 48
1.5
100
AcDbLine
 10
1503.379310834255
 20
203.9405561503524
 30
0.0
 11
1503.379310834255
 21
206.8405561503524
 31
0.0
  0
LINE
  5
14653
330
1F
100
AcDbEntity
  8
金物
  6
ByBlock
 48
1.5
100
AcDbLine
 10
1408.483098159056
 20
204.8040584769893
 30
0.0
 11
1408.483098159056
 21
257.2662610839562
 31
0.0
  0
ARC
  5
1465A
330
1F
100
AcDbEntity
  8
金物
100
AcDbCircle
 10
-1405.391512270376
 20
207.8556418097334
 30
0.0
 40
0.7
210
0.0
220
0.0
230
-1.0
100
AcDbArc
 50
0.0
 51
180.0
  0
DIMENSION
  5
14664
330
1F
100
AcDbEntity
  8
寸法線
  6
ByBlock
 48
1.5
100
AcDbDimension
280
     0
  2
*D18
 10
1353.753896953467
 20
276.5927460157207
 30
0.0
 11
1352.663896953467
 21
259.5927460157209
 31
0.0
 70
    32
 71
     5
 42
34.0
 73
     0
 74
     0
 75
     0
  3
style1
100
AcDbAlignedDimension
 13
1345.731945208121
 23
242.5927460157207
 33
0.0
 14
1347.731945208121
 24
276.5927460157207
 34
0.0
 50
90.0
100
AcDbRotatedDimension
1001
ACAD
1000
DSTYLE
1002
{
1070
    40
1040
1.0
1002
}
  0
DIMENSION
  5
146D3
330
1F
100
AcDbEntity
  8
寸法線
  6
ByBlock
 48
1.5
100
AcDbDimension
280
     0
  2
*D19
 10
1514.413626751272
 20
262.5405561503522
 30
0.0
 11
1513.323626751272
 21
260.0405561503525
 31
0.0
 70
    32
 71
     5
 42
5.0
 73
     0
 74
     0
 75
     0
  3
style1
100
AcDbAlignedDimension
 13
1509.737320242348
 23
257.5405561503522
 33
0.0
 14
1463.937909066755
 24
262.5405561503522
 34
0.0
 50
90.0
100
AcDbRotatedDimension
1001
ACAD
1000
DSTYLE
1002
{
1070
    40
1040
1.0
1002
}
  0
DIMENSION
  5
1471F
102
{ACAD_XDICTIONARY
360
1472C
102
}
102
{ACAD_REACTORS
330
14736
102
}
330
1F
100
AcDbEntity
  8
寸法線
  6
ByBlock
 48
1.5
100
AcDbDimension
280
     0
  2
*D20
 10
1409.695533724354
 20
195.2795265581458
 30
0.0
 11
1407.195533724354
 21
196.3695265581458
 31
0.0
 70
    32
 71
     5
 42
5.000000000000226
 73
     0
 74
     0
 75
     0
  3
style1
100
AcDbAlignedDimension
 13
1404.695533724354
 23
203.9393000893197
 33
0.0
 14
1409.695533724354
 24
203.9393000893197
 34
0.0
100
AcDbRotatedDimension
1001
ACAD
1000
DSTYLE
1002
{
1070
    40
1040
1.0
1002
}
  0
VIEWPORT
  5
12EA2
102
{ACAD_XDICTIONARY
360
12EA3
102
}
330
12E94
100
AcDbEntity
 67
     1
  8
0
 48
1.5
348
F5
100
AcDbViewport
 10
143.0649761170239
 20
99.45733798655108
 30
0.0
 40
360.7426049367912
 41
200.1594721946048
 68
     1
 69
     1
 12
143.0649761170239
 22
99.45733798655108
 13
0.0
 23
0.0
 14
10.0
 24
10.0
 15
10.0
 25
10.0
 16
0.0
 26
0.0
 36
1.0
 17
0.0
 27
0.0
 37
0.0
 42
50.0
 43
0.0
 44
0.0
 45
200.1594721946048
 50
0.0
 51
0.0
 72
  1000
 90
   557088
  1

281
     0
 71
     1
 74
     0
110
0.0
120
0.0
130
0.0
111
1.0
121
0.0
131
0.0
112
0.0
122
1.0
132
0.0
 79
     0
146
0.0
170
     0
 61
     5
292
     1
282
     1
141
0.0
142
0.0
 63
   250
421
  3355443
  0
VIEWPORT
  5
12EA6
102
{ACAD_XDICTIONARY
360
12EA7
102
}
330
12E94
100
AcDbEntity
 67
     1
  8
0
 48
1.5
348
F5
100
AcDbViewport
 10
143.058881208677
 20
99.46018444519843
 30
0.0
 40
286.5397048628762
 41
198.4591489092487
 68
     2
 69
     2
 12
1428.884792947915
 22
238.8209005069648
 13
0.0
 23
0.0
 14
10.0
 24
10.0
 15
10.0
 25
10.0
 16
0.0
 26
0.0
 36
1.0
 17
0.0
 27
0.0
 37
0.0
 42
50.0
 43
0.0
 44
0.0
 45
198.4591484798372
 50
0.0
 51
0.0
 72
  1000
331
C860
 90
   819296
  1

281
     0
 71
     1
 74
     0
110
0.0
120
0.0
130
0.0
111
1.0
121
0.0
131
0.0
112
0.0
122
1.0
132
0.0
 79
     0
146
0.0
170
     0
 61
     5
292
     1
282
     1
141
0.0
142
0.0
 63
   250
421
  3355443
  0
ENDSEC
  0
SECTION
  2
OBJECTS
  0
DICTIONARY
  5
C
330
0
100
AcDbDictionary
281
     1
  3
ACAD_CIP_PREVIOUS_PRODUCT_INFO
350
1474E
  3
ACAD_COLOR
350
6B
  3
ACAD_DETAILVIEWSTYLE
350
14743
  3
ACAD_GROUP
350
D
  3
ACAD_LAYOUT
350
1A
  3
ACAD_MATERIAL
350
6A
  3
ACAD_MLEADERSTYLE
350
12D
  3
ACAD_MLINESTYLE
350
17
  3
ACAD_PLOTSETTINGS
350
19
  3
ACAD_PLOTSTYLENAME
350
E
  3
ACAD_SCALELIST
350
10C
  3
ACAD_SECTIONVIEWSTYLE
350
14741
  3
ACAD_TABLESTYLE
350
7E
  3
ACAD_VISUALSTYLE
350
EF
  3
ACDB_RECOMPOSE_DATA
350
1477E
  3
AcDbVariableDictionary
350
5E
  0
DICTIONARY
  5
1FF
330
2
100
AcDbDictionary
280
     1
281
     1
  3
ACAD_LAYERSTATES
360
200
  0
DICTIONARY
  5
13C
330
10
100
AcDbDictionary
280
     1
281
     1
  0
DICTIONARY
  5
219
330
218
100
AcDbDictionary
280
     1
281
     1
  0
DICTIONARY
  5
21B
330
21A
100
AcDbDictionary
280
     1
281
     1
  0
DICTIONARY
  5
1CE
330
1F
100
AcDbDictionary
280
     1
281
     1
  3
ACAD_SORTENTS
360
37A
  0
DICTIONARY
  5
B132
330
B125
100
AcDbDictionary
280
     1
281
     1
  3
ACAD_DIMASSOC
360
B13C
  0
DICTIONARY
  5
B193
330
B186
100
AcDbDictionary
280
     1
281
     1
  3
ACAD_DIMASSOC
360
B19D
  0
DICTIONARY
  5
B461
330
B454
100
AcDbDictionary
280
     1
281
     1
  3
ACAD_DIMASSOC
360
B46B
  0
DICTIONARY
  5
B479
330
B46C
100
AcDbDictionary
280
     1
281
     1
  3
ACAD_DIMASSOC
360
B483
  0
DICTIONARY
  5
BCE2
330
BCE1
100
AcDbDictionary
280
     1
281
     1
  3
ACAD_DIMASSOC
360
BCE3
  0
DICTIONARY
  5
C61D
330
C610
100
AcDbDictionary
280
     1
281
     1
  3
ACAD_DIMASSOC
360
C627
  0
DICTIONARY
  5
143B6
330
143A9
100
AcDbDictionary
280
     1
281
     1
  3
ACAD_DIMASSOC
360
143C0
  0
DICTIONARY
  5
14414
330
14407
100
AcDbDictionary
280
     1
281
     1
  3
ACAD_DIMASSOC
360
1441E
  0
DICTIONARY
  5
1472C
330
1471F
100
AcDbDictionary
280
     1
281
     1
  3
ACAD_DIMASSOC
360
14736
  0
DICTIONARY
  5
12EA3
330
12EA2
100
AcDbDictionary
280
     1
281
     1
  3
ASDK_XREC_ANNOTATION_SCALE_INFO
360
12EA4
  0
DICTIONARY
  5
12EA7
330
12EA6
100
AcDbDictionary
280
     1
281
     1
  3
ASDK_XREC_ANNOTATION_SCALE_INFO
360
12EA8
  0
XRECORD
  5
1474E
102
{ACAD_REACTORS
330
C
102
}
330
C
100
AcDbXrecord
280
     1
300
ACDLT
300
2021
300

  0
DICTIONARY
  5
6B
102
{ACAD_REACTORS
330
C
102
}
330
C
100
AcDbDictionary
281
     1
  0
DICTIONARY
  5
14743
102
{ACAD_REACTORS
330
C
102
}
330
C
100
AcDbDictionary
281
     1
  3
Metric50
350
14744
  0
DICTIONARY
  5
D
102
{ACAD_REACTORS
330
C
102
}
330
C
100
AcDbDictionary
281
     1
  0
DICTIONARY
  5
1A
102
{ACAD_REACTORS
330
C
102
}
330
C
100
AcDbDictionary
281
     1
  3
MK一覧表（EPT)
350
12E95
  3
Model
350
22
  0
DICTIONARY
  5
6A
102
{ACAD_REACTORS
330
C
102
}
330
C
100
AcDbDictionary
281
     1
  3
ByBlock
350
ED
  3
ByLayer
350
EC
  3
Global
350
EE
  0
DICTIONARY
  5
12D
102
{ACAD_REACTORS
330
C
102
}
330
C
100
AcDbDictionary
281
     1
  3
Standard
350
12E
  3
style1
350
4A8E
  0
DICTIONARY
  5
17
102
{ACAD_REACTORS
330
C
102
}
330
C
100
AcDbDictionary
281
     1
  3
Standard
350
18
  0
DICTIONARY
  5
19
102
{ACAD_REACTORS
330
C
102
}
330
C
100
AcDbDictionary
281
     1
  3
セットアップ1
350
11BF1
  0
ACDBDICTIONARYWDFLT
  5
E
102
{ACAD_REACTORS
330
C
102
}
330
C
100
AcDbDictionary
281
     1
  3
Normal
350
F
100
AcDbDictionaryWithDefault
340
F
  0
DICTIONARY
  5
10C
102
{ACAD_REACTORS
330
C
102
}
330
C
100
AcDbDictionary
281
     1
  3
A0
350
10D
  3
A1
350
1BE
  3
A2
350
1BF
  3
A3
350
1C0
  3
A4
350
1C1
  3
A5
350
1C2
  3
A6
350
1C3
  3
A7
350
1C4
  3
A8
350
1C5
  3
A9
350
1C6
  3
B0
350
1C7
  3
B1
350
1C8
  3
B2
350
1C9
  3
B3
350
1CA
  3
B4
350
1CB
  3
B5
350
1CC
  3
B6
350
1CD
  0
DICTIONARY
  5
14741
102
{ACAD_REACTORS
330
C
102
}
330
C
100
AcDbDictionary
281
     1
  3
Metric50
350
14742
  0
DICTIONARY
  5
7E
102
{ACAD_REACTORS
330
C
102
}
330
C
100
AcDbDictionary
281
     1
  3
Standard
350
7F
  0
DICTIONARY
  5
EF
102
{ACAD_REACTORS
330
C
102
}
330
C
100
AcDbDictionary
281
     1
  3
2dWireframe
350
F5
  3
Basic
350
F4
  3
Brighten
350
FB
  3
ColorChange
350
FF
  3
Conceptual
350
F8
  3
Dim
350
FA
  3
EdgeColorOff
350
1E6
  3
Facepattern
350
FE
  3
Flat
350
F0
  3
FlatWithEdges
350
F1
  3
Gouraud
350
F2
  3
GouraudWithEdges
350
F3
  3
Hidden
350
F7
  3
JitterOff
350
1E4
  3
Linepattern
350
FD
  3
OverhangOff
350
1E5
  3
Realistic
350
F9
  3
Shaded
350
1F3
  3
Shaded with edges
350
1F2
  3
Shades of Gray
350
1EF
  3
Sketchy
350
1F0
  3
Thicken
350
FC
  3
Wireframe
350
F6
  3
X-Ray
350
1F1
  0
XRECORD
  5
1477E
102
{ACAD_REACTORS
330
C
102
}
330
C
100
AcDbXrecord
280
     1
 90
        1
330
7F
  0
DICTIONARY
  5
5E
102
{ACAD_REACTORS
330
C
102
}
330
C
100
AcDbDictionary
281
     1
  3
CANNOSCALE
350
146
  3
CMLEADERSTYLE
350
145
  3
CTABLESTYLE
350
84
  3
CVIEWDETAILSTYLE
350
14765
  3
CVIEWSECTIONSTYLE
350
14766
  3
DIMASSOC
350
5F
  3
HIDETEXT
350
63
  3
LAYEREVAL
350
1AE
  3
LAYERNOTIFY
350
1AF
  3
XCLIPFRAME
350
E87D
  0
DICTIONARY
  5
200
102
{ACAD_REACTORS
330
1FF
102
}
330
1FF
100
AcDbDictionary
281
     1
  0
SORTENTSTABLE
  5
37A
102
{ACAD_REACTORS
330
1CE
102
}
330
1CE
100
AcDbSortentsTable
330
1F
331
AABE
  5
AADE
331
AAD5
  5
AAF6
331
AADA
  5
AB04
331
AADB
  5
AB06
331
AAE6
  5
AB07
331
AAED
  5
AB0C
331
AAEF
  5
AB0D
331
AAF0
  5
AB0E
331
AAF2
  5
AB12
331
AAF3
  5
AB13
331
AAF6
  5
AB14
331
AAF9
  5
AB1C
331
AAFA
  5
AB24
331
AAFB
  5
AB31
331
AAFD
  5
AB3C
331
AB00
  5
AB41
331
AB0C
  5
AB63
331
AB10
  5
AB77
331
AB11
  5
AB78
331
AB14
  5
AB7E
331
AB2C
  5
AB81
331
AB40
  5
ABA5
331
AB42
  5
B3AE
331
AB44
  5
B3D4
331
AB45
  5
B454
331
AB51
  5
B46C
331
AB5A
  5
B48C
331
AB68
  5
B48D
331
AB8D
  5
B541
331
AB9B
  5
B5C7
331
ABA1
  5
B5C8
331
B015
  5
B5C9
331
B125
  5
B5CA
331
B175
  5
B5CC
331
B186
  5
B5CD
331
B1A6
  5
BCB7
331
B1CE
  5
BCBA
331
B250
  5
BCBB
331
B2E9
  5
BCC4
331
B454
  5
BCD2
331
B46C
  5
BCDA
331
B48C
  5
BCDB
331
B48D
  5
BCDF
331
B541
  5
BCE0
331
BC93
  5
BCE1
331
BC94
  5
BCE4
331
BC95
  5
C55D
331
BCA3
  5
C55E
331
BCA5
  5
C56C
331
BCAA
  5
C77D
331
BCAF
  5
C809
331
BCB0
  5
C80A
331
BCB3
  5
D7A3
331
BCB8
  5
D7A4
331
BCBA
  5
D7A9
331
BCBB
  5
D7AA
331
BCBD
  5
F9B0
331
BCBE
  5
F9B2
331
BCBF
  5
F9B3
331
BCC3
  5
F9B4
331
BCD0
  5
F9B5
331
BCD2
  5
F9B6
331
BCD6
  5
F9B7
331
BCD9
  5
F9B9
331
BCE0
  5
12FA6
331
BCE1
  5
12FCB
331
BCE4
  5
12FCC
331
C013
  5
13011
331
C014
  5
1308A
331
C015
  5
1308B
331
C610
  5
130CC
331
C628
  5
130CD
331
C711
  5
130CE
331
F1AC
  5
130CF
331
F1AE
  5
130D0
331
F1AF
  5
130D4
331
F1B0
  5
130D5
331
F1B1
  5
130D6
331
F1B2
  5
130D7
331
F1B3
  5
130D8
331
F1B5
  5
130D9
331
F1B7
  5
130DA
331
1129A
  5
130F8
331
125F9
  5
130F9
331
12FAA
  5
130FA
331
12FAB
  5
13109
331
12FAC
  5
1310A
331
12FC9
  5
1310B
331
12FCA
  5
1311E
331
12FCB
  5
13140
331
12FCC
  5
13142
331
12FCD
  5
13165
331
130CF
  5
13166
331
130D0
  5
13171
331
130D1
  5
13172
331
130D2
  5
131AF
331
130D3
  5
131B0
331
130D4
  5
131B1
331
130D5
  5
13201
331
130D6
  5
13202
331
130D7
  5
13203
331
130D8
  5
13204
331
130D9
  5
13219
331
13165
  5
1321A
331
13166
  5
13878
331
13167
  5
13879
331
13168
  5
1387A
331
13169
  5
1387B
331
1316A
  5
13905
331
1316B
  5
143A1
331
1316C
  5
143A3
331
1316D
  5
14437
331
1316E
  5
1444B
331
1316F
  5
1444C
331
13170
  5
1444D
331
13171
  5
1444E
331
13172
  5
1444F
331
1371B
  5
14451
331
13878
  5
14454
331
13906
  5
14455
331
1421E
  5
14450
331
143A2
  5
14456
331
143A3
  5
14457
331
143A8
  5
1445B
331
143A9
  5
1445D
331
14407
  5
1445E
331
14442
  5
1445F
331
14446
  5
14460
331
14447
  5
14461
331
14448
  5
14475
331
14449
  5
14476
331
1444A
  5
14477
331
1444B
  5
14482
331
1444C
  5
14499
331
1444D
  5
1449A
331
1444E
  5
144B9
331
1444F
  5
144BA
331
14450
  5
144FC
331
14451
  5
144FD
331
14453
  5
144FE
331
14454
  5
144FF
331
14455
  5
14500
331
14456
  5
1450A
331
14459
  5
C628
331
1445F
  5
1445A
331
14460
  5
14458
331
14461
  5
14459
331
14497
  5
C6B5
331
144A8
  5
C711
331
144F8
  5
1450B
331
144F9
  5
1450C
331
144FA
  5
14516
331
144FB
  5
14518
331
144FC
  5
1452F
331
144FD
  5
14532
331
144FE
  5
14533
331
144FF
  5
14537
331
14500
  5
14538
331
1450A
  5
14539
331
1450B
  5
1453A
331
1450D
  5
1453B
331
14518
  5
1453D
331
1452F
  5
1453E
331
14532
  5
1453F
331
14533
  5
14541
331
14534
  5
1457E
331
14535
  5
1459B
331
14536
  5
145AF
331
14539
  5
1459A
331
1453B
  5
1457D
331
1453C
  5
145B0
331
1453D
  5
145AE
331
1453E
  5
145BA
331
1453F
  5
145BB
331
1457D
  5
145BD
331
1459B
  5
AAE6
331
145AE
  5
145BF
331
145AF
  5
AB84
331
145B0
  5
145C0
331
145BA
  5
145C2
331
145BB
  5
B5C6
331
145BC
  5
145C5
331
145C2
  5
145D0
331
145C3
  5
145DF
331
145C9
  5
145E0
331
145CC
  5
145E1
331
145CF
  5
145E2
331
145D2
  5
145E4
331
145DF
  5
145EC
331
145E0
  5
145EE
331
145E1
  5
145EF
331
145E2
  5
145ED
331
145E4
  5
145F0
331
145E5
  5
145F2
331
145EB
  5
145F1
331
145EC
  5
145DE
331
145ED
  5
145F3
331
145EE
  5
145F5
331
145EF
  5
145F6
331
145F0
  5
145F7
331
145F1
  5
145F8
331
145F2
  5
145F9
331
145F3
  5
145FA
331
145F5
  5
145FB
331
145F6
  5
145FE
331
145F7
  5
14618
331
145F8
  5
14619
331
145F9
  5
1461C
331
14617
  5
AB3F
331
14635
  5
AB8C
  0
DIMASSOC
  5
B13C
102
{ACAD_REACTORS
330
B132
102
}
330
B132
100
AcDbDimAssoc
330
B125
 90
        1
 70
     0
 71
     0
  1
AcDbOsnapPointRef
 72
     1
331
AAD5
 73
     2
 91
        0
 40
1.0
 10
0.0
 20
0.0
 30
2.000000000000000E+50
 75
     0
  0
DIMASSOC
  5
B19D
102
{ACAD_REACTORS
330
B193
102
}
330
B193
100
AcDbDimAssoc
330
B186
 90
        1
 70
     0
 71
     0
  1
AcDbOsnapPointRef
 72
     1
331
AAD5
 73
     2
 91
        0
 40
1.0
 10
0.0
 20
0.0
 30
2.000000000000000E+50
 75
     0
  0
DIMASSOC
  5
B46B
102
{ACAD_REACTORS
330
B461
102
}
330
B461
100
AcDbDimAssoc
330
B454
 90
        1
 70
     0
 71
     0
  1
AcDbOsnapPointRef
 72
     1
331
AB51
 73
     2
 91
        0
 40
3.141592653589792
 10
0.0
 20
0.0
 30
2.000000000000000E+50
 75
     0
  0
DIMASSOC
  5
B483
102
{ACAD_REACTORS
330
B479
102
}
330
B479
100
AcDbDimAssoc
330
B46C
 90
        2
 70
     0
 71
     0
  1
AcDbOsnapPointRef
 72
     6
331
AB8D
 73
     2
 91
        0
 40
0.0
 10
0.0
 20
0.0
 30
0.0
332
ABA1
 74
     2
 92
        0
 75
     0
  0
DIMASSOC
  5
BCE3
102
{ACAD_REACTORS
330
BCE2
102
}
330
BCE2
100
AcDbDimAssoc
330
BCE1
 90
        1
 70
     0
 71
     0
  1
AcDbOsnapPointRef
 72
     1
331
BCD0
 73
     2
 91
        0
 40
3.141592653589792
 10
0.0
 20
0.0
 30
2.000000000000000E+50
 75
     0
  0
DIMASSOC
  5
C627
102
{ACAD_REACTORS
330
C61D
102
}
330
C61D
100
AcDbDimAssoc
330
C610
 90
        1
 70
     0
 71
     0
  1
AcDbOsnapPointRef
 72
     1
331
AAD5
 73
     2
 91
        0
 40
1.0
 10
0.0
 20
0.0
 30
2.000000000000000E+50
 75
     0
  0
DIMASSOC
  5
143C0
102
{ACAD_REACTORS
330
143B6
102
}
330
143B6
100
AcDbDimAssoc
330
143A9
 90
        1
 70
     0
 71
     0
  1
AcDbOsnapPointRef
 72
     6
331
143A2
 73
     2
 91
        0
 40
0.9999999999995967
 10
0.0
 20
0.0
 30
0.0
332
143A8
 74
     2
 92
        0
 75
     0
  0
DIMASSOC
  5
1441E
102
{ACAD_REACTORS
330
14414
102
}
330
14414
100
AcDbDimAssoc
330
14407
 90
        3
 70
     0
 71
     0
  1
AcDbOsnapPointRef
 72
     6
331
AAF3
 73
     2
 91
        0
 40
1.0
 10
0.0
 20
0.0
 30
0.0
332
AAF0
 74
     2
 92
        0
 75
     0
  1
AcDbOsnapPointRef
 72
     1
331
AAD5
 73
     2
 91
        0
 40
1.0
 10
0.0
 20
0.0
 30
2.000000000000000E+50
 75
     0
  0
DIMASSOC
  5
14736
102
{ACAD_REACTORS
330
1472C
102
}
330
1472C
100
AcDbDimAssoc
330
1471F
 90
        2
 70
     0
 71
     0
  1
AcDbOsnapPointRef
 72
     1
331
145AF
 73
     2
 91
        0
 40
6.283185307179585
 10
0.0
 20
0.0
 30
2.000000000000000E+50
 75
     0
  0
XRECORD
  5
12EA4
102
{ACAD_REACTORS
330
12EA3
102
}
330
12EA3
100
AcDbXrecord
280
     1
 90
        1
340
10D
  0
XRECORD
  5
12EA8
102
{ACAD_REACTORS
330
12EA7
102
}
330
12EA7
100
AcDbXrecord
280
     1
 90
        1
340
10D
  0
ACDBDETAILVIEWSTYLE
  5
14744
102
{ACAD_REACTORS
330
14743
102
}
330
14743
100
AcDbModelDocViewStyle
 70
     0
  3
Metric50
290
     0
300
Metric50
 90
        0
100
AcDbDetailViewStyle
 70
     0
 71
     0
 90
        3
 71
     1
340
11
 62
   256
 40
5.0
340
0
 62
   256
 40
5.0
300

 40
0.0
280
     1
 71
     2
340
16
 90
       25
 62
   256
 71
     3
340
11
 62
   256
 40
5.0
 90
        0
 40
15.0
 90
        1
300
%<\AcVar ViewDetailId>% (%<\AcVar ViewScale \f "%sn">%)
 71
     4
340
16
 90
       25
 62
   256
340
16
 90
       25
 62
   256
280
     0
  0
LAYOUT
  5
12E95
102
{ACAD_XDICTIONARY
360
12ED0
102
}
102
{ACAD_REACTORS
330
1A
102
}
330
1A
100
AcDbPlotSettings
  1

  2
RICOH MP C4503 JPN RPCS V2
  4
A4
  6

 40
5.873749732971191
 41
5.873747825622557
 42
5.873748779296875
 43
5.873748779296875
 44
209.9733276367186
 45
296.9259948730469
 46
0.0
 47
0.0
 48
0.0
 49
0.0
140
0.0
141
0.0
142
1.0
143
1.0
 70
   696
 72
     1
 73
     1
 74
     5
  7
monokuro.ctb
 75
    16
147
1.0
 76
     2
 77
     2
 78
   300
148
0.0
149
0.0
100
AcDbLayout
  1
MK一覧表（EPT)
 70
     1
 71
     1
 10
-5.873748779296875
 20
-5.873749732971191
 11
291.05224609375
 21
204.0995779037475
 12
0.0
 22
0.0
 32
0.0
 14
-0.2193956399495391
 24
0.2233461379582877
 34
-0.0015258207003583
 15
286.3493478739973
 25
198.6913298351438
 35
0.0000000349246037
146
0.0
 13
0.0
 23
0.0
 33
0.0
 16
1.0
 26
0.0
 36
0.0
 17
0.0
 27
1.0
 37
0.0
 76
     0
330
12E94
331
12EA2
1001
ACAD_PSEXT
1000
RICOH MP C4503 JPN RPCS V2
1000
RICOH MP C4503 JPN RPCS V2
1000
IP_192.168.1.100
1000
RPCS Driver (For Windows)
1070
     0
  0
LAYOUT
  5
22
102
{ACAD_XDICTIONARY
360
205
102
}
102
{ACAD_REACTORS
330
1A
102
}
330
1A
100
AcDbPlotSettings
  1

  2
いきなりPDF 7
  4
A4
  6

 40
3.174999952316283
 41
3.174999952316283
 42
3.175003051757812
 43
3.17498779296875
 44
210.0156707763672
 45
297.0106506347656
 46
19.17983746015994
 47
0.0
 48
1309.036248705802
 49
180.9832346742648
140
1537.363959762059
141
310.8389179186279
142
1.0
143
0.7855473416541231
 70
 11956
 72
     1
 73
     1
 74
     4
  7
monokuro.ctb
 75
     0
147
1.272997751980554
 76
     0
 77
     2
 78
   300
148
-1309.036248705802
149
-180.9832346742648
100
AcDbLayout
  1
Model
 70
     1
 71
     0
 10
0.0
 20
0.0
 11
12.0
 21
9.0
 12
0.0
 22
0.0
 32
0.0
 14
0.0
 24
0.0
 34
0.0
 15
0.0
 25
0.0
 35
0.0
146
0.0
 13
0.0
 23
0.0
 33
0.0
 16
1.0
 26
0.0
 36
0.0
 17
0.0
 27
1.0
 37
0.0
 76
     0
330
1F
331
EA
1001
ACAD_PSEXT
1000
いきなりPDF 7
1000
いきなりPDF 7
1000
SN PDF4 Port
1000

1070
     0
  0
MATERIAL
  5
ED
102
{ACAD_XDICTIONARY
360
1F9
102
}
102
{ACAD_REACTORS
330
6A
102
}
330
6A
100
AcDbMaterial
  1
ByBlock
 94
       63
  0
MATERIAL
  5
EC
102
{ACAD_XDICTIONARY
360
1F7
102
}
102
{ACAD_REACTORS
330
6A
102
}
330
6A
100
AcDbMaterial
  1
ByLayer
 94
       63
  0
MATERIAL
  5
EE
102
{ACAD_XDICTIONARY
360
173
102
}
102
{ACAD_REACTORS
330
6A
102
}
330
6A
100
AcDbMaterial
  1
Global
 43
0.0007999999797903
 43
0.0
 43
0.0
 43
0.0
 43
0.0
 43
0.0007999999797903
 43
0.0
 43
0.0
 43
0.0
 43
0.0
 43
1.0
 43
0.0
 43
0.0
 43
0.0
 43
0.0
 43
1.0
 49
0.0007999999797903
 49
0.0
 49
0.0
 49
0.0
 49
0.0
 49
0.0007999999797903
 49
0.0
 49
0.0
 49
0.0
 49
0.0
 49
1.0
 49
0.0
 49
0.0
 49
0.0
 49
0.0
 49
1.0
142
0.0007999999797903
142
0.0
142
0.0
142
0.0
142
0.0
142
0.0007999999797903
142
0.0
142
0.0
142
0.0
142
0.0
142
1.0
142
0.0
142
0.0
142
0.0
142
0.0
142
1.0
144
0.0007999999797903
144
0.0
144
0.0
144
0.0
144
0.0
144
0.0007999999797903
144
0.0
144
0.0
144
0.0
144
0.0
144
1.0
144
0.0
144
0.0
144
0.0
144
0.0
144
1.0
 94
       63
1001
ACAD
1070
    -1
1070
     3
1070
     0
1000

1071
        0
1070
     0
  0
MLEADERSTYLE
  5
12E
102
{ACAD_REACTORS
330
12D
102
}
330
12D
100
AcDbMLeaderStyle
179
     2
170
     2
171
     1
172
     0
 90
        2
 40
0.0
 41
0.0
173
     1
 91
-1056964608
340
14
 92
       -2
290
     1
 42
2.0
291
     1
 43
8.0
  3
Standard
 44
4.0
300

342
11
174
     1
178
     1
175
     1
176
     0
 93
-1056964608
 45
4.0
292
     0
297
     0
 46
4.0
 94
-1056964608
 47
1.0
 49
1.0
140
1.0
293
     1
141
0.0
294
     1
177
     0
142
1.0
295
     0
296
     0
143
3.75
271
     0
272
     9
273
     9
298
     0
  0
MLEADERSTYLE
  5
4A8E
102
{ACAD_REACTORS
330
12D
330
B175
330
B1CE
330
BCE4
330
B48C
330
B48D
102
}
330
12D
100
AcDbMLeaderStyle
179
     2
170
     2
171
     1
172
     0
 90
        2
 40
1.047197551196596
 41
1.570796326794896
173
     1
 91
-1056964608
340
14
 92
       -2
290
     1
 42
2.0
291
     1
 43
4.0
  3
Standard
341
1391C
 44
0.5
300

342
21C
174
     1
178
     1
175
     1
176
     0
 93
-1056964608
 45
2.0
292
     0
297
     0
 46
4.0
 94
-1056964608
 47
1.0
 49
1.0
140
1.0
293
     1
141
0.0
294
     1
177
     0
142
1.0
295
     0
296
     0
143
3.75
271
     0
272
     9
273
     9
298
     0
  0
MLINESTYLE
  5
18
102
{ACAD_REACTORS
330
17
102
}
330
17
100
AcDbMlineStyle
  2
STANDARD
 70
     0
  3

 62
   256
 51
90.0
 52
90.0
 71
     2
 49
0.5
 62
   256
  6
BYLAYER
 49
-0.5
 62
   256
  6
BYLAYER
  0
PLOTSETTINGS
  5
11BF1
102
{ACAD_REACTORS
330
19
102
}
330
19
100
AcDbPlotSettings
  1
セットアップ1
  2
RICOH MP C4503 JPN RPCS V2
  4
A4
  6

 40
5.873749732971191
 41
5.873747825622557
 42
5.873748779296875
 43
5.873748779296875
 44
209.9733276367186
 45
296.9259948730469
 46
0.0
 47
23.93257938322058
 48
949.825008138991
 49
466.5186406348989
140
1149.825008138991
141
633.5769522668432
142
1.0
143
0.8427676270535936
 70
 11956
 72
     1
 73
     1
 74
     4
  7
ｓｔｙle.ctb
 75
     0
147
1.186566697508431
 76
     0
 77
     2
 78
   300
148
-949.825008138991
149
-466.5186406348989
1001
ACAD_PSEXT
1000
RICOH MP C4503 JPN RPCS V2
1000
RICOH MP C4503 JPN RPCS V2
1000
IP_192.168.1.100
1000
RPCS Driver (For Windows)
1070
     0
  0
ACDBPLACEHOLDER
  5
F
102
{ACAD_REACTORS
330
E
102
}
330
E
  0
SCALE
  5
10D
102
{ACAD_REACTORS
330
10C
102
}
330
10C
100
AcDbScale
 70
     0
300
1:1
140
1.0
141
1.0
290
     1
  0
SCALE
  5
1BE
102
{ACAD_REACTORS
330
10C
102
}
330
10C
100
AcDbScale
 70
     0
300
1:2
140
1.0
141
2.0
290
     0
  0
SCALE
  5
1BF
102
{ACAD_REACTORS
330
10C
102
}
330
10C
100
AcDbScale
 70
     0
300
1:4
140
1.0
141
4.0
290
     0
  0
SCALE
  5
1C0
102
{ACAD_REACTORS
330
10C
102
}
330
10C
100
AcDbScale
 70
     0
300
1:5
140
1.0
141
5.0
290
     0
  0
SCALE
  5
1C1
102
{ACAD_REACTORS
330
10C
102
}
330
10C
100
AcDbScale
 70
     0
300
1:8
140
1.0
141
8.0
290
     0
  0
SCALE
  5
1C2
102
{ACAD_REACTORS
330
10C
102
}
330
10C
100
AcDbScale
 70
     0
300
1:10
140
1.0
141
10.0
290
     0
  0
SCALE
  5
1C3
102
{ACAD_REACTORS
330
10C
102
}
330
10C
100
AcDbScale
 70
     0
300
1:16
140
1.0
141
16.0
290
     0
  0
SCALE
  5
1C4
102
{ACAD_REACTORS
330
10C
102
}
330
10C
100
AcDbScale
 70
     0
300
1:20
140
1.0
141
20.0
290
     0
  0
SCALE
  5
1C5
102
{ACAD_REACTORS
330
10C
102
}
330
10C
100
AcDbScale
 70
     0
300
1:30
140
1.0
141
30.0
290
     0
  0
SCALE
  5
1C6
102
{ACAD_REACTORS
330
10C
102
}
330
10C
100
AcDbScale
 70
     0
300
1:40
140
1.0
141
40.0
290
     0
  0
SCALE
  5
1C7
102
{ACAD_REACTORS
330
10C
102
}
330
10C
100
AcDbScale
 70
     0
300
1:50
140
1.0
141
50.0
290
     0
  0
SCALE
  5
1C8
102
{ACAD_REACTORS
330
10C
102
}
330
10C
100
AcDbScale
 70
     0
300
1:100
140
1.0
141
100.0
290
     0
  0
SCALE
  5
1C9
102
{ACAD_REACTORS
330
10C
102
}
330
10C
100
AcDbScale
 70
     0
300
2:1
140
2.0
141
1.0
290
     0
  0
SCALE
  5
1CA
102
{ACAD_REACTORS
330
10C
102
}
330
10C
100
AcDbScale
 70
     0
300
4:1
140
4.0
141
1.0
290
     0
  0
SCALE
  5
1CB
102
{ACAD_REACTORS
330
10C
102
}
330
10C
100
AcDbScale
 70
     0
300
8:1
140
8.0
141
1.0
290
     0
  0
SCALE
  5
1CC
102
{ACAD_REACTORS
330
10C
102
}
330
10C
100
AcDbScale
 70
     0
300
10:1
140
10.0
141
1.0
290
     0
  0
SCALE
  5
1CD
102
{ACAD_REACTORS
330
10C
102
}
330
10C
100
AcDbScale
 70
     0
300
100:1
140
100.0
141
1.0
290
     0
  0
ACDBSECTIONVIEWSTYLE
  5
14742
102
{ACAD_REACTORS
330
14741
102
}
330
14741
100
AcDbModelDocViewStyle
 70
     0
  3
Metric50
290
     0
300
Metric50
 90
        0
100
AcDbSectionViewStyle
 70
     0
 71
     0
 90
      102
 71
     1
340
11
 62
   256
 40
5.0
340
0
340
0
 62
   256
 40
5.0
300
I, O, Q, S, X, Z
 40
10.0
 90
        0
 40
2.5
 90
        0
 71
     2
340
16
 90
       25
 62
   256
340
16
 90
       50
 62
   256
 40
5.0
 40
2.5
 40
5.0
 71
     3
340
11
 62
   256
 40
5.0
 90
        0
 40
15.0
 90
        1
300
%<\AcVar ViewSectionStartId>%-%<\AcVar ViewSectionEndId>% (%<\AcVar ViewScale \f "%sn">%)
 71
     4
 62
   256
 62
   257
300
ANSI31
 40
1.0
 90
        0
290
     0
290
     0
 90
        6
 40
0.0
 40
1.570796326794896
 40
0.2617993877991494
 40
1.308996938995747
 40
-0.2617993877991494
 40
1.832595714594045
  0
TABLESTYLE
  5
7F
102
{ACAD_XDICTIONARY
360
162
102
}
102
{ACAD_REACTORS
330
7E
102
}
330
7E
100
AcDbTableStyle
280
     0
  3
Standard
 70
     0
 71
     0
 40
1.5
 41
1.5
280
     0
281
     0
  7
Standard
140
4.5
170
     2
 62
     0
 63
     7
283
     0
 90
      512
 91
        0
  1

274
    -2
284
     1
 64
     0
275
    -2
285
     1
 65
     0
276
    -2
286
     1
 66
     0
277
    -2
287
     1
 67
     0
278
    -2
288
     1
 68
     0
279
    -2
289
     1
 69
     0
  7
Standard
140
6.0
170
     5
 62
     0
 63
     7
283
     0
 90
      512
 91
        0
  1

274
    -2
284
     1
 64
     0
275
    -2
285
     1
 65
     0
276
    -2
286
     1
 66
     0
277
    -2
287
     1
 67
     0
278
    -2
288
     1
 68
     0
279
    -2
289
     1
 69
     0
  7
Standard
140
4.5
170
     5
 62
     0
 63
     7
283
     0
 90
      512
 91
        0
  1

274
    -2
284
     1
 64
     0
275
    -2
285
     1
 65
     0
276
    -2
286
     1
 66
     0
277
    -2
287
     1
 67
     0
278
    -2
288
     1
 68
     0
279
    -2
289
     1
 69
     0
  0
VISUALSTYLE
  5
F5
102
{ACAD_REACTORS
330
EF
102
}
330
EF
100
AcDbVisualStyle
  2
2dWireframe
 70
     4
177
     3
291
     0
 70
    58
 90
        0
176
     1
 90
        2
176
     1
 90
        1
176
     1
 90
        0
176
     1
 40
0.6
176
     1
 40
30.0
176
     1
 62
     7
420
 16777215
176
     1
 90
        1
176
     1
 90
        4
176
     1
 62
     7
176
     1
 62
   257
176
     1
 90
        1
176
     1
 90
        1
176
     1
 40
1.0
176
     1
 90
        0
176
     1
 62
   257
176
     1
 40
1.0
176
     1
 90
        1
176
     1
 90
        6
176
     1
 90
        2
176
     1
 62
     7
176
     1
 90
        5
176
     1
 90
        0
176
     1
 90
        0
176
     1
290
     0
176
     1
 90
        1
176
     1
 40
0.0
176
     1
 90
        0
176
     1
290
     1
176
     1
290
     1
176
     1
290
     0
176
     1
290
     0
176
     1
290
     0
176
     1
290
     0
176
     1
290
     0
176
     1
290
     0
176
     1
290
     0
176
     1
 90
       50
176
     1
 40
0.0
176
     1
 40
1.0
176
     1
 90
        0
176
     1
 62
    18
176
     1
 90
       50
176
     1
 90
        3
176
     1
 62
     5
420
      255
176
     1
290
     0
176
     1
 90
       50
176
     1
 90
       50
176
     1
 90
       50
176
     1
290
     0
176
     1
 90
       50
176
     1
 62
   256
176
     0
 40
1.0
176
     0
 90
        2
176
     1
  1
strokes_ogs.tif
176
     1
290
     0
176
     1
 40
1.0
176
     1
 40
1.0
176
     1
  0
VISUALSTYLE
  5
F4
102
{ACAD_REACTORS
330
EF
102
}
330
EF
100
AcDbVisualStyle
  2
Basic
 70
     7
177
     3
291
     1
 70
    58
 90
        1
176
     1
 90
        0
176
     1
 90
        1
176
     1
 90
        0
176
     1
 40
0.6
176
     1
 40
30.0
176
     1
 62
     7
420
 16777215
176
     1
 90
        0
176
     1
 90
        4
176
     1
 62
     7
176
     1
 62
   257
176
     1
 90
        1
176
     1
 90
        1
176
     1
 40
1.0
176
     1
 90
        8
176
     1
 62
     7
176
     1
 40
1.0
176
     1
 90
        1
176
     1
 90
        6
176
     1
 90
        2
176
     1
 62
     7
176
     1
 90
        5
176
     1
 90
        0
176
     1
 90
        0
176
     1
290
     0
176
     1
 90
        1
176
     1
 40
0.0
176
     1
 90
        0
176
     1
290
     0
176
     1
290
     1
176
     1
290
     1
176
     1
290
     0
176
     1
290
     0
176
     1
290
     0
176
     1
290
     0
176
     1
290
     0
176
     1
290
     0
176
     1
 90
       50
176
     1
 40
0.0
176
     1
 40
1.0
176
     1
 90
        0
176
     1
 62
    18
176
     1
 90
       50
176
     1
 90
        3
176
     1
 62
     5
420
      255
176
     1
290
     0
176
     1
 90
       50
176
     1
 90
       50
176
     1
 90
       50
176
     1
290
     0
176
     1
 90
       50
176
     1
 62
   256
176
     0
 40
1.0
176
     0
 90
        2
176
     1
  1
strokes_ogs.tif
176
     1
290
     0
176
     1
 40
1.0
176
     1
 40
1.0
176
     1
  0
VISUALSTYLE
  5
FB
102
{ACAD_REACTORS
330
EF
102
}
330
EF
100
AcDbVisualStyle
  2
Brighten
 70
    12
177
     3
291
     1
 70
    58
 90
        2
176
     1
 90
        2
176
     1
 90
        1
176
     1
 90
        0
176
     1
 40
0.6
176
     1
 40
30.0
176
     1
 62
     7
420
 16777215
176
     1
 90
        1
176
     1
 90
        4
176
     1
 62
     7
176
     1
 62
   257
176
     1
 90
        1
176
     1
 90
        1
176
     1
 40
1.0
176
     1
 90
        8
176
     1
 62
     7
176
     1
 40
1.0
176
     1
 90
        1
176
     1
 90
        6
176
     1
 90
        2
176
     1
 62
     7
176
     1
 90
        5
176
     1
 90
        0
176
     1
 90
        0
176
     1
290
     0
176
     1
 90
        1
176
     1
 40
50.0
176
     1
 90
        0
176
     1
290
     0
176
     1
290
     1
176
     1
290
     1
176
     1
290
     0
176
     1
290
     0
176
     1
290
     0
176
     1
290
     0
176
     1
290
     0
176
     1
290
     0
176
     1
 90
       50
176
     1
 40
0.0
176
     1
 40
1.0
176
     1
 90
        0
176
     1
 62
    18
176
     1
 90
       50
176
     1
 90
        3
176
     1
 62
     5
420
      255
176
     1
290
     0
176
     1
 90
       50
176
     1
 90
       50
176
     1
 90
       50
176
     1
290
     0
176
     1
 90
       50
176
     1
 62
   256
176
     0
 40
1.0
176
     0
 90
        2
176
     1
  1
strokes_ogs.tif
176
     1
290
     0
176
     1
 40
1.0
176
     1
 40
1.0
176
     1
  0
VISUALSTYLE
  5
FF
102
{ACAD_REACTORS
330
EF
102
}
330
EF
100
AcDbVisualStyle
  2
ColorChange
 70
    16
177
     3
291
     1
 70
    58
 90
        2
176
     1
 90
        2
176
     1
 90
        3
176
     1
 90
        0
176
     1
 40
0.6
176
     1
 40
30.0
176
     1
 62
     8
420
  8421504
176
     1
 90
        1
176
     1
 90
        4
176
     1
 62
     7
176
     1
 62
   257
176
     1
 90
        1
176
     1
 90
        1
176
     1
 40
1.0
176
     1
 90
        8
176
     1
 62
     8
420
  8421504
176
     1
 40
1.0
176
     1
 90
        1
176
     1
 90
        6
176
     1
 90
        2
176
     1
 62
     7
176
     1
 90
        5
176
     1
 90
        0
176
     1
 90
        0
176
     1
290
     0
176
     1
 90
        1
176
     1
 40
0.0
176
     1
 90
        0
176
     1
290
     0
176
     1
290
     1
176
     1
290
     1
176
     1
290
     0
176
     1
290
     0
176
     1
290
     0
176
     1
290
     0
176
     1
290
     0
176
     1
290
     0
176
     1
 90
       50
176
     1
 40
0.0
176
     1
 40
1.0
176
     1
 90
        0
176
     1
 62
    18
176
     1
 90
       50
176
     1
 90
        3
176
     1
 62
     5
420
      255
176
     1
290
     0
176
     1
 90
       50
176
     1
 90
       50
176
     1
 90
       50
176
     1
290
     0
176
     1
 90
       50
176
     1
 62
   256
176
     0
 40
1.0
176
     0
 90
        2
176
     1
  1
strokes_ogs.tif
176
     1
290
     0
176
     1
 40
1.0
176
     1
 40
1.0
176
     1
  0
VISUALSTYLE
  5
F8
102
{ACAD_REACTORS
330
EF
102
}
330
EF
100
AcDbVisualStyle
  2
Conceptual
 70
     9
177
     3
291
     0
 70
    58
 90
        3
176
     1
 90
        2
176
     1
 90
        1
176
     1
 90
        0
176
     1
 40
0.6
176
     1
 40
30.0
176
     1
 62
     7
420
 16777215
176
     1
 90
        2
176
     1
 90
        2
176
     1
 62
     7
176
     1
 62
   257
176
     1
 90
        1
176
     1
 90
        1
176
     1
 40
40.0
176
     1
 90
        8
176
     1
 62
     7
176
     1
 40
1.0
176
     1
 90
        1
176
     1
 90
        6
176
     1
 90
        2
176
     1
 62
     7
176
     1
 90
        3
176
     1
 90
        0
176
     1
 90
        0
176
     1
290
     0
176
     1
 90
        1
176
     1
 40
0.0
176
     1
 90
        0
176
     1
290
     0
176
     1
290
     1
176
     1
290
     1
176
     1
290
     0
176
     1
290
     0
176
     1
290
     0
176
     1
290
     0
176
     1
290
     0
176
     1
290
     0
176
     1
 90
       50
176
     1
 40
0.0
176
     1
 40
1.0
176
     1
 90
        0
176
     1
 62
    18
176
     1
 90
       50
176
     1
 90
        3
176
     1
 62
     5
420
      255
176
     1
290
     0
176
     1
 90
       50
176
     1
 90
       50
176
     1
 90
       50
176
     1
290
     0
176
     1
 90
       50
176
     1
 62
   256
176
     0
 40
1.0
176
     0
 90
        2
176
     1
  1
strokes_ogs.tif
176
     1
290
     0
176
     1
 40
1.0
176
     1
 40
1.0
176
     1
  0
VISUALSTYLE
  5
FA
102
{ACAD_REACTORS
330
EF
102
}
330
EF
100
AcDbVisualStyle
  2
Dim
 70
    11
177
     3
291
     1
 70
    58
 90
        2
176
     1
 90
        2
176
     1
 90
        1
176
     1
 90
        0
176
     1
 40
0.6
176
     1
 40
30.0
176
     1
 62
     7
420
 16777215
176
     1
 90
        1
176
     1
 90
        4
176
     1
 62
     7
176
     1
 62
   257
176
     1
 90
        1
176
     1
 90
        1
176
     1
 40
1.0
176
     1
 90
        8
176
     1
 62
     7
176
     1
 40
1.0
176
     1
 90
        1
176
     1
 90
        6
176
     1
 90
        2
176
     1
 62
     7
176
     1
 90
        5
176
     1
 90
        0
176
     1
 90
        0
176
     1
290
     0
176
     1
 90
        1
176
     1
 40
-50.0
176
     1
 90
        0
176
     1
290
     0
176
     1
290
     1
176
     1
290
     1
176
     1
290
     0
176
     1
290
     0
176
     1
290
     0
176
     1
290
     0
176
     1
290
     0
176
     1
290
     0
176
     1
 90
       50
176
     1
 40
0.0
176
     1
 40
1.0
176
     1
 90
        0
176
     1
 62
    18
176
     1
 90
       50
176
     1
 90
        3
176
     1
 62
     5
420
      255
176
     1
290
     0
176
     1
 90
       50
176
     1
 90
       50
176
     1
 90
       50
176
     1
290
     0
176
     1
 90
       50
176
     1
 62
   256
176
     0
 40
1.0
176
     0
 90
        2
176
     1
  1
strokes_ogs.tif
176
     1
290
     0
176
     1
 40
1.0
176
     1
 40
1.0
176
     1
  0
VISUALSTYLE
  5
1E6
102
{ACAD_REACTORS
330
EF
102
}
330
EF
100
AcDbVisualStyle
  2
EdgeColorOff
 70
    22
177
     3
291
     1
 70
    58
 90
        2
176
     0
 90
        2
176
     0
 90
        0
176
     0
 90
        0
176
     0
 40
0.6
176
     0
 40
30.0
176
     0
 62
     7
420
 16777215
176
     0
 90
        1
176
     0
 90
        4
176
     0
 62
     7
176
     0
 62
   257
176
     0
 90
        1
176
     0
 90
        1
176
     0
 40
1.0
176
     0
 90
        8
176
     2
 62
     7
176
     0
 40
1.0
176
     0
 90
        1
176
     0
 90
        6
176
     0
 90
        2
176
     0
 62
     7
176
     0
 90
        5
176
     0
 90
        0
176
     0
 90
        0
176
     0
290
     0
176
     0
 90
        1
176
     0
 40
0.0
176
     0
 90
        0
176
     0
290
     0
176
     1
290
     1
176
     1
290
     1
176
     1
290
     0
176
     1
290
     0
176
     1
290
     0
176
     1
290
     0
176
     1
290
     0
176
     1
290
     0
176
     1
 90
       50
176
     1
 40
0.0
176
     1
 40
1.0
176
     1
 90
        0
176
     1
 62
    18
176
     1
 90
       50
176
     1
 90
        3
176
     1
 62
     5
420
      255
176
     1
290
     0
176
     1
 90
       50
176
     1
 90
       50
176
     1
 90
       50
176
     1
290
     0
176
     1
 90
       50
176
     1
 62
   256
176
     0
 40
1.0
176
     0
 90
        2
176
     1
  1
strokes_ogs.tif
176
     1
290
     0
176
     1
 40
1.0
176
     1
 40
1.0
176
     1
  0
VISUALSTYLE
  5
FE
102
{ACAD_REACTORS
330
EF
102
}
330
EF
100
AcDbVisualStyle
  2
Facepattern
 70
    15
177
     3
291
     1
 70
    58
 90
        2
176
     1
 90
        2
176
     1
 90
        1
176
     1
 90
        0
176
     1
 40
0.6
176
     1
 40
30.0
176
     1
 62
     7
420
 16777215
176
     1
 90
        1
176
     1
 90
        4
176
     1
 62
     7
176
     1
 62
   257
176
     1
 90
        1
176
     1
 90
        1
176
     1
 40
1.0
176
     1
 90
        8
176
     1
 62
     7
176
     1
 40
1.0
176
     1
 90
        1
176
     1
 90
        6
176
     1
 90
        2
176
     1
 62
     7
176
     1
 90
        5
176
     1
 90
        0
176
     1
 90
        0
176
     1
290
     0
176
     1
 90
        1
176
     1
 40
0.0
176
     1
 90
        0
176
     1
290
     0
176
     1
290
     1
176
     1
290
     1
176
     1
290
     0
176
     1
290
     0
176
     1
290
     0
176
     1
290
     0
176
     1
290
     0
176
     1
290
     0
176
     1
 90
       50
176
     1
 40
0.0
176
     1
 40
1.0
176
     1
 90
        0
176
     1
 62
    18
176
     1
 90
       50
176
     1
 90
        3
176
     1
 62
     5
420
      255
176
     1
290
     0
176
     1
 90
       50
176
     1
 90
       50
176
     1
 90
       50
176
     1
290
     0
176
     1
 90
       50
176
     1
 62
   256
176
     0
 40
1.0
176
     0
 90
        2
176
     1
  1
strokes_ogs.tif
176
     1
290
     0
176
     1
 40
1.0
176
     1
 40
1.0
176
     1
  0
VISUALSTYLE
  5
F0
102
{ACAD_REACTORS
330
EF
102
}
330
EF
100
AcDbVisualStyle
  2
Flat
 70
     0
177
     3
291
     1
 70
    58
 90
        2
176
     1
 90
        1
176
     1
 90
        1
176
     1
 90
        2
176
     1
 40
0.6
176
     1
 40
30.0
176
     1
 62
     7
420
 16777215
176
     1
 90
        0
176
     1
 90
        0
176
     1
 62
     7
176
     1
 62
   257
176
     1
 90
        1
176
     1
 90
        1
176
     1
 40
1.0
176
     1
 90
        8
176
     1
 62
     7
176
     1
 40
1.0
176
     1
 90
        1
176
     1
 90
        6
176
     1
 90
        2
176
     1
 62
     7
176
     1
 90
        5
176
     1
 90
        0
176
     1
 90
        0
176
     1
290
     0
176
     1
 90
       13
176
     1
 40
0.0
176
     1
 90
        0
176
     1
290
     0
176
     1
290
     1
176
     1
290
     1
176
     1
290
     0
176
     1
290
     0
176
     1
290
     0
176
     1
290
     0
176
     1
290
     0
176
     1
290
     0
176
     1
 90
       50
176
     1
 40
0.0
176
     1
 40
1.0
176
     1
 90
        0
176
     1
 62
    18
176
     1
 90
       50
176
     1
 90
        3
176
     1
 62
     5
420
      255
176
     1
290
     0
176
     1
 90
       50
176
     1
 90
       50
176
     1
 90
       50
176
     1
290
     0
176
     1
 90
       50
176
     1
 62
   256
176
     0
 40
1.0
176
     0
 90
        2
176
     1
  1
strokes_ogs.tif
176
     1
290
     0
176
     1
 40
1.0
176
     1
 40
1.0
176
     1
  0
VISUALSTYLE
  5
F1
102
{ACAD_REACTORS
330
EF
102
}
330
EF
100
AcDbVisualStyle
  2
FlatWithEdges
 70
     1
177
     3
291
     1
 70
    58
 90
        2
176
     1
 90
        1
176
     1
 90
        1
176
     1
 90
        2
176
     1
 40
0.6
176
     1
 40
30.0
176
     1
 62
     7
420
 16777215
176
     1
 90
        1
176
     1
 90
        0
176
     1
 62
     7
176
     1
 62
   257
176
     1
 90
        1
176
     1
 90
        1
176
     1
 40
1.0
176
     1
 90
        0
176
     1
 62
   257
176
     1
 40
1.0
176
     1
 90
        1
176
     1
 90
        6
176
     1
 90
        2
176
     1
 62
     7
176
     1
 90
        5
176
     1
 90
        0
176
     1
 90
        0
176
     1
290
     0
176
     1
 90
       13
176
     1
 40
0.0
176
     1
 90
        0
176
     1
290
     0
176
     1
290
     1
176
     1
290
     1
176
     1
290
     0
176
     1
290
     0
176
     1
290
     0
176
     1
290
     0
176
     1
290
     0
176
     1
290
     0
176
     1
 90
       50
176
     1
 40
0.0
176
     1
 40
1.0
176
     1
 90
        0
176
     1
 62
    18
176
     1
 90
       50
176
     1
 90
        3
176
     1
 62
     5
420
      255
176
     1
290
     0
176
     1
 90
       50
176
     1
 90
       50
176
     1
 90
       50
176
     1
290
     0
176
     1
 90
       50
176
     1
 62
   256
176
     0
 40
1.0
176
     0
 90
        2
176
     1
  1
strokes_ogs.tif
176
     1
290
     0
176
     1
 40
1.0
176
     1
 40
1.0
176
     1
  0
VISUALSTYLE
  5
F2
102
{ACAD_REACTORS
330
EF
102
}
330
EF
100
AcDbVisualStyle
  2
Gouraud
 70
     2
177
     3
291
     1
 70
    58
 90
        2
176
     1
 90
        2
176
     1
 90
        1
176
     1
 90
        2
176
     1
 40
0.6
176
     1
 40
30.0
176
     1
 62
     7
420
 16777215
176
     1
 90
        0
176
     1
 90
        0
176
     1
 62
     7
176
     1
 62
   257
176
     1
 90
        1
176
     1
 90
        1
176
     1
 40
1.0
176
     1
 90
        0
176
     1
 62
     7
176
     1
 40
1.0
176
     1
 90
        1
176
     1
 90
        6
176
     1
 90
        2
176
     1
 62
     7
176
     1
 90
        5
176
     1
 90
        0
176
     1
 90
        0
176
     1
290
     0
176
     1
 90
       13
176
     1
 40
0.0
176
     1
 90
        0
176
     1
290
     0
176
     1
290
     1
176
     1
290
     1
176
     1
290
     0
176
     1
290
     0
176
     1
290
     0
176
     1
290
     0
176
     1
290
     0
176
     1
290
     0
176
     1
 90
       50
176
     1
 40
0.0
176
     1
 40
1.0
176
     1
 90
        0
176
     1
 62
    18
176
     1
 90
       50
176
     1
 90
        3
176
     1
 62
     5
420
      255
176
     1
290
     0
176
     1
 90
       50
176
     1
 90
       50
176
     1
 90
       50
176
     1
290
     0
176
     1
 90
       50
176
     1
 62
   256
176
     0
 40
1.0
176
     0
 90
        2
176
     1
  1
strokes_ogs.tif
176
     1
290
     0
176
     1
 40
1.0
176
     1
 40
1.0
176
     1
  0
VISUALSTYLE
  5
F3
102
{ACAD_REACTORS
330
EF
102
}
330
EF
100
AcDbVisualStyle
  2
GouraudWithEdges
 70
     3
177
     3
291
     1
 70
    58
 90
        2
176
     1
 90
        2
176
     1
 90
        1
176
     1
 90
        2
176
     1
 40
0.6
176
     1
 40
30.0
176
     1
 62
     7
420
 16777215
176
     1
 90
        1
176
     1
 90
        0
176
     1
 62
     7
176
     1
 62
   257
176
     1
 90
        1
176
     1
 90
        1
176
     1
 40
1.0
176
     1
 90
        0
176
     1
 62
   257
176
     1
 40
1.0
176
     1
 90
        1
176
     1
 90
        6
176
     1
 90
        2
176
     1
 62
     7
176
     1
 90
        5
176
     1
 90
        0
176
     1
 90
        0
176
     1
290
     0
176
     1
 90
       13
176
     1
 40
0.0
176
     1
 90
        0
176
     1
290
     0
176
     1
290
     1
176
     1
290
     1
176
     1
290
     0
176
     1
290
     0
176
     1
290
     0
176
     1
290
     0
176
     1
290
     0
176
     1
290
     0
176
     1
 90
       50
176
     1
 40
0.0
176
     1
 40
1.0
176
     1
 90
        0
176
     1
 62
    18
176
     1
 90
       50
176
     1
 90
        3
176
     1
 62
     5
420
      255
176
     1
290
     0
176
     1
 90
       50
176
     1
 90
       50
176
     1
 90
       50
176
     1
290
     0
176
     1
 90
       50
176
     1
 62
   256
176
     0
 40
1.0
176
     0
 90
        2
176
     1
  1
strokes_ogs.tif
176
     1
290
     0
176
     1
 40
1.0
176
     1
 40
1.0
176
     1
  0
VISUALSTYLE
  5
F7
102
{ACAD_REACTORS
330
EF
102
}
330
EF
100
AcDbVisualStyle
  2
Hidden
 70
     6
177
     3
291
     0
 70
    58
 90
        1
176
     1
 90
        2
176
     1
 90
        2
176
     1
 90
        0
176
     1
 40
0.6
176
     1
 40
30.0
176
     1
 62
     7
420
 16777215
176
     1
 90
        2
176
     1
 90
        2
176
     1
 62
     7
176
     1
 62
   257
176
     1
 90
        2
176
     1
 90
        1
176
     1
 40
40.0
176
     1
 90
        0
176
     1
 62
   257
176
     1
 40
1.0
176
     1
 90
        1
176
     1
 90
        6
176
     1
 90
        2
176
     1
 62
     7
176
     1
 90
        3
176
     1
 90
        0
176
     1
 90
        0
176
     1
290
     0
176
     1
 90
        1
176
     1
 40
0.0
176
     1
 90
        0
176
     1
290
     0
176
     1
290
     1
176
     1
290
     1
176
     1
290
     0
176
     1
290
     0
176
     1
290
     0
176
     1
290
     0
176
     1
290
     0
176
     1
290
     0
176
     1
 90
       50
176
     1
 40
0.0
176
     1
 40
1.0
176
     1
 90
        0
176
     1
 62
    18
176
     1
 90
       50
176
     1
 90
        3
176
     1
 62
     5
420
      255
176
     1
290
     0
176
     1
 90
       50
176
     1
 90
       50
176
     1
 90
       50
176
     1
290
     0
176
     1
 90
       50
176
     1
 62
   256
176
     0
 40
1.0
176
     0
 90
        2
176
     1
  1
strokes_ogs.tif
176
     1
290
     0
176
     1
 40
1.0
176
     1
 40
1.0
176
     1
  0
VISUALSTYLE
  5
1E4
102
{ACAD_REACTORS
330
EF
102
}
330
EF
100
AcDbVisualStyle
  2
JitterOff
 70
    20
177
     3
291
     1
 70
    58
 90
        2
176
     0
 90
        2
176
     0
 90
        0
176
     0
 90
        0
176
     0
 40
0.6
176
     0
 40
30.0
176
     0
 62
     7
420
 16777215
176
     0
 90
        1
176
     0
 90
        4
176
     0
 62
     7
176
     0
 62
   257
176
     0
 90
        1
176
     0
 90
        1
176
     0
 40
1.0
176
     0
 90
       10
176
     2
 62
     7
176
     0
 40
1.0
176
     0
 90
        1
176
     0
 90
        6
176
     0
 90
        2
176
     0
 62
     7
176
     0
 90
        5
176
     0
 90
        0
176
     0
 90
        0
176
     0
290
     0
176
     0
 90
        1
176
     0
 40
0.0
176
     0
 90
        0
176
     0
290
     0
176
     1
290
     1
176
     1
290
     1
176
     1
290
     0
176
     1
290
     0
176
     1
290
     0
176
     1
290
     0
176
     1
290
     0
176
     1
290
     0
176
     1
 90
       50
176
     1
 40
0.0
176
     1
 40
1.0
176
     1
 90
        0
176
     1
 62
    18
176
     1
 90
       50
176
     1
 90
        3
176
     1
 62
     5
420
      255
176
     1
290
     0
176
     1
 90
       50
176
     1
 90
       50
176
     1
 90
       50
176
     1
290
     0
176
     1
 90
       50
176
     1
 62
   256
176
     0
 40
1.0
176
     0
 90
        2
176
     1
  1
strokes_ogs.tif
176
     1
290
     0
176
     1
 40
1.0
176
     1
 40
1.0
176
     1
  0
VISUALSTYLE
  5
FD
102
{ACAD_REACTORS
330
EF
102
}
330
EF
100
AcDbVisualStyle
  2
Linepattern
 70
    14
177
     3
291
     1
 70
    58
 90
        2
176
     1
 90
        2
176
     1
 90
        1
176
     1
 90
        0
176
     1
 40
0.6
176
     1
 40
30.0
176
     1
 62
     7
420
 16777215
176
     1
 90
        1
176
     1
 90
        4
176
     1
 62
     7
176
     1
 62
   257
176
     1
 90
        7
176
     1
 90
        7
176
     1
 40
1.0
176
     1
 90
        8
176
     1
 62
     7
176
     1
 40
1.0
176
     1
 90
        1
176
     1
 90
        6
176
     1
 90
        2
176
     1
 62
     7
176
     1
 90
        5
176
     1
 90
        0
176
     1
 90
        0
176
     1
290
     0
176
     1
 90
        1
176
     1
 40
0.0
176
     1
 90
        0
176
     1
290
     0
176
     1
290
     1
176
     1
290
     1
176
     1
290
     0
176
     1
290
     0
176
     1
290
     0
176
     1
290
     0
176
     1
290
     0
176
     1
290
     0
176
     1
 90
       50
176
     1
 40
0.0
176
     1
 40
1.0
176
     1
 90
        0
176
     1
 62
    18
176
     1
 90
       50
176
     1
 90
        3
176
     1
 62
     5
420
      255
176
     1
290
     0
176
     1
 90
       50
176
     1
 90
       50
176
     1
 90
       50
176
     1
290
     0
176
     1
 90
       50
176
     1
 62
   256
176
     0
 40
1.0
176
     0
 90
        2
176
     1
  1
strokes_ogs.tif
176
     1
290
     0
176
     1
 40
1.0
176
     1
 40
1.0
176
     1
  0
VISUALSTYLE
  5
1E5
102
{ACAD_REACTORS
330
EF
102
}
330
EF
100
AcDbVisualStyle
  2
OverhangOff
 70
    21
177
     3
291
     1
 70
    58
 90
        2
176
     0
 90
        2
176
     0
 90
        0
176
     0
 90
        0
176
     0
 40
0.6
176
     0
 40
30.0
176
     0
 62
     7
420
 16777215
176
     0
 90
        1
176
     0
 90
        4
176
     0
 62
     7
176
     0
 62
   257
176
     0
 90
        1
176
     0
 90
        1
176
     0
 40
1.0
176
     0
 90
        9
176
     2
 62
     7
176
     0
 40
1.0
176
     0
 90
        1
176
     0
 90
        6
176
     0
 90
        2
176
     0
 62
     7
176
     0
 90
        5
176
     0
 90
        0
176
     0
 90
        0
176
     0
290
     0
176
     0
 90
        1
176
     0
 40
0.0
176
     0
 90
        0
176
     0
290
     0
176
     1
290
     1
176
     1
290
     1
176
     1
290
     0
176
     1
290
     0
176
     1
290
     0
176
     1
290
     0
176
     1
290
     0
176
     1
290
     0
176
     1
 90
       50
176
     1
 40
0.0
176
     1
 40
1.0
176
     1
 90
        0
176
     1
 62
    18
176
     1
 90
       50
176
     1
 90
        3
176
     1
 62
     5
420
      255
176
     1
290
     0
176
     1
 90
       50
176
     1
 90
       50
176
     1
 90
       50
176
     1
290
     0
176
     1
 90
       50
176
     1
 62
   256
176
     0
 40
1.0
176
     0
 90
        2
176
     1
  1
strokes_ogs.tif
176
     1
290
     0
176
     1
 40
1.0
176
     1
 40
1.0
176
     1
  0
VISUALSTYLE
  5
F9
102
{ACAD_REACTORS
330
EF
102
}
330
EF
100
AcDbVisualStyle
  2
Realistic
 70
     8
177
     3
291
     0
 70
    58
 90
        2
176
     1
 90
        3
176
     1
 90
        0
176
     1
 90
        2
176
     1
 40
0.6
176
     1
 40
30.0
176
     1
 62
     7
420
 16777215
176
     1
 90
        0
176
     1
 90
        0
176
     1
 62
     7
176
     1
 62
   257
176
     1
 90
        1
176
     1
 90
        1
176
     1
 40
1.0
176
     1
 90
        8
176
     1
 62
   257
176
     1
 40
1.0
176
     1
 90
        1
176
     1
 90
        6
176
     1
 90
        2
176
     1
 62
     7
176
     1
 90
        3
176
     1
 90
        0
176
     1
 90
        0
176
     1
290
     0
176
     1
 90
       13
176
     1
 40
0.0
176
     1
 90
        0
176
     1
290
     0
176
     1
290
     1
176
     1
290
     1
176
     1
290
     0
176
     1
290
     0
176
     1
290
     0
176
     1
290
     0
176
     1
290
     0
176
     1
290
     0
176
     1
 90
       50
176
     1
 40
0.0
176
     1
 40
1.0
176
     1
 90
        0
176
     1
 62
    18
176
     1
 90
       50
176
     1
 90
        3
176
     1
 62
     5
420
      255
176
     1
290
     0
176
     1
 90
       50
176
     1
 90
       50
176
     1
 90
       50
176
     1
290
     0
176
     1
 90
       50
176
     1
 62
   256
176
     0
 40
1.0
176
     0
 90
        2
176
     1
  1
strokes_ogs.tif
176
     1
290
     0
176
     1
 40
1.0
176
     1
 40
1.0
176
     1
  0
VISUALSTYLE
  5
1F3
102
{ACAD_REACTORS
330
EF
102
}
330
EF
100
AcDbVisualStyle
  2
Shaded
 70
    27
177
     3
291
     0
 70
    58
 90
        2
176
     1
 90
        2
176
     1
 90
        1
176
     1
 90
        2
176
     1
 40
0.6
176
     1
 40
30.0
176
     1
 62
     7
420
 16777215
176
     1
 90
        0
176
     1
 90
        4
176
     1
 62
     7
176
     1
 62
   257
176
     1
 90
        1
176
     1
 90
        1
176
     1
 40
1.0
176
     1
 90
        8
176
     1
 62
   257
176
     1
 40
1.0
176
     1
 90
        1
176
     1
 90
        6
176
     1
 90
        2
176
     1
 62
     8
420
  7895160
176
     1
 90
        3
176
     1
 90
        0
176
     1
 90
        0
176
     1
290
     0
176
     1
 90
        5
176
     1
 40
0.0
176
     1
 90
        0
176
     1
290
     0
176
     1
290
     1
176
     1
290
     1
176
     1
290
     0
176
     1
290
     0
176
     1
290
     0
176
     1
290
     0
176
     1
290
     0
176
     1
290
     0
176
     1
 90
       50
176
     1
 40
0.0
176
     1
 40
1.0
176
     1
 90
        0
176
     1
 62
    18
176
     1
 90
       50
176
     1
 90
        3
176
     1
 62
     5
420
      255
176
     1
290
     0
176
     1
 90
       50
176
     1
 90
       50
176
     1
 90
       50
176
     1
290
     0
176
     1
 90
       50
176
     1
 62
   256
176
     0
 40
1.0
176
     0
 90
        2
176
     1
  1
strokes_ogs.tif
176
     1
290
     0
176
     1
 40
1.0
176
     1
 40
1.0
176
     1
  0
VISUALSTYLE
  5
1F2
102
{ACAD_REACTORS
330
EF
102
}
330
EF
100
AcDbVisualStyle
  2
Shaded with edges
 70
    26
177
     3
291
     0
 70
    58
 90
        2
176
     1
 90
        2
176
     1
 90
        1
176
     1
 90
        2
176
     1
 40
0.6
176
     1
 40
30.0
176
     1
 62
     7
420
 16777215
176
     1
 90
        1
176
     1
 90
        2
176
     1
 62
     7
176
     1
 62
   257
176
     1
 90
        2
176
     1
 90
        1
176
     1
 40
1.0
176
     1
 90
        8
176
     1
 62
   257
176
     1
 40
1.0
176
     1
 90
        1
176
     1
 90
        6
176
     1
 90
        2
176
     1
 62
     7
176
     1
 90
        3
176
     1
 90
        0
176
     1
 90
        0
176
     1
290
     0
176
     1
 90
        5
176
     1
 40
0.0
176
     1
 90
        0
176
     1
290
     0
176
     1
290
     1
176
     1
290
     1
176
     1
290
     0
176
     1
290
     0
176
     1
290
     0
176
     1
290
     0
176
     1
290
     0
176
     1
290
     0
176
     1
 90
       50
176
     1
 40
0.0
176
     1
 40
1.0
176
     1
 90
        0
176
     1
 62
    18
176
     1
 90
       50
176
     1
 90
        3
176
     1
 62
     5
420
      255
176
     1
290
     0
176
     1
 90
       50
176
     1
 90
       50
176
     1
 90
       50
176
     1
290
     0
176
     1
 90
       50
176
     1
 62
   256
176
     0
 40
1.0
176
     0
 90
        2
176
     1
  1
strokes_ogs.tif
176
     1
290
     0
176
     1
 40
1.0
176
     1
 40
1.0
176
     1
  0
VISUALSTYLE
  5
1EF
102
{ACAD_REACTORS
330
EF
102
}
330
EF
100
AcDbVisualStyle
  2
Shades of Gray
 70
    23
177
     3
291
     0
 70
    58
 90
        2
176
     1
 90
        2
176
     1
 90
        3
176
     1
 90
        0
176
     1
 40
0.6
176
     1
 40
30.0
176
     1
 62
     7
420
 16777215
176
     1
 90
        2
176
     1
 90
        2
176
     1
 62
     7
176
     1
 62
     7
176
     1
 90
        1
176
     1
 90
        1
176
     1
 40
40.0
176
     1
 90
        8
176
     1
 62
     7
176
     1
 40
1.0
176
     1
 90
        1
176
     1
 90
        6
176
     1
 90
        2
176
     1
 62
     7
176
     1
 90
        3
176
     1
 90
        0
176
     1
 90
        0
176
     1
290
     0
176
     1
 90
        1
176
     1
 40
0.0
176
     1
 90
        0
176
     1
290
     0
176
     1
290
     1
176
     1
290
     1
176
     1
290
     0
176
     1
290
     0
176
     1
290
     0
176
     1
290
     0
176
     1
290
     0
176
     1
290
     0
176
     1
 90
       50
176
     1
 40
0.0
176
     1
 40
1.0
176
     1
 90
        0
176
     1
 62
    18
176
     1
 90
       50
176
     1
 90
        3
176
     1
 62
     5
420
      255
176
     1
290
     0
176
     1
 90
       50
176
     1
 90
       50
176
     1
 90
       50
176
     1
290
     0
176
     1
 90
       50
176
     1
 62
   256
176
     0
 40
1.0
176
     0
 90
        2
176
     1
  1
strokes_ogs.tif
176
     1
290
     0
176
     1
 40
1.0
176
     1
 40
1.0
176
     1
  0
VISUALSTYLE
  5
1F0
102
{ACAD_REACTORS
330
EF
102
}
330
EF
100
AcDbVisualStyle
  2
Sketchy
 70
    24
177
     3
291
     0
 70
    58
 90
        1
176
     1
 90
        2
176
     1
 90
        2
176
     1
 90
        0
176
     1
 40
0.6
176
     1
 40
30.0
176
     1
 62
     7
420
 16777215
176
     1
 90
        2
176
     1
 90
        2
176
     1
 62
     7
176
     1
 62
     7
176
     1
 90
        1
176
     1
 90
        1
176
     1
 40
40.0
176
     1
 90
       11
176
     1
 62
     7
176
     1
 40
1.0
176
     1
 90
        1
176
     1
 90
        6
176
     1
 90
        2
176
     1
 62
     7
176
     1
 90
        6
176
     1
 90
        0
176
     1
 90
        0
176
     1
290
     0
176
     1
 90
        1
176
     1
 40
0.0
176
     1
 90
        0
176
     1
290
     0
176
     1
290
     1
176
     1
290
     1
176
     1
290
     0
176
     1
290
     0
176
     1
290
     0
176
     1
290
     0
176
     1
290
     0
176
     1
290
     0
176
     1
 90
       50
176
     1
 40
0.0
176
     1
 40
1.0
176
     1
 90
        0
176
     1
 62
    18
176
     1
 90
       50
176
     1
 90
        3
176
     1
 62
     5
420
      255
176
     1
290
     0
176
     1
 90
       50
176
     1
 90
       50
176
     1
 90
       50
176
     1
290
     0
176
     1
 90
       50
176
     1
 62
   256
176
     0
 40
1.0
176
     0
 90
        2
176
     1
  1
strokes_ogs.tif
176
     1
290
     0
176
     1
 40
1.0
176
     1
 40
1.0
176
     1
  0
VISUALSTYLE
  5
FC
102
{ACAD_REACTORS
330
EF
102
}
330
EF
100
AcDbVisualStyle
  2
Thicken
 70
    13
177
     3
291
     1
 70
    58
 90
        2
176
     1
 90
        2
176
     1
 90
        1
176
     1
 90
        0
176
     1
 40
0.6
176
     1
 40
30.0
176
     1
 62
     7
420
 16777215
176
     1
 90
        1
176
     1
 90
        4
176
     1
 62
     7
176
     1
 62
   257
176
     1
 90
        1
176
     1
 90
        1
176
     1
 40
1.0
176
     1
 90
       12
176
     1
 62
     7
176
     1
 40
1.0
176
     1
 90
        1
176
     1
 90
        6
176
     1
 90
        2
176
     1
 62
     7
176
     1
 90
        5
176
     1
 90
        0
176
     1
 90
        0
176
     1
290
     0
176
     1
 90
        1
176
     1
 40
0.0
176
     1
 90
        0
176
     1
290
     0
176
     1
290
     1
176
     1
290
     1
176
     1
290
     0
176
     1
290
     0
176
     1
290
     0
176
     1
290
     0
176
     1
290
     0
176
     1
290
     0
176
     1
 90
       50
176
     1
 40
0.0
176
     1
 40
1.0
176
     1
 90
        0
176
     1
 62
    18
176
     1
 90
       50
176
     1
 90
        3
176
     1
 62
     5
420
      255
176
     1
290
     0
176
     1
 90
       50
176
     1
 90
       50
176
     1
 90
       50
176
     1
290
     0
176
     1
 90
       50
176
     1
 62
   256
176
     0
 40
1.0
176
     0
 90
        2
176
     1
  1
strokes_ogs.tif
176
     1
290
     0
176
     1
 40
1.0
176
     1
 40
1.0
176
     1
  0
VISUALSTYLE
  5
F6
102
{ACAD_REACTORS
330
EF
102
}
330
EF
100
AcDbVisualStyle
  2
Wireframe
 70
     5
177
     3
291
     0
 70
    58
 90
        0
176
     1
 90
        2
176
     1
 90
        0
176
     1
 90
        0
176
     1
 40
0.6
176
     1
 40
30.0
176
     1
 62
     7
420
 16777215
176
     1
 90
        1
176
     1
 90
        4
176
     1
 62
     7
176
     1
 62
   257
176
     1
 90
        1
176
     1
 90
        1
176
     1
 40
1.0
176
     1
 90
        0
176
     1
 62
   257
176
     1
 40
1.0
176
     1
 90
        1
176
     1
 90
        6
176
     1
 90
        2
176
     1
 62
     7
176
     1
 90
        3
176
     1
 90
        0
176
     1
 90
        0
176
     1
290
     0
176
     1
 90
        1
176
     1
 40
0.0
176
     1
 90
        0
176
     1
290
     0
176
     1
290
     1
176
     1
290
     1
176
     1
290
     0
176
     1
290
     0
176
     1
290
     0
176
     1
290
     0
176
     1
290
     0
176
     1
290
     0
176
     1
 90
       50
176
     1
 40
0.0
176
     1
 40
1.0
176
     1
 90
        0
176
     1
 62
    18
176
     1
 90
       50
176
     1
 90
        3
176
     1
 62
     5
420
      255
176
     1
290
     0
176
     1
 90
       50
176
     1
 90
       50
176
     1
 90
       50
176
     1
290
     0
176
     1
 90
       50
176
     1
 62
   256
176
     0
 40
1.0
176
     0
 90
        2
176
     1
  1
strokes_ogs.tif
176
     1
290
     0
176
     1
 40
1.0
176
     1
 40
1.0
176
     1
  0
VISUALSTYLE
  5
1F1
102
{ACAD_REACTORS
330
EF
102
}
330
EF
100
AcDbVisualStyle
  2
X-Ray
 70
    25
177
     3
291
     0
 70
    58
 90
        2
176
     1
 90
        2
176
     1
 90
        1
176
     1
 90
        1
176
     1
 40
0.5
176
     1
 40
30.0
176
     1
 62
     7
420
 16777215
176
     1
 90
        1
176
     1
 90
        0
176
     1
 62
     7
176
     1
 62
   257
176
     1
 90
        1
176
     1
 90
        1
176
     1
 40
1.0
176
     1
 90
        8
176
     1
 62
     7
176
     1
 40
1.0
176
     1
 90
        1
176
     1
 90
        6
176
     1
 90
        2
176
     1
 62
     7
176
     1
 90
        3
176
     1
 90
        0
176
     1
 90
        0
176
     1
290
     0
176
     1
 90
       13
176
     1
 40
0.0
176
     1
 90
        0
176
     1
290
     0
176
     1
290
     1
176
     1
290
     1
176
     1
290
     0
176
     1
290
     0
176
     1
290
     0
176
     1
290
     0
176
     1
290
     0
176
     1
290
     0
176
     1
 90
       50
176
     1
 40
0.0
176
     1
 40
1.0
176
     1
 90
        0
176
     1
 62
    18
176
     1
 90
       50
176
     1
 90
        3
176
     1
 62
     5
420
      255
176
     1
290
     0
176
     1
 90
       50
176
     1
 90
       50
176
     1
 90
       50
176
     1
290
     0
176
     1
 90
       50
176
     1
 62
   256
176
     0
 40
1.0
176
     0
 90
        2
176
     1
  1
strokes_ogs.tif
176
     1
290
     0
176
     1
 40
1.0
176
     1
 40
1.0
176
     1
  0
DICTIONARYVAR
  5
146
102
{ACAD_REACTORS
330
5E
102
}
330
5E
100
DictionaryVariables
280
     0
  1
1:1
  0
DICTIONARYVAR
  5
145
102
{ACAD_REACTORS
330
5E
102
}
330
5E
100
DictionaryVariables
280
     0
  1
style1
  0
DICTIONARYVAR
  5
84
102
{ACAD_REACTORS
330
5E
102
}
330
5E
100
DictionaryVariables
280
     0
  1
STANDARD
  0
DICTIONARYVAR
  5
14765
102
{ACAD_REACTORS
330
5E
102
}
330
5E
100
DictionaryVariables
280
     0
  1
Metric50
  0
DICTIONARYVAR
  5
14766
102
{ACAD_REACTORS
330
5E
102
}
330
5E
100
DictionaryVariables
280
     0
  1
Metric50
  0
DICTIONARYVAR
  5
5F
102
{ACAD_REACTORS
330
5E
102
}
330
5E
100
DictionaryVariables
280
     0
  1
2
  0
DICTIONARYVAR
  5
63
102
{ACAD_REACTORS
330
5E
102
}
330
5E
100
DictionaryVariables
280
     0
  1
1
  0
DICTIONARYVAR
  5
1AE
102
{ACAD_REACTORS
330
5E
102
}
330
5E
100
DictionaryVariables
280
     0
  1
0
  0
DICTIONARYVAR
  5
1AF
102
{ACAD_REACTORS
330
5E
102
}
330
5E
100
DictionaryVariables
280
     0
  1
0
  0
DICTIONARYVAR
  5
E87D
102
{ACAD_REACTORS
330
5E
102
}
330
5E
100
DictionaryVariables
280
     0
  1
2
  0
DICTIONARY
  5
12ED0
330
12E95
100
AcDbDictionary
280
     1
281
     1
  0
DICTIONARY
  5
205
330
22
100
AcDbDictionary
280
     1
281
     1
  0
DICTIONARY
  5
1F9
330
ED
100
AcDbDictionary
280
     1
281
     1
  3
FBXASSET
360
1FA
  0
DICTIONARY
  5
1F7
330
EC
100
AcDbDictionary
280
     1
281
     1
  3
FBXASSET
360
1F8
  0
DICTIONARY
  5
173
330
EE
100
AcDbDictionary
280
     1
281
     1
  3
BUMPTILE
360
175
  3
DIFFUSETILE
360
174
  3
FBXASSET
360
1FB
  3
OPACITYTILE
360
176
  3
REFLECTIONTILE
360
177
  0
DICTIONARY
  5
162
330
7F
100
AcDbDictionary
280
     1
281
     1
  3
ACAD_ROUNDTRIP_2008_TABLESTYLE_CELLSTYLEMAP
360
1477D
  0
XRECORD
  5
1FA
102
{ACAD_REACTORS
330
1F9
102
}
330
1F9
100
AcDbXrecord
280
     1
 70
     1
 90
429727718
  1
D62C5603-E3A1-4AEA-B7FB-FE5D8D0755AF
310
504B03040A0000080000CC70623B3DEE336E79000000790000001B0000006175746F6465736B2D64657369676E2D7061636B6167652E786D6C3C3F786D6C2076657273696F6E3D22312E302220656E636F64696E673D227574662D3822203F3E3C666F726D6174733E3C666F726D61743E687474703A2F2F736368656D612E
310
6175746F6465736B2E636F6D2F64657369676E2D7061636B6167652F323030393C2F666F726D61743E3C2F666F726D6174733E504B0304140006080800CC70623BD486FD9CA0000000F4000000130000005B436F6E74656E745F54797065735D2E786D6C7D8EC10E82300C865F65E91D8A1E8C310C0EEA1BF002731658846E
310
D98AC1B77784ABF1D8FE5FBFBF75BBCE937A534CCEB38643598122B6FEE978D0B0485F9C41B54DDD7D022595594E1A469170414C76A4D9A4D207E29CF43ECE46F218070CC6BECC4078ACAA135ACF422C856C0E68EA1BF5669944DDD7BCDE7B1F8E415D77AECB980613C2E4AC91FC167A2B244592486606FC29C8FD7F045B9A
310
EF7053A7E60B504B0304140006080800CC70623B853B8169EB0000007C01000008000000636F72652E786D6C8D90416EC3201045AF62CDB6C206821CC7C244919D9CA01740401C94182C03558F5F9C3852BBEB6A467FFE9B197D7EFC9E1EC5975982F5AE035262288C535E5B377690E21535501C055FBC8FBF6C503839990E
310
5619041F179FE64D52DE45E362569DD7661365082642A11EB9E920A89B99642953CC8E702F67A9EE7234257977194EC9EAE275C4EABCCF5EAD5940D4AC6F0E35A568B8F43562CD7046CD199FD07E60174276A7BE677B5EADB0E0D14EEFFB6A31321A0D82627C4084204C3F096B71DD52F6819B16635EADF63F509AF53FA164
310
5DDCD1EDDD17164090FCC8732078B56691CB33A85CD7DCC40F504B0304140006080800CC70623B55019EA25F0000007C00000007000000636E782E786D6C4DCB3B0E80201045D1AD90E915ED2CF8AC45050C11660C8261F98AB1B07AC9C97D42D718D865D3E909258CFD00CCE24AC6E326A164D74DC0B4128928FF32603847
310
2BA13128B1252AC747C6BAB984FC68F0B87FE8960A5C09FE86CFB69FBA01504B0304140006080800CC70623BDBABAAF470010000D40300000C0000006662782F636F72652E786D6CC553D16E823014FD95A6AF4B694182CC941A83FA05FB810A9511A125A5257EFE2E82712ECEB8A7F100CD39F7F69E734AF9FADC366850B6
310
AF8DCE7018308C942E4C59EB2AC3DE1D498AD15A706B8CFB56869196ADCAF00863C12B6B7C374385D14E6907A836A59A41D9F7CA615434B0C8705F7CAA5606D23BA8E84F41278B93AC54100640439DE0BDB320004D43C63716C7C399D30917DCFBBA9CD9BA8469F5B156168B24CED3F7248AC8769F27244EB73B92EED8862C
310
B7F13E0C179B3C8F979C8ECD82BBBABDAA2BAC924E9558448CBD9330242CFA08E3154B5651FCC6D215639C8EE5774DBE2B5F6CF2B5768B68963BB5F5588420E442FC700B1139D4CB01F450C1E918227C2E09DF070D8140C84E1E9AAB8F1340832A9CB13130A5F1376A908D57309505ECF2A0DF179C4E9D30F5B239B87E3823
310
7A79C6F31DE1A8A5AEC08474B03C7837EAE4938639B44E5932B833D2C6B6B279CDC613877FA26EE21F4A2A4C63EC7F29A2F301D1F9F7A0E37D145F504B0304140006080800CC70623B9C113CC27E0000009D0000000B0000006662782F636E782E786D6C4DCCDF0A83201C86E15B91DFB94BFB330DD428C8FB886521330DA7
310
6397BF1A1DECE883878F57749FCDA1B7892F1BBC047A23808C7F84D9FA55424E0BE6803A256208E9EF06C84F9B91703228B1C690F78B66B34CD9A5439DF5CF0BFBF65E35BCA1B8D6A5C6F540381E886698B5741C695F9503EBA150A2F8958E3DC3EA0B504B0304140006080800CC70623B7DF2F77C2A010000120200003100
310
00006662782F41393633353835312D344632462D344230382D423046372D3739314545314133324237412F636F72652E786D6C8D51DB8EC22014FC15C2939B0D2DB4B45643319AE817EC0F6041255A68B86CFCFC856D4D76DF7CE190393373060EDB3DC707F856CE6B6B7A480A0C81328395DA5C7B18C3057510EC3873D686
310
3F34088C18550F330C39BB3A1BA7051AAC09CA84841A2BD5020AEF55806078A44B0FFD7053A328440C89E1EFC52486BBB8AA8214A99D789CF9E05200300FC927E4FB4D5B375D43103D5527440FB843077C5AA3F5861C8F645F5787F59E95B390B318B55CE45AA638FAA2957BD7248B390B7A7CC51F9C124149C82B8C378810
310
84AB2F42B7B8DD56F413775B8C5999E9FF4471926F8AA236A1AE96B8B3CC434E5839373893369E1FAF30EA395917409EB7F26AF8801C171837A4A6AC9C89E9F9C9B1A58BA30FD6A5EF5DDDCF894B9AD9B6A59C957943A9FCAE2FD5BC4DFE03504B0304140006080800CC70623BAD7543B64E01000033030000300000006662
310
782F41393633353835312D344632462D344230382D423046372D3739314545314133324237412F636E782E786D6CD593CD6EC32010845F0571AD6CE3D48AD20813A9873E410FBD12D82434182C7EAAE6EDBB2424CD25871E7B41D6EC30B3FA84F9E67BB2E40B4234DE8DB46F1925E094D7C6ED479AD3AE5951B2113C789FEE
310
6C943839C1488B4C05DF079FE72A69D8C96C13AAD6B8631503449F83828872B949AC57D26200B826A308D316B4064D6E46FCDA41C05550DC9E483A00797BFD207EFB092A45DE9514C1BBD22178396BD39D891265658C238DEA00936C654E5E433CB65A26D9F6EDB5EBC14EBF49A45CB856E66048291F6939A9A81BB5C89177
310
38143CA680F4AA299D66A042CEB3354A2684DC9D8D178FE0D9B8B41CAAD720F880EE7EF93C0C18769E099ECC04D5A102C8049A8A05632F4DDF376CF1DE0F6BB65C2F8627B65A33C6BB62177CEBBDAD973006829F89F22E814B54F4BC2BE347F8AA8F681390B50FA73F804400B5F542E796F19FF974E7F78DB802FE05E20750
310
4B0304140006080800CC70623BE75B7789680500003C100000340000006662782F41393633353835312D344632462D344230382D423046372D3739314545314133324237412F6F626A656374732E786D6CAD575B8F9B3818FD2B887D06C22499CB8AA1CA655245D5B455A356FB305264C061D8018C6C3393D95FBFC7600890
310
A4CD5EF210B0B1BFEBF98E3F7B1FF6596ABC522E1296DF9BAE3D320D9A872C4AF2F8DE2CE5CEBA358D0FBEC719939D65A691938CDE9B6ADAF4BD98B3B2D05311DD91329583D9D5FC0F438434A7A611A644887B5384CF34233629258BA878B12322891DEFF6B66BD70BFB62634E8AE781D082709A4B588AF91C528CDA28B73F
310
1C998EEF39EABBEFA97FBD6A7C7E9553F9D3D79FE442923C3C523610337627CB87ABE99D359D4CC6D6E4FACAB5E6ABF9D2726FC6A3C5F56271377BB88362213924694B38DD99FE47C48627A1E7D49F5A8BB5E1A74C0A599ED3B0F21F1E56366B89112D681E218F0915D0D6F17AD41FBA2A369DCF6335D62ABBD39779D5DDD1
310
11D4D8DE3CBB96B2E04FB8202E41051754A1AA8E8F76B4C6DFE810B580B1547F4B84911149794252234D024EF8BBE963A95AE27B3D310A9D5C215C7960FAEE415ED75694C6AFB17BCACA5D99A60A9AA65F217B0BFC53292ACB92BF283FAD0D3621576592CB5BED907C2FA8E9DF794E35E97BEA31BED21FEB401ABB94C44839
310
DCACBF0E1C5DA8DA5B2F4DFFD32AD86F543D9E565E7056502E157C00AD2671CD534549AB752FCA9CDA00677A313F04E51B22FF19E57B300579E3C97EB29F682D92935CEC18CF901B7B54FD8C51F362B56FC72FE0B3C1EAE335EDCCBF5AEC39ADB17DC238973F804BA5E6F6BFE7AF1FB32E523BE9F3BD571418E3631DCA4D48
310
5250CF639223210A9446CA30052EDF057BD35F8329C1ECD84552BF0DC8D18BE7BCE23BFE6BD960AB4A7DE79923A103BEBD80F911CBAA2C60DB19B01CF164A5583B772EE6D3FFA56666CBCDA74DC97724A48F9A58967497E489C4D979006FD7A05E227A1EBDD0F737C623387A9C844D3709995625106D157315F8B8392CD4E0
310
A0B9A720C4BE9829CEF37EA1E13111214D53925356365ADA634861B52519DD27A00AEB808EAF0628E6F435519D446F45CF2C9CF5214F0A15B2F6D06B79DA3EE3CBF7F56780D2F4E7EF73A0F5E5B02A38D07DC852C6B7C1FBB6664213E0C39E3EBA7FF4E1AD23EA2829407C85E586727488B751B2DB9502BC7B228A3FD68B6E
310
A65A22397E690AA8D158D7E404EC8CDA235CC3B7D1898680131CEC2CDF2638C65196279577750F15884AEE19F94199155B92B13297978469D4F8D358DF0AEF7631E28DC8F0D9F437D5D39A83B2231A1D52D543813A824EF8D44BCFF2FA6A31BD1E8DAD87F1CCB526B3879935BF59CDADD5C37479BB1CDD4CA7B3556B516589
310
EF352754B706114D9C885EC9131DE6EFEB43D99AFE2391C2F958179413D7CFEF6B1B6DB1E7600F00DE6E5C67454A339A4BA2E0FBA85ED26F045D454F463DBFCE484C2F90F2E5E3666003662ED8F755951A7D1BECD5B30B550B2785C8E7320B7292A4838DDA71BBC863ED7613CAF659337A3354231D4FF4A182A54904C2898C
310
98B28C4AD0CE056CCF332A80986E571EE9DBC305BB5FEB7E509220A58D25CF042D712A806AC0AD0C657FDEF80D2D9CEAA2EE4D1C76F60BFE74219A06527D6F82DF6412526107381E55E353090704D085B52408A8913C4ED159D79BDA71BB4BC506F4831350EB6F975CD22D69BF7AC49B91A2C0A9DDA3D5CA36AD20FC478E37
310
E61844E2352865EBCB61A275A65283CAAA9DD27703B4102F5AF51EF5F573B75CBB5AD38BC845F7A49F82A0966A49C2E3EA5EA0ECD326CD965F1DB402C6FA8B51A4658C5C5E2EC9E214602E55810345408596591009A82E7E7FFACA19EEA299B14A0081A705CB3296EBC14CDF658DCD336EA6D1136881AAEB87B81AB9EE53D5
310
F5EB8BC8362082DA24122F98680A4E7930C01A0079749CEA14382A0783E5EBA5A10F8C098456A03D6A4AEB6BB881E2513747552A5DB22C7EDAF83BD5528081A365F7FF06504B0304140006080000CC70623B000000000000000000000000350000006662782F41393633353835312D344632462D344230382D423046372D37
310
39314545314133324237412F76657274696365732E62696E504B0304140006080800CC70623BF270F1330600000004000000360000006662782F41393633353835312D344632462D344230382D423046372D3739314545314133324237412F747269616E676C65732E62696E636660600000504B0304140006080000CC7062
310
3B000000000000000000000000370000006662782F41393633353835312D344632462D344230382D423046372D3739314545314133324237412F617474726962757465732E62696E504B0304140006080800CC70623B08DA0BD19000000041010000360000006662782F41393633353835312D344632462D344230382D4230
310
46372D3739314545314133324237412F6469726563746F72792E786D6C858F410AC3201045AF22B36F53E9A60B35CBEEBAE80D244E44489C6234F4F835464A48035D0DF398FF9F8AF63D0E6CC63039F212F8F9020C7D47C6792B21C5FE7403D62A1188E2E60C98D7234A5830286103A55745067B9D86B8A3CF9C7F90C11DE6
310
07FB144396D7B6A82D282E9A152AD114D5EF2CB866EEE831B8EEA07A7BB5A8D7D61A2BAAEB7FD5F70921FF497D00504B0304140006080800CC70623BEDD1DC58FD000000A00100003B0000006662782F41393633353835312D344632462D344230382D423046372D3739314545314133324237412F7265736F75726365732F
310
636F72652E786D6C8D504B6E833010BD0A9A6D65B00922041947112427E8052C33A156828DFCA97AFC9A40A576D7CDCCE87D344F8F9FBFE667F689CE6B6B3A6039850C8DB2A336530731DC4903D95970676DF82583CCC8193B5861107C72362E3BA4AC096842428D1D7107A5F7182053CF7474E0D507CE32973124857FE48B
310
540F3961CEF244279DE03EB81420DB9EAC1384436FA353E879B1B182C7A8C75DA3C7F453DF353A1075D537A7BA6464B8F535A99AE14A9A2BBD90E350DD183B5CFABE3AF262350B1EF4FC9351399401471025A527C218A1E53BAB5A5AB765F5469B96525EACF23FA6B88CFF34456DC2A1DCE36E360F82A5202F42F062ED2BAD
310
579969AFDD8A6F504B010214000A0000080000CC70623B3DEE336E79000000790000001B00000000000000000000000000000000006175746F6465736B2D64657369676E2D7061636B6167652E786D6C504B01021400140006080800CC70623BD486FD9CA0000000F40000001300000000000000000000000000B20000005B
310
436F6E74656E745F54797065735D2E786D6C504B01021400140006080800CC70623B853B8169EB0000007C010000080000000000000000000000000083010000636F72652E786D6C504B01021400140006080800CC70623B55019EA25F0000007C000000070000000000000000000000000094020000636E782E786D6C504B
310
01021400140006080800CC70623BDBABAAF470010000D40300000C00000000000000000000000000180300006662782F636F72652E786D6C504B01021400140006080800CC70623B9C113CC27E0000009D0000000B00000000000000000000000000B20400006662782F636E782E786D6C504B01021400140006080800CC70
310
623B7DF2F77C2A010000120200003100000000000000000000000000590500006662782F41393633353835312D344632462D344230382D423046372D3739314545314133324237412F636F72652E786D6C504B01021400140006080800CC70623BAD7543B64E010000330300003000000000000000000000000000D2060000
310
6662782F41393633353835312D344632462D344230382D423046372D3739314545314133324237412F636E782E786D6C504B01021400140006080800CC70623BE75B7789680500003C10000034000000000000000000000000006E0800006662782F41393633353835312D344632462D344230382D423046372D3739314545
310
314133324237412F6F626A656374732E786D6C504B01021400140006080000CC70623B0000000000000000000000003500000000000000000000000000280E00006662782F41393633353835312D344632462D344230382D423046372D3739314545314133324237412F76657274696365732E62696E504B01021400140006
310
080800CC70623BF270F133060000000400000036000000000000000000000000007B0E00006662782F41393633353835312D344632462D344230382D423046372D3739314545314133324237412F747269616E676C65732E62696E504B01021400140006080000CC70623B0000000000000000000000003700000000000000
310
000000000000D50E00006662782F41393633353835312D344632462D344230382D423046372D3739314545314133324237412F617474726962757465732E62696E504B01021400140006080800CC70623B08DA0BD1900000004101000036000000000000000000000000002A0F00006662782F41393633353835312D344632
310
462D344230382D423046372D3739314545314133324237412F6469726563746F72792E786D6C504B01021400140006080800CC70623BEDD1DC58FD000000A00100003B000000000000000000000000000E1000006662782F41393633353835312D344632462D344230382D423046372D3739314545314133324237412F7265
310
736F75726365732F636F72652E786D6C504B0506000000000E000E0080040000641100000000
  0
XRECORD
  5
1F8
102
{ACAD_REACTORS
330
1F7
102
}
330
1F7
100
AcDbXrecord
280
     1
 70
     1
 90
429727718
  1
30362254-06B7-45E0-A893-8CFA70E3D6BC
310
504B03040A0000080000CC70623B3DEE336E79000000790000001B0000006175746F6465736B2D64657369676E2D7061636B6167652E786D6C3C3F786D6C2076657273696F6E3D22312E302220656E636F64696E673D227574662D3822203F3E3C666F726D6174733E3C666F726D61743E687474703A2F2F736368656D612E
310
6175746F6465736B2E636F6D2F64657369676E2D7061636B6167652F323030393C2F666F726D61743E3C2F666F726D6174733E504B0304140006080800CC70623BD486FD9CA0000000F4000000130000005B436F6E74656E745F54797065735D2E786D6C7D8EC10E82300C865F65E91D8A1E8C310C0EEA1BF002731658846E
310
D98AC1B77784ABF1D8FE5FBFBF75BBCE937A534CCEB38643598122B6FEE978D0B0485F9C41B54DDD7D022595594E1A469170414C76A4D9A4D207E29CF43ECE46F218070CC6BECC4078ACAA135ACF422C856C0E68EA1BF5669944DDD7BCDE7B1F8E415D77AECB980613C2E4AC91FC167A2B244592486606FC29C8FD7F045B9A
310
EF7053A7E60B504B0304140006080800CC70623B1EC5D7A3EB0000007C01000008000000636F72652E786D6C8D90416EC3201045AF82665B6103C6756C6122AB4D4ED00B204C5C94182C03558F5F9C3852BBEB6A467FFE9B197D71FC9E6FE8CBACC17AD7032D0820E3B41FAD9B7A48F1820F808E52ACDEC75F36404ECDA687
310
4D0629A6D5A76597B477D1B89855E747B38B2A041301E95B6E7A08FAD3CCAA50296647B8168BD2573599823EBB0CA76447F43862C7BCCF5EAC59410E4DDD9C7973C2755553CCCFA4C603E3040F1565ED3B1FDE4E432BCA0D9622DAF9795FAF464533826484B498524CD807E51D79ED187F21878E10516EF63F505AC67F42C9
310
BA58B1FDDD071640D2FCC87D2045B96591CB3DA85CB7DCE40F504B0304140006080800CC70623B55019EA25F0000007C00000007000000636E782E786D6C4DCB3B0E80201045D1AD90E915ED2CF8AC45050C11660C8261F98AB1B07AC9C97D42D718D865D3E909258CFD00CCE24AC6E326A164D74DC0B4128928FF32603847
310
2BA13128B1252AC747C6BAB984FC68F0B87FE8960A5C09FE86CFB69FBA01504B0304140006080800CC70623B8C9102E971010000D40300000C0000006662782F636F72652E786D6CC5535B6E833010BC8AE5DF0A6C08340F1947A84D4ED00B38C6A128602363A31CBFCB234A53A551FA553EC09AD9F5CE8C31DB9E9B1AF5CA
310
7695D1198E428A91D2D214952E33ECDD315861B4E5CC1AE3BE9561A445A3323CC098B3D21ADFCE9034DA29ED00D5A6503328BA4E398C640D8B0C77F253352214DE4145770A5B214FA2546114020D759C75CE8200340D19DE981F0F6746269C33EFAB6266AB02A655C74A59CCF365BADC27CB5D902ED22848F6340DF238A141
310
BE88E2F57B92BFEDF23523433367AE6A2EEAA455C2A902F398D2751045018D3FA264435F3771F242571B4A1919CA6F9A7C5B3CD9E42BED16F12C776AEB308F40C848FC700B1139D4891EF410CEC810227CC6846F8386402064270EF5C5C709A05E49676C024C61FC95EA45ED154CA5211D1FF4FB8291A913A68E9B83EBBB33
310
E2A7673CDE118E5AE8124C0807CB8377834E366998436B950D7A7746DAD846D4CFD978E0F04FD455FC5D49D2D4C6FE9722321F10997F0F32DC47FE05504B0304140006080800CC70623BFFEA85907E0000009D0000000B0000006662782F636E782E786D6C4DCCD10A83201886E15B91FFDC95D95A811AB6F23E625948A6C3
310
E9D8E5AF46073BFAE0E1E365ED67B3E8ADC3CB78C7815C7240DA3DFC64DCC221C519D7805AC182F7F1EF06C88D9BE6703008B6049F9E274D7A1E938DBB5AE3D6131B2589BA0D3D965551E0B2EA732C9B9A624AAEB41E3A557677029960D9AFB4EF11165F504B0304140006080800CC70623B4FEEA4082C0100001202000031
310
0000006662782F39464131463745442D413632322D343644302D413938332D3331353338454246344243312F636F72652E786D6C8D515B6EC32010BC0AE2AB55850DD871ED0813254D72825EC00192A2C460F1A872FC42ED48ED5F7E00CDCECCCEB26C731F6FE05B39AFADE921293004CA082BB5B9F43086336A21D870E6AC
310
0D7F68109861543DCC30E4ECE26C9C164858139409093556AA051CBC570102714B8F1E7AF1A5C6A11862480C7F2DA6415C878B2A4891CA89C7990F2E050073937C42DE1DB7E4F87ED8A36D4329AA9B3D46DBAEAD504556557BD81DEBDD0761E52CE42C462D17B996298E3E6BE59E35C962CE821E1FF18553435012728A7187
310
0841987E927A8D9B35ADDF70BBC6989599FE4F1427F9A4286A132ABAC49D651EF234CD5CE04CDA78BA3DC2A8FB645D00B9DF8B57E215725C60BCA2A463E54C4CE327C7A65E1C7DB02E7DEFCBF594B864C5CA6CDBD49C957943E9FA5D5FBAF336F90F504B0304140006080800CC70623BAD7543B64E01000033030000300000
310
006662782F39464131463745442D413632322D343644302D413938332D3331353338454246344243312F636E782E786D6CD593CD6EC32010845F0571AD6CE3D48AD20813A9873E410FBD12D82434182C7EAAE6EDBB2424CD25871E7B41D6EC30B3FA84F9E67BB2E40B4234DE8DB46F1925E094D7C6ED479AD3AE5951B2113C
310
789FEE6C943839C1488B4C05DF079FE72A69D8C96C13AAD6B8631503449F83828872B949AC57D26200B826A308D316B4064D6E46FCDA41C05550DC9E483A00797BFD207EFB092A45DE9514C1BBD22178396BD39D891265658C238DEA00936C654E5E433CB65A26D9F6EDB5EBC14EBF49A45CB856E66048291F6939A9A81BB5
310
C8917738143CA680F4AA299D66A042CEB3354A2684DC9D8D178FE0D9B8B41CAAD720F880EE7EF93C0C18769E099ECC04D5A102C8049A8A05632F4DDF376CF1DE0F6BB65C2F8627B65A33C6BB62177CEBBDAD973006829F89F22E814B54F4BC2BE347F8AA8F681390B50FA73F804400B5F542E796F19FF974E7F78DB802FE05
310
E207504B0304140006080800CC70623B16AB87BA640500003C100000340000006662782F39464131463745442D413632322D343644302D413938332D3331353338454246344243312F6F626A656374732E786D6CAD575B6FA33818FD2B887DE6924B3BED8A326A92B68A663B534DD4D13E548A0C38942D60649B369D5FBFC7
310
600890A493BDE42160637FD7F31D7FF63E6FB3D478A55C242CBF3247B66B1A340F5994E4F19559CA8D75611A9F7D8F33263BCB4C232719BD32D5B4E97B316765A1A722BA21652A07B3B7B33F0D11D29C9A46981221AE4C113ED38CD8A4942CA2E2C58E882476BCD9DA23BB5ED8171B73523C0F841684D35CC252CCE79062D4
310
468DFA43D7747CCF51DF7D4FFDEB5593E3AB9CCA9FBEFE241792E4E19EB28198C968BAB8199F5D5A67D3E9C49A9E8F47D6EC76B6B0469F26EEFC7C3EBFBCBEB98462213924694B38DD98FE1D62C393D073EA4FADC5DAF04326852CCF6958F90F0F2B9BB5C48816348F90C7840A68EB78EDF68723159BCEE7891A6B95DDE9D3
310
BCEAEEE8086A6C6F9E5D4B59F0175C10A7A0820BAA5055C7473B5AE3CFDD452D602CD5DF12616444529E90D448938013FE6EFA58AA96F85E4F8C42275708571E98FE6827AF6B2B4AE3D7D83D64E5A64C53054DD3AF90BD06FEA9149565C94FCA0F6B834DC85599E4F2423B24DF0B6AFA979E534DFA9E7A4CC6FA631D486393
310
921829879BF5D781A373557BCB85E97FB90DB62B558F8795179C15944B051F40AB495CF35451D26A4727654E6D8033BD98EF82F21D91FF8AF2DD9982BCF1643BDD4EB516C9492E368C67C88DED563FC36D5EACF66DFF057C3658BDBFA69DF9578B3DA735B64F18C7F20770A9D45CFCF7FCF563D6456A277DBEF78A02637CA2
310
43B90A490AEAB94F72244481D24819A6C0E59B606BFA4B3025981DBB48EAB701D97BF19C577CC77F2D1B6C55A9EF3C732474C0B727303F625995056C3B02963D9EAC146BE78EC5FCEC7FA999EBC5EACBAAE41B12D27B4D2C0BBA49F244E2ECDC81B76B502F113D8F5EE8FB1BE3111CDD4FC2AA9B844CAB1288B68AB90A7CDC
310
1C166AB0D3DC5310625FCC14E779BFD0709F8890A629C9292B1B2DED31A4B0DA928CEE135085754027E3018A397D4D5427D15BD1330B677DC8934285AC3DF45A9EB68FF8F2B8FC0A509AFEECFD0FF2DE25CC6047F7214B195F07EFEB9A094D800F7BFAE8FED187B78EA8A3A400F115961BCAD1215E47C966530AF0EE8128FE
310
58CEBB996A8964FFA529A046635D9353B0336A8F700DDF46271A024E70B0B37C9DE01847591E54DED53D54202AB947E4076556AC49C6CA5C9E1226B7F1A7B1BE15DEED62C41B91E1B3E9AFAAA735036547343A925075041DF0A9979E893B391F8FCFA6967B3EFB644DCF6E5CEBFAE272625DCC6FAF3FB93793C5F90CE1EF57
310
407342756B10D1C489E8953CD1617E5CEECAD6F4EF8914CE5D5D504E5C3F1F9736DA62CFC11E00BCDDB8CC8A9466349744C1F75EBDA4DF09BA8A9E8C7A7E9991989E20E5DBDD6A6003664ED8F7A04A8DBE0DF6EAD9B9AA858342E47399053949D2C146EDB85DE4B176BB0965FBAC19BD19AA918E27FA50C1D22402E144464C
310
59462568E704B6E71915404CB72B8FF4EDE184DDAF753F284990D2C6926782963815403548A70C657FDEF80D2D9CEAA2AE4C1C76F60BFE74219A06527D6582DF6412526107381E55E353090704D085B52408D0933C4ED159D79BDA71BB4BC506F4831350EB6F979CD22D69BF7AC49B91A2C0A9DDA3D5CA36AD20FC478E37E6
310
1844E2352865EBCB6EA275A652E3836BE04EFB400BF1A2556F515F1FBB35B2AB35BD889C744FFA1004B5544B121E57F70215746DD2F5E2C1412B602CBF19455AC6C8E5E9922C4E01E65215385004546899059180EAFCF7A707CE7017CD8CDB0410789AB32C63B91E5CEBBBACB17AC6CD347A022D5075FD106377347AAABA7E
310
7D11590744509B44E205134DC1290F06580320F78E537D3D73540E06CB970B431F185308AD40BBD794D6D77003C5A36E8EAA54BA64597CD8F83BD552A080A365F7FF06504B0304140006080000CC70623B000000000000000000000000350000006662782F39464131463745442D413632322D343644302D413938332D3331
310
353338454246344243312F76657274696365732E62696E504B0304140006080800CC70623BF270F1330600000004000000360000006662782F39464131463745442D413632322D343644302D413938332D3331353338454246344243312F747269616E676C65732E62696E636660600000504B0304140006080000CC70623B
310
000000000000000000000000370000006662782F39464131463745442D413632322D343644302D413938332D3331353338454246344243312F617474726962757465732E62696E504B0304140006080800CC70623B08DA0BD19000000041010000360000006662782F39464131463745442D413632322D343644302D413938
310
332D3331353338454246344243312F6469726563746F72792E786D6C858F410AC3201045AF22B36F53E9A60B35CBEEBAE80D244E44489C6234F4F835464A48035D0DF398FF9F8AF63D0E6CC63039F212F8F9020C7D47C6792B21C5FE7403D62A1188E2E60C98D7234A5830286103A55745067B9D86B8A3CF9C7F90C11DE607
310
FB144396D7B6A82D282E9A152AD114D5EF2CB866EEE831B8EEA07A7BB5A8D7D61A2BAAEB7FD5F70921FF497D00504B0304140006080800CC70623B0D6EF93BFE000000A00100003B0000006662782F39464131463745442D413632322D343644302D413938332D3331353338454246344243312F7265736F75726365732F63
310
6F72652E786D6C8D50596E833010BD0A9ADFCA60B334011947A8694ED00B586642AC041B79A97AFC9A40A5F6AF3F33A3B7689E1E3F7DCD8FEC139DD7D6F4C0720A191A65476DA61E62B892236427C19DB5E1970C322367EC618541F0C9D9B8EC90B226A009093576C41D94DE63804C3DD2D18357379C652E63480A7FCF17A9
310
EE72C29CE5894E3AC17D702940B63D59270887DE46A7D0F36263058F518FBB468FE9A7BE6A7420864373B8D4873369AA8691FA421B3294352543C5CAF65C0F6FEF43CB8BD52C78D0F34F46E550061C419494B6843142CB0F5677F4B52BEB177AEC28E5C52AFF638ACBF84F53D42654E51E77B379102C05791282176B5F693D
310
CB4C7BED567C03504B010214000A0000080000CC70623B3DEE336E79000000790000001B00000000000000000000000000000000006175746F6465736B2D64657369676E2D7061636B6167652E786D6C504B01021400140006080800CC70623BD486FD9CA0000000F40000001300000000000000000000000000B20000005B
310
436F6E74656E745F54797065735D2E786D6C504B01021400140006080800CC70623B1EC5D7A3EB0000007C010000080000000000000000000000000083010000636F72652E786D6C504B01021400140006080800CC70623B55019EA25F0000007C000000070000000000000000000000000094020000636E782E786D6C504B
310
01021400140006080800CC70623B8C9102E971010000D40300000C00000000000000000000000000180300006662782F636F72652E786D6C504B01021400140006080800CC70623BFFEA85907E0000009D0000000B00000000000000000000000000B30400006662782F636E782E786D6C504B01021400140006080800CC70
310
623B4FEEA4082C0100001202000031000000000000000000000000005A0500006662782F39464131463745442D413632322D343644302D413938332D3331353338454246344243312F636F72652E786D6C504B01021400140006080800CC70623BAD7543B64E010000330300003000000000000000000000000000D5060000
310
6662782F39464131463745442D413632322D343644302D413938332D3331353338454246344243312F636E782E786D6C504B01021400140006080800CC70623B16AB87BA640500003C1000003400000000000000000000000000710800006662782F39464131463745442D413632322D343644302D413938332D3331353338
310
454246344243312F6F626A656374732E786D6C504B01021400140006080000CC70623B0000000000000000000000003500000000000000000000000000270E00006662782F39464131463745442D413632322D343644302D413938332D3331353338454246344243312F76657274696365732E62696E504B01021400140006
310
080800CC70623BF270F133060000000400000036000000000000000000000000007A0E00006662782F39464131463745442D413632322D343644302D413938332D3331353338454246344243312F747269616E676C65732E62696E504B01021400140006080000CC70623B0000000000000000000000003700000000000000
310
000000000000D40E00006662782F39464131463745442D413632322D343644302D413938332D3331353338454246344243312F617474726962757465732E62696E504B01021400140006080800CC70623B08DA0BD190000000410100003600000000000000000000000000290F00006662782F39464131463745442D413632
310
322D343644302D413938332D3331353338454246344243312F6469726563746F72792E786D6C504B01021400140006080800CC70623B0D6EF93BFE000000A00100003B000000000000000000000000000D1000006662782F39464131463745442D413632322D343644302D413938332D3331353338454246344243312F7265
310
736F75726365732F636F72652E786D6C504B0506000000000E000E0080040000641100000000
  0
XRECORD
  5
175
102
{ACAD_REACTORS
330
173
102
}
330
173
100
AcDbXrecord
280
     1
270
     1
271
     1
  0
XRECORD
  5
174
102
{ACAD_REACTORS
330
173
102
}
330
173
100
AcDbXrecord
280
     1
270
     1
271
     1
  0
XRECORD
  5
1FB
102
{ACAD_REACTORS
330
173
102
}
330
173
100
AcDbXrecord
280
     1
 70
     0
 90
1673772943
  1
ECE7A1D2-D628-4531-984C-D00F80459256
310
504B03040A0000080000CC70623B3DEE336E79000000790000001B0000006175746F6465736B2D64657369676E2D7061636B6167652E786D6C3C3F786D6C2076657273696F6E3D22312E302220656E636F64696E673D227574662D3822203F3E3C666F726D6174733E3C666F726D61743E687474703A2F2F736368656D612E
310
6175746F6465736B2E636F6D2F64657369676E2D7061636B6167652F323030393C2F666F726D61743E3C2F666F726D6174733E504B0304140006080800CC70623BD486FD9CA0000000F4000000130000005B436F6E74656E745F54797065735D2E786D6C7D8EC10E82300C865F65E91D8A1E8C310C0EEA1BF002731658846E
310
D98AC1B77784ABF1D8FE5FBFBF75BBCE937A534CCEB38643598122B6FEE978D0B0485F9C41B54DDD7D022595594E1A469170414C76A4D9A4D207E29CF43ECE46F218070CC6BECC4078ACAA135ACF422C856C0E68EA1BF5669944DDD7BCDE7B1F8E415D77AECB980613C2E4AC91FC167A2B244592486606FC29C8FD7F045B9A
310
EF7053A7E60B504B0304140006080800CC70623BD9DDAED0EC0000007C01000008000000636F72652E786D6C8D90416EC3201045AF82665B61836D9CD8C2444DD39CA01740405C94182C03558F5F9C3852BBEB6A467FFE9B197D7EF89E6EE8CB2CC17A37002D0820E394D7D68D03A478C17B4007C117EFE32F1B20272733C0
310
2A83E0E3E2D3BC49CABB685CCCAAF3DA6CA20CC14440EA969B0182FA34932C648AD911AEC52CD5558EA6A0CF2EC329598D1E47ACCEFBECC59A050463A7EA5833865FEBDD0E37353BE3EE8DBDE3F6786A48D375FBF6CC78B9C282473B3DEFABC5C86834888A900E538A49F5419B9EB47DD5BC907D4F082F57FB1F28CDFA9F50
310
B22ED6D5F6EE030B20687EE43E10BC5CB3C8E51E54AE6B6EE207504B0304140006080800CC70623B55019EA25F0000007C00000007000000636E782E786D6C4DCB3B0E80201045D1AD90E915ED2CF8AC45050C11660C8261F98AB1B07AC9C97D42D718D865D3E909258CFD00CCE24AC6E326A164D74DC0B4128928FF326038
310
472BA13128B1252AC747C6BAB984FC68F0B87FE8960A5C09FE86CFB69FBA01504B0304140006080800CC70623BA24EB22D72010000D40300000C0000006662782F636F72652E786D6CC5535B6E833010BC8AE5DF0A6C5E49888CA3A6694ED00B38E05014B091B1518EDFE511A5A9D228FD2A1F60CDEC7A67C6986DCE4D8D7A
310
69BA4AAB0C073EC548AA5C17952A33ECECD15B61B4E1CC686DBF9561A44423333CC098B3D268D7CE50AE9595CA02AA74216750749DB418E5352C32DCE59FB211BE70162ABA93DF8AFC244AE9073ED050C759670D0840D390E18DF9F1706664C23973AE2A66B62A605A75ACA4C13C4976E1364A12EF355A2EBD384AF65EFA96
310
BC7B8BED2EA6719AAE16FB8491A199335B351775B991C2CA02F390D2D40B028F861F41BCA68B7518BFD0D59A524686F29B26D7164F36B94AD9289CE54E6D1DE6010819891F6E21228B3AD1831EC219194284CF98F06DD01008846CC5A1BEF83801D4CBDC6A1303536877A57A513B0953A94FC707FDBE6064EA84A9E3E6E0FA
310
EE8CF0E9198F7784A316AA0413C2C2F2E0ECA0934D1AE6D05A69BCDE9E91D2A611F573361E38FC1375157F5752AE6B6DFE4B11990F88CCBF0719EE23FF02504B0304140006080800CC70623B408A7D3B7C0000009D0000000B0000006662782F636E782E786D6C4DCCD10A83201886E15B91FFDC552A92A0064DBC8F581632
310
D3703A76F9ABD1C18E3E78F878E5F0D9027ABBFCF2292AE86E2D20171F69F6715550CB827B40839639A5F2770314A7CD293819B45C73AAFB45B35BA61ACAA1C1C7E7855C58C15BC331339661262CC762340413D68D77DA5B42298546CBE6573AF60CEB2F504B0304140006080800CC70623B449FB9BD290100001202000031
310
0000006662782F36394639363044362D344446342D343946362D394244322D3234314243333846323333332F636F72652E786D6C8D515B6EC32010BC0AE22B55850D98B871848994463E412FE002495162B07854397EA176A4F62F3F2C9A9D991D587EB84F37F0AD7D30CEF6905418026DA553C65E7A98E219ED203808EE9D
310
8B7F6810D871D23D2C3014FCE25D9A57483A1BB58D19B54EE9151C43D0110279CB971E06F9A5A7B11A53CC8C70ADE6515EC78BAE4895DB992778883E0700CB907242D17643D7E2538BD869608875438BBAE38922CAC8F1BDD90DB4691A5E2F42C153326A951B95E398B3D1FE599322163C9AE9115F7A3D46ADA0A018778810
310
84E907617BDCEE297BC5BB3DC6BC2EF47FA234AB2745C9D8D8D035EE220B50105E2F0DC1954B9FB747187D9F9D8FA0CCDB042D5FA0C015C65B42DF78BD10F3F3B363CB56C7109DCFDFBBB97E662ED92EB62D13BC2E1BCAE5777DB9966D8A1F504B0304140006080800CC70623BAD7543B64E01000033030000300000006662
310
782F36394639363044362D344446342D343946362D394244322D3234314243333846323333332F636E782E786D6CD593CD6EC32010845F0571AD6CE3D48AD20813A9873E410FBD12D82434182C7EAAE6EDBB2424CD25871E7B41D6EC30B3FA84F9E67BB2E40B4234DE8DB46F1925E094D7C6ED479AD3AE5951B2113C789FEE
310
6C943839C1488B4C05DF079FE72A69D8C96C13AAD6B8631503449F83828872B949AC57D26200B826A308D316B4064D6E46FCDA41C05550DC9E483A00797BFD207EFB092A45DE9514C1BBD22178396BD39D891265658C238DEA00936C654E5E433CB65A26D9F6EDB5EBC14EBF49A45CB856E66048291F6939A9A81BB5C89177
310
38143CA680F4AA299D66A042CEB3354A2684DC9D8D178FE0D9B8B41CAAD720F880EE7EF93C0C18769E099ECC04D5A102C8049A8A05632F4DDF376CF1DE0F6BB65C2F8627B65A33C6BB62177CEBBDAD973006829F89F22E814B54F4BC2BE347F8AA8F681390B50FA73F804400B5F542E796F19FF974E7F78DB802FE05E20750
310
4B0304140006080800CC70623B8D05915C650500003B100000340000006662782F36394639363044362D344446342D343946362D394244322D3234314243333846323333332F6F626A656374732E786D6CAD575B6FA33814FE2B887D06429276DA1565D4266D158D3A339A6846FB502932E050B66023DB74D2FDF5FB190C01
310
9276B2973C046C8ECFF53B17071F77456EBD502133CEAE6CDF9DD81665314F32965ED995DA3A17B6F5310C04E7AA47665B8C14F4CAD6DB7618A48257A5D94AE89654B91AEDDEDDFC61C998326A5B714EA4BCB265FC440BE2924AF184CA6737218AB8E976E7FA6E4338649B0A523E8D98964450A6A029F619B8588D52FE7039
310
B1BD30F0F4F730D0FF866AF6369557DB33949F31A9088B0F848DD8CCFCF9F2767A76E99CCDE733677E3EF59D9BBB9BA5E37F984D16E78BC5E5F5ED25044B25C0C96822E8D60EEFE11B91C581D77CEA34368A1F5329E68CD1B8B61F16D63A1B8E092D294B10C78C4A48EB593D192E7DED9BDEE7995E1B91FDEDD3ACEA9FE831
310
6A756F9F7D4D79F4274C90A7A04248AA51D5F8C718DAE06FB2F75AC4796EBE65D22A88A22223B995679120E2D50E41AA49C260C046A35368846B0BECD0DFF3EBEB8AD4F835768F69B9ADF25C43D30E6B646F807FAA64AD59F61715C7A54127C4AACA98BA3006A9D792DAE165E0D59B61A01FB3A9F9D838D2DAE62445C86166
310
F37564E842E7DE6A69879FEEA2DD5AE7E371E1A5E025154AC307D06A03D73EB5978C58FFA4C8E9033066E0F3BD53BEC1F39F91BE7B55103791EDE6BBB991A2046172CB4581D8B893FA674DDA17A77B3B7C413D1B511FD2743BFF8A38F03A658705E3ADF8015C3A3417FF3D7E439FF591DA0B5F18BC20C1B8981957AE6392A3
310
F43C640C01D1A0B4728E2DD4F26DB4B3C3152A252A3B4E913CEC1C72F012782FF88EFF8637AA552DBEF76408E8A8DE9E50F9E1CB3A2DA0DB1B6039A893B56063DC5B3E3FFB5F72E67AB9FEB4AEC496C4F4C1149625DD662C53E89D7BF0F6151A046260D1337DFDC94502430F83B0EE07A130A224BCAD7DAE1D9FB6CD422FF6
310
920702629C4BB9AE79C12F243C6432A6794E18E5552BA56B431AAB5D91317302B2B071E86C3A42B1A02F999E24061403B5D0EB639195DA655DD3EBEAB4FB862DDF579F014AD0E73C22F99E28DA57FB98E75C6CA2D74D53086D600F4786E0FE3144B771A8A7B900F03594DB8A633CBC49B2EDB69228BB479CF863B5E807AAAB
310
23872F6DFEB4129B949CA33823F58830E86D65621E10047D9DB34D862E8EAC3C2ABC2F7B2C40D67CDFE01F5545B92105AF983AC54D93D69E56FB8E797F88913F898A9FEC705D3F9D1B54EC8426FB500D40A03BD0119B06E1B95DDC7EB8F6975367793EBD70E66733DFB9BC982F9CE564727731999F5D4ECFCE3B8D6A4DC2A0
310
6D50FD148437D110834A64C6CDDF57FBACB5C307A2A477DFE4939736CFEF2B175371E0E10CF0DD1D5C15654E0BCA14D1E87DD02FF93782A162C0A3D95F1524A52770F972BF1EE9809D13CE7DD599467F8ECE9ADD85CE85A34CD45355448C64F9E8A031DC2D596ACC6E5DD93D9B82DE2EF5CAF81363A8E47996A0DE24564A79
310
4115AACE09C55E14540231FDA13C319787134EBF34E3A022514E5B4D9E0826E25C02D5805B15ABE1BEF51B26383D445DD9E875EE33FE4C22DA16427D65A3BCA92CA6D28DD01DF5DC53330704308475351050232CCD31583787BA75774AFB06E5070DD0C8EF484E19968C5D83BA5B90B244D31E54D55A372320FE4786B7EA58
310
44E135AA5467CB7EA333A61683CC6A8C3257034C10CF46F40EF9F5BE59BE5BD30C3C72D235E95D10345C1D45445A5F0BB47E46A5EBE5570F9380B5FA629579952296A773720405982B9DE04011506178964401AA8BDF1FBF0A8EAB6861DD6580C0E38217056766716DAEB2D6FA0917D3E4116581EADB879C4E7CFFB11EFACD
310
3D641311495D92C8676CB409A72D18610D803CE8A626049E8EC1887CB5B44CC39883690DDA8399B4B9855B481E7D71D4A9D22F96E5BB73BF5793020C02137BF837504B0304140006080000CC70623B000000000000000000000000350000006662782F36394639363044362D344446342D343946362D394244322D32343142
310
43333846323333332F76657274696365732E62696E504B0304140006080800CC70623BF270F1330600000004000000360000006662782F36394639363044362D344446342D343946362D394244322D3234314243333846323333332F747269616E676C65732E62696E636660600000504B0304140006080000CC70623B0000
310
00000000000000000000370000006662782F36394639363044362D344446342D343946362D394244322D3234314243333846323333332F617474726962757465732E62696E504B0304140006080800CC70623B08DA0BD19000000041010000360000006662782F36394639363044362D344446342D343946362D394244322D
310
3234314243333846323333332F6469726563746F72792E786D6C858F410AC3201045AF22B36F53E9A60B35CBEEBAE80D244E44489C6234F4F835464A48035D0DF398FF9F8AF63D0E6CC63039F212F8F9020C7D47C6792B21C5FE7403D62A1188E2E60C98D7234A5830286103A55745067B9D86B8A3CF9C7F90C11DE607FB14
310
4396D7B6A82D282E9A152AD114D5EF2CB866EEE831B8EEA07A7BB5A8D7D61A2BAAEB7FD5F70921FF497D00504B0304140006080800CC70623BCA768048FE000000A00100003B0000006662782F36394639363044362D344446342D343946362D394244322D3234314243333846323333332F7265736F75726365732F636F72
310
652E786D6C8D50596E833010BD0A9ADFCA60D600328E9AA639412F609909B1126CE4A5EAF16B0295DABFFECC8CDEA2797AECF8353F924FB44E193D409E5248504B332A3D0D10FC95B4901C39B3C6F85F3248B49871801506CE266BC2B243D2688FDA47549B11775038871E12F988C7004EDE7016A9083E2ADC3D5D84BC8B09
310
D33C8D74D471E6BC8D0192EDC93A815B742658898E651BCB59086ADC356A8C3FD555A1055ED7E7E254D615792D0F075295F585746FF53B694EE78A565DD736979A65AB9933AFE69F8CD2A2F038022F28ED489E135A7CE4554F9BBEA85E68DB53CAB255FEC71496F19FA6A0B42F8B3DEE6673C0F318E4497096AD7DC5F52C33
310
EEB55BFE0D504B010214000A0000080000CC70623B3DEE336E79000000790000001B00000000000000000000000000000000006175746F6465736B2D64657369676E2D7061636B6167652E786D6C504B01021400140006080800CC70623BD486FD9CA0000000F40000001300000000000000000000000000B20000005B436F
310
6E74656E745F54797065735D2E786D6C504B01021400140006080800CC70623BD9DDAED0EC0000007C010000080000000000000000000000000083010000636F72652E786D6C504B01021400140006080800CC70623B55019EA25F0000007C000000070000000000000000000000000095020000636E782E786D6C504B0102
310
1400140006080800CC70623BA24EB22D72010000D40300000C00000000000000000000000000190300006662782F636F72652E786D6C504B01021400140006080800CC70623B408A7D3B7C0000009D0000000B00000000000000000000000000B50400006662782F636E782E786D6C504B01021400140006080800CC70623B
310
449FB9BD290100001202000031000000000000000000000000005A0500006662782F36394639363044362D344446342D343946362D394244322D3234314243333846323333332F636F72652E786D6C504B01021400140006080800CC70623BAD7543B64E010000330300003000000000000000000000000000D20600006662
310
782F36394639363044362D344446342D343946362D394244322D3234314243333846323333332F636E782E786D6C504B01021400140006080800CC70623B8D05915C650500003B10000034000000000000000000000000006E0800006662782F36394639363044362D344446342D343946362D394244322D32343142433338
310
46323333332F6F626A656374732E786D6C504B01021400140006080000CC70623B0000000000000000000000003500000000000000000000000000250E00006662782F36394639363044362D344446342D343946362D394244322D3234314243333846323333332F76657274696365732E62696E504B010214001400060808
310
00CC70623BF270F13306000000040000003600000000000000000000000000780E00006662782F36394639363044362D344446342D343946362D394244322D3234314243333846323333332F747269616E676C65732E62696E504B01021400140006080000CC70623B00000000000000000000000037000000000000000000
310
00000000D20E00006662782F36394639363044362D344446342D343946362D394244322D3234314243333846323333332F617474726962757465732E62696E504B01021400140006080800CC70623B08DA0BD190000000410100003600000000000000000000000000270F00006662782F36394639363044362D344446342D
310
343946362D394244322D3234314243333846323333332F6469726563746F72792E786D6C504B01021400140006080800CC70623BCA768048FE000000A00100003B000000000000000000000000000B1000006662782F36394639363044362D344446342D343946362D394244322D3234314243333846323333332F7265736F
310
75726365732F636F72652E786D6C504B0506000000000E000E0080040000621100000000
  0
XRECORD
  5
176
102
{ACAD_REACTORS
330
173
102
}
330
173
100
AcDbXrecord
280
     1
270
     1
271
     1
  0
XRECORD
  5
177
102
{ACAD_REACTORS
330
173
102
}
330
173
100
AcDbXrecord
280
     1
270
     1
271
     1
  0
CELLSTYLEMAP
  5
1477D
102
{ACAD_REACTORS
330
162
102
}
330
162
100
AcDbCellStyleMap
 90
        3
300
CELLSTYLE
  1
TABLEFORMAT_BEGIN
 90
        5
170
     1
 91
        0
 92
    32768
 62
   257
 93
        1
300
CONTENTFORMAT
  1
CONTENTFORMAT_BEGIN
 90
        0
 91
        0
 92
      512
 93
        0
300

 40
0.0
140
1.0
 94
        5
 62
     0
340
11
144
6.0
309
CONTENTFORMAT_END
171
     1
301
MARGIN
  1
CELLMARGIN_BEGIN
 40
1.5
 40
1.5
 40
1.5
 40
1.5
 40
0.18
 40
0.18
309
CELLMARGIN_END
 94
        6
 95
        1
302
GRIDFORMAT
  1
GRIDFORMAT_BEGIN
 90
        0
 91
        1
 62
     0
 92
       -2
340
14
 93
        0
 40
1.125
309
GRIDFORMAT_END
 95
        2
302
GRIDFORMAT
  1
GRIDFORMAT_BEGIN
 90
        0
 91
        1
 62
     0
 92
       -2
340
14
 93
        0
 40
1.125
309
GRIDFORMAT_END
 95
        4
302
GRIDFORMAT
  1
GRIDFORMAT_BEGIN
 90
        0
 91
        1
 62
     0
 92
       -2
340
14
 93
        0
 40
1.125
309
GRIDFORMAT_END
 95
        8
302
GRIDFORMAT
  1
GRIDFORMAT_BEGIN
 90
        0
 91
        1
 62
     0
 92
       -2
340
14
 93
        0
 40
1.125
309
GRIDFORMAT_END
 95
       16
302
GRIDFORMAT
  1
GRIDFORMAT_BEGIN
 90
        0
 91
        1
 62
     0
 92
       -2
340
14
 93
        0
 40
1.125
309
GRIDFORMAT_END
 95
       32
302
GRIDFORMAT
  1
GRIDFORMAT_BEGIN
 90
        0
 91
        1
 62
     0
 92
       -2
340
14
 93
        0
 40
1.125
309
GRIDFORMAT_END
309
TABLEFORMAT_END
  1
CELLSTYLE_BEGIN
 90
        1
 91
        1
300
_TITLE
309
CELLSTYLE_END
300
CELLSTYLE
  1
TABLEFORMAT_BEGIN
 90
        5
170
     1
 91
        0
 92
        0
 62
   257
 93
        1
300
CONTENTFORMAT
  1
CONTENTFORMAT_BEGIN
 90
        0
 91
        0
 92
      512
 93
        0
300

 40
0.0
140
1.0
 94
        5
 62
     0
340
11
144
4.5
309
CONTENTFORMAT_END
171
     1
301
MARGIN
  1
CELLMARGIN_BEGIN
 40
1.5
 40
1.5
 40
1.5
 40
1.5
 40
0.18
 40
0.18
309
CELLMARGIN_END
 94
        6
 95
        1
302
GRIDFORMAT
  1
GRIDFORMAT_BEGIN
 90
        0
 91
        1
 62
     0
 92
       -2
340
14
 93
        0
 40
1.125
309
GRIDFORMAT_END
 95
        2
302
GRIDFORMAT
  1
GRIDFORMAT_BEGIN
 90
        0
 91
        1
 62
     0
 92
       -2
340
14
 93
        0
 40
1.125
309
GRIDFORMAT_END
 95
        4
302
GRIDFORMAT
  1
GRIDFORMAT_BEGIN
 90
        0
 91
        1
 62
     0
 92
       -2
340
14
 93
        0
 40
1.125
309
GRIDFORMAT_END
 95
        8
302
GRIDFORMAT
  1
GRIDFORMAT_BEGIN
 90
        0
 91
        1
 62
     0
 92
       -2
340
14
 93
        0
 40
1.125
309
GRIDFORMAT_END
 95
       16
302
GRIDFORMAT
  1
GRIDFORMAT_BEGIN
 90
        0
 91
        1
 62
     0
 92
       -2
340
14
 93
        0
 40
1.125
309
GRIDFORMAT_END
 95
       32
302
GRIDFORMAT
  1
GRIDFORMAT_BEGIN
 90
        0
 91
        1
 62
     0
 92
       -2
340
14
 93
        0
 40
1.125
309
GRIDFORMAT_END
309
TABLEFORMAT_END
  1
CELLSTYLE_BEGIN
 90
        2
 91
        1
300
_HEADER
309
CELLSTYLE_END
300
CELLSTYLE
  1
TABLEFORMAT_BEGIN
 90
        5
170
     1
 91
        0
 92
        0
 62
   257
 93
        1
300
CONTENTFORMAT
  1
CONTENTFORMAT_BEGIN
 90
        0
 91
        0
 92
      512
 93
        0
300

 40
0.0
140
1.0
 94
        2
 62
     0
340
11
144
4.5
309
CONTENTFORMAT_END
171
     1
301
MARGIN
  1
CELLMARGIN_BEGIN
 40
1.5
 40
1.5
 40
1.5
 40
1.5
 40
0.18
 40
0.18
309
CELLMARGIN_END
 94
        6
 95
        1
302
GRIDFORMAT
  1
GRIDFORMAT_BEGIN
 90
        0
 91
        1
 62
     0
 92
       -2
340
14
 93
        0
 40
1.125
309
GRIDFORMAT_END
 95
        2
302
GRIDFORMAT
  1
GRIDFORMAT_BEGIN
 90
        0
 91
        1
 62
     0
 92
       -2
340
14
 93
        0
 40
1.125
309
GRIDFORMAT_END
 95
        4
302
GRIDFORMAT
  1
GRIDFORMAT_BEGIN
 90
        0
 91
        1
 62
     0
 92
       -2
340
14
 93
        0
 40
1.125
309
GRIDFORMAT_END
 95
        8
302
GRIDFORMAT
  1
GRIDFORMAT_BEGIN
 90
        0
 91
        1
 62
     0
 92
       -2
340
14
 93
        0
 40
1.125
309
GRIDFORMAT_END
 95
       16
302
GRIDFORMAT
  1
GRIDFORMAT_BEGIN
 90
        0
 91
        1
 62
     0
 92
       -2
340
14
 93
        0
 40
1.125
309
GRIDFORMAT_END
 95
       32
302
GRIDFORMAT
  1
GRIDFORMAT_BEGIN
 90
        0
 91
        1
 62
     0
 92
       -2
340
14
 93
        0
 40
1.125
309
GRIDFORMAT_END
309
TABLEFORMAT_END
  1
CELLSTYLE_BEGIN
 90
        3
 91
        2
300
_DATA
309
CELLSTYLE_END
  0
ENDSEC
  0
SECTION
  2
ACDSDATA
 70
     2
 71
     8
  0
ACDSSCHEMA
 90
        0
  1
AcDb_Thumbnail_Schema
  2
AcDbDs::ID
280
    10
 91
        8
  2
Thumbnail_Data
280
    15
 91
        0
101
ACDSRECORD
 95
        0
 90
        1
  2
AcDbDs::TreatedAsObjectData
280
     1
291
     1
101
ACDSRECORD
 95
        0
 90
        2
  2
AcDbDs::Legacy
280
     1
291
     1
101
ACDSRECORD
  1
AcDbDs::ID
 90
        3
  2
AcDs:Indexable
280
     1
291
     1
101
ACDSRECORD
  1
AcDbDs::ID
 90
        4
  2
AcDbDs::HandleAttribute
280
     7
282
     1
  0
ACDSSCHEMA
 90
        1
  1
AcDbDs::TreatedAsObjectDataSchema
  2
AcDbDs::TreatedAsObjectData
280
     1
 91
        0
  0
ACDSSCHEMA
 90
        2
  1
AcDbDs::LegacySchema
  2
AcDbDs::Legacy
280
     1
 91
        0
  0
ACDSSCHEMA
 90
        3
  1
AcDbDs::IndexedPropertySchema
  2
AcDs:Indexable
280
     1
 91
        0
  0
ACDSSCHEMA
 90
        4
  1
AcDbDs::HandleAttributeSchema
  2
AcDbDs::HandleAttribute
280
     7
 91
        1
284
     1
  0
ACDSRECORD
 90
        0
  2
AcDbDs::ID
280
    10
320
12E95
  2
Thumbnail_Data
280
    15
 94
     2072
310
89504E470D0A1A0A0000000D4948445200000100000000B408030000004C80028300000300504C5445FFFFFFFFFFFFFFFFFF0000000000000000000000000000000000000000000000000000330000660000990000CC0000FF0033000033330033660033990033CC0033FF0066000066330066660066990066CC0066FF0099
310
000099330099660099990099CC0099FF00CC0000CC3300CC6600CC9900CCCC00CCFF00FF0000FF3300FF6600FF9900FFCC00FFFF3300003300333300663300993300CC3300FF3333003333333333663333993333CC3333FF3366003366333366663366993366CC3366FF3399003399333399663399993399CC3399FF33CC00
310
33CC3333CC6633CC9933CCCC33CCFF33FF0033FF3333FF6633FF9933FFCC33FFFF6600006600336600666600996600CC6600FF6633006633336633666633996633CC6633FF6666006666336666666666996666CC6666FF6699006699336699666699996699CC6699FF66CC0066CC3366CC6666CC9966CCCC66CCFF66FF0066
310
FF3366FF6666FF9966FFCC66FFFF9900009900339900669900999900CC9900FF9933009933339933669933999933CC9933FF9966009966339966669966999966CC9966FF9999009999339999669999999999CC9999FF99CC0099CC3399CC6699CC9999CCCC99CCFF99FF0099FF3399FF6699FF9999FFCC99FFFFCC0000CC00
310
33CC0066CC0099CC00CCCC00FFCC3300CC3333CC3366CC3399CC33CCCC33FFCC6600CC6633CC6666CC6699CC66CCCC66FFCC9900CC9933CC9966CC9999CC99CCCC99FFCCCC00CCCC33CCCC66CCCC99CCCCCCCCCCFFCCFF00CCFF33CCFF66CCFF99CCFFCCCCFFFFFF0000FF0033FF0066FF0099FF00CCFF00FFFF3300FF3333
310
FF3366FF3399FF33CCFF33FFFF6600FF6633FF6666FF6699FF66CCFF66FFFF9900FF9933FF9966FF9999FF99CCFF99FFFFCC00FFCC33FFCC66FFCC99FFCCCCFFCCFFFFFF00FFFF33FFFF66FFFF99FFFFCCFFFFFF0000000D0D0D1A1A1A2828283535354343435050505D5D5D6B6B6B787878868686939393A1A1A1AEAEAEBB
310
BBBBC9C9C9D6D6D6E4E4E4F1F1F1FFFFFF000000000000000000000000000000000000000000000000000000000000AD4AB4E4000004D34944415478DAED9D4D9283201085FB42DCFF00B9492FA77AE11146C12846943F4194C762A62A15143F5FBF068248F2D771111112EAB8000000CC00B8C7B201D0E1DDEF1D00030000
310
00004C100010020000000000130400840000000000C004010021000000B029C30B4A1E8078AA43C61D190ADCE521CB0487CF58883E1FF33FE88476954F646337A78BAE5E08C0D29EF08B20F3FDE03A8ED325E08B07000FE8DD0300005900001002000000000013040084401400D53D0025A22B869C70FD9688486C639D35E2
310
16769630413522F00350CA5CB4A3043656C8B58AD5758013B445B28012757825C3F29D0994AB752100744D8928754D5091281D056700F40DD432D86BD80F60AC39E30B127A6D00420100A643F33100C701061BF111BE0B01A4870029BDD05868AFC1D503C6CFCC8AE460E90E1B9191A76AD8414B79C0B2D8DAE07702302BD0
310
F7070E50C0545BD7658E508038E4500EC05CFFF75206ABBB20CC2A11C04CA06D004B5A3A00A0F3403200832FF0F7AA34005418804EE3190A98F0350C80376717572A9B8E9CA10059A3ACC510B03470048032146032A16A14C09806A7E0665AD28E1CE4724A07A06BB7AB00CBDECE15C06E0012A48018004B07A08602460128
310
4F1AF428402E57403C8054139C06023C8D5738C3035A5000A50F87A72CED054092D10F203DE06C34044C3F2D400193574A3280E2FD801C00E3DDA500052C004CB690A83458BC2798A7003F0031D387AC4F212B822000A2287C28700700AF0294EEC77C4783225F15848700CFF4B6F85AE80A0785801E0C250F878D837C15B0
310
426806803704CC9C4E0600DD877AB0092A5D3480E3899B93091192C63DC06F82FA533633279B0B916572F804C08C8FC72C123B17565B01263E8F01F017425C4FD0B4709E17F389E14E05C829006B638A85413080059D1744DDAEF056011E0044B606ACF6872980E63AF6F53B38D40710AC004BCBDFF68798E04FC519C6E6FA
310
2D4130B5D815DE36C552B3042B80F600779BBD9039646D130CCD02F6D4E9B7C90900F6BE48BBED60DA56C0F7F66403B0ED81D7B068B51FB02F5701F8B5CAF6C60227127E03803005340EA0EC70F884C02B00F8A7C4DEA5809FF1861EECF70780963F7AC6321B803CC80497AFC9AC00F3D3588300225688E46401569B152269
310
26780D00490690D5139C66ACE5F4C7D15A0AB807802872CCF21435417B7E7833BB7C1300DEB4BF12001BC182E2967E00D507D05857381900BD03C02B1490E501ACB340AF00D4BC62FE6CA9ECBB1530E7F1C82A006099A03CDB04E9F0119850055C0FA0EAEF02EF00C00040F59F1B7C8F0902C0F3011000D40720BD87403700
310
F67317CBF44D3F00363358EBF40DB200B20000200400E04A00040500004CF03100B8F310E0020AE02799205FAF007E96020A00E02701303BA35C0E809F658221BBC8440248DB4586EE5000056DA4146702373C2FD01080F343020000B406E0EC09E0DA00E825004EDF9DDD1A80980D158B0378C7B6BA191B2A62636500206C
310
AC0C00EF7BC9CA3A28BAE0252B0F7B73CCB0DF50A1BA07D428837BCFE13D80172BC0F5F0400905340EC0BED61F009317F83C801E1C025E0FE8340BFC64806C0F787901000020BC76170010020000000000130400840000000000C0040100210000000000304100400800000000004C1000100200000000D09909F6587E01F4
310
F7D702D06B0100001801FC755C9CDB757756FE015B85D0F84332FDAD0000000049454E44AE426082
  0
ACDSRECORD
 90
        0
  2
AcDbDs::ID
280
    10
320
22
  2
Thumbnail_Data
280
    15
 94
     2211
310
89504E470D0A1A0A0000000D49484452000001000000008E0803000000E961264800000300504C5445000000FFFFFF0000000000000000000000000000000000000000000000000000000000330000660000990000CC0000FF0033000033330033660033990033CC0033FF0066000066330066660066990066CC0066FF0099
310
000099330099660099990099CC0099FF00CC0000CC3300CC6600CC9900CCCC00CCFF00FF0000FF3300FF6600FF9900FFCC00FFFF3300003300333300663300993300CC3300FF3333003333333333663333993333CC3333FF3366003366333366663366993366CC3366FF3399003399333399663399993399CC3399FF33CC00
310
33CC3333CC6633CC9933CCCC33CCFF33FF0033FF3333FF6633FF9933FFCC33FFFF6600006600336600666600996600CC6600FF6633006633336633666633996633CC6633FF6666006666336666666666996666CC6666FF6699006699336699666699996699CC6699FF66CC0066CC3366CC6666CC9966CCCC66CCFF66FF0066
310
FF3366FF6666FF9966FFCC66FFFF9900009900339900669900999900CC9900FF9933009933339933669933999933CC9933FF9966009966339966669966999966CC9966FF9999009999339999669999999999CC9999FF99CC0099CC3399CC6699CC9999CCCC99CCFF99FF0099FF3399FF6699FF9999FFCC99FFFFCC0000CC00
310
33CC0066CC0099CC00CCCC00FFCC3300CC3333CC3366CC3399CC33CCCC33FFCC6600CC6633CC6666CC6699CC66CCCC66FFCC9900CC9933CC9966CC9999CC99CCCC99FFCCCC00CCCC33CCCC66CCCC99CCCCCCCCCCFFCCFF00CCFF33CCFF66CCFF99CCFFCCCCFFFFFF0000FF0033FF0066FF0099FF00CCFF00FFFF3300FF3333
310
FF3366FF3399FF33CCFF33FFFF6600FF6633FF6666FF6699FF66CCFF66FFFF9900FF9933FF9966FF9999FF99CCFF99FFFFCC00FFCC33FFCC66FFCC99FFCCCCFFCCFFFFFF00FFFF33FFFF66FFFF99FFFFCCFFFFFF0000000D0D0D1A1A1A2828283535354343435050505D5D5D6B6B6B787878868686939393A1A1A1AEAEAEBB
310
BBBBC9C9C9D6D6D6E4E4E4F1F1F1FFFFFF0000000000000000000000000000000000000000000000000000000000003AE5ACE90000055E4944415478DAED9D4DD6AB200C86B321F6BF806E27834E98574014F0878011AC847BCE57EF69C5F0F40D818016400AC077D0B202B84C90F3DB68F7BDAF471F30FF003E1F7BF429AE
310
CA9C644EFBF872C12C5B172C755519540CC05DC8B5E25303206A3E5C313832C635BF1500F7072AEC5F8D065FC75500AB31178192004827387A27280004800010000240000800012000048000100002202A6A78000AD11ECC2F64A3313C01F1F4740280E3F3A777F04E175053C1AB00E03E005802B7AA0F50808680018D04A3
310
275EDEAC83520E00EB0A17003404CEABFCC6BC1C04D8976611801927E9C4D20B15280054C6846FDC6D1A648A0700C239CE16008CFE1D012280E9631A780080D1DE19CE260AB0A2261B6D5C469B52E9A8DFCDD5A7FA54671730EDB1551E98BE91ADF9B43BE7D8AE03517D3757473ACE22D8052EA02D82B5419898FE4DC3868E
310
3F5F0FC04AC05474501B4101782409BA02700210994000A0D481C5C500104E70B600E014B019D560AEE76602605C00B42A6E3FBF029271ED9902CC9BC8A780139C3D149003E00221322AC006D68E0A70DD705AF70900DB7E26008EC0A19EDAB880554068414E018C2EE0F5A4FABA8036D7D7EB48A09D0B64F4D4CC054C37B4
310
74044871817305F871094501167B6717D066309A1D07CCF1DA0F83F6C33719C06E6DC500820160BD0B4C031B3B19D0D44E10F39D205D012E0CD42A8001C0DC099101CC1EC0E70297C2E06500CA96490474002E08208F02FCB04A7553801FDD1600B03921C53610326361D47D011429C0046DCD361730ED573DE702E50096E9
310
7094D2044C9A5C341B84CE009C0B1628C0C6B1B9E1FEA50EC0928EE8AB8012005B052C43C82A05A0C30991A0F2EB21BD1460E7AF27A396F29418285892620EA50B33F84C053003704120A8CD51202C7D7453805D48E153C09212FB973E40CDF9B01C002CC80AF7EF044BA280FB0061698004601E53FD2900389C0DD2F301C1
310
CC10F5A5E5002E17F0C13D0B601F42E964289C1A43C9BCF84605500058AB61672E5F07C0E5E482BAF22898E60273522258EBA129C09F9C91025901C191A6A1E09D0D16BB40003010F1F4B22E3016004817878236EF1DEAE34E87C3057249D1F45AB341A971450020925450D1BE125C9F09F77482B428B035DCB9B2C62B00F6
310
686CFFE728740E83C1B1FB12FCB7C40760E30EB10E74AFD9E001006F2B3B80B4B75C61F454C041B91DC012353B0338936B0300A04707F05C05C0E800FE560105EB022F046072E2F3FAF80800B66957546E696A200073DAD527B36D56E60600F85400611EDF25A6DC4E416600D81240F54ED119800EB78A550348765BE6F70A
310
5716BC010079ABEC1314106E28E053409CCB6001709302F00617D8EC56EE1B057C42C9AD3AA7E925BCA50F48ACED0E60BE8B295C2A5BC216FB48F0810096D6E3724317DE37146603F0AF93A1C729A080F4A000B40060046072A2A8C705E016FC817AD7D81B5D6067F45B67F4F00096F164E9DAE0EB147037806532C4B33608
310
99FBF49F0720BC1097024607C0AB80669D201B80D3324214600200A303F8D3C990B800130014006303C0115CE070CA3C0680F02EA1284B8BEB5EB1F703881040F41CB0660A0009830240000880070200990CC9644814200004C0B000F4E000E21B398654806EA400FDD0C9502B00FC374DFD9D0204C0333B410CEFE7A43D57
310
F8650A0000CD5457BEFD083CCF15660470FE7C6EEE285060F5EB00902E2400048000680F80F08B282F57402B0094DF9E690EA0FA4756DE02A0595DBCBF32F397001EDA0734AF4B00080001200048004628F8B5B171FE6B4B07E8777F9507EFEF3F64F1450A089EF6B0EECA72F7E73B001B04AF53806F3DA41BD4D02B20BEBF
310
F8950A4800045A0FA4F16617C0DD5D8A27ED1BB2131C330CA6BD5FAA8091CB0FD07C62FFBF1C00CF0000000049454E44AE426082
  0
ENDSEC
  0
EOF
