  0
SECTION
  2
HEADER
  9
$ACADVER
  1
AC1032
  9
$ACADMAINTVER
 90
      174
  9
$DWGCODEPAGE
  3
ANSI_932
  9
$LASTSAVEDBY
  1
kikaku01
  9
$REQUIREDVERSIONS
160
                 0
  9
$INSBASE
 10
0.0
 20
0.0
 30
0.0
  9
$EXTMIN
 10
0.0
 20
-0.0000000000145519
 30
0.0
  9
$EXTMAX
 10
8100.000000000072
 20
5640.0
 30
0.0
  9
$LIMMIN
 10
0.0
 20
0.0
  9
$LIMMAX
 10
420.0
 20
297.0
  9
$ORTHOMODE
 70
     0
  9
$REGENMODE
 70
     1
  9
$FILLMODE
 70
     1
  9
$QTEXTMODE
 70
     0
  9
$MIRRTEXT
 70
     0
  9
$LTSCALE
 40
1.0
  9
$ATTMODE
 70
     1
  9
$TEXTSIZE
 40
10.0
  9
$TRACEWID
 40
1.0
  9
$TEXTSTYLE
  7
NS横文字
  9
$CLAYER
  8
0
  9
$CELTYPE
  6
ByLayer
  9
$CECOLOR
 62
   256
  9
$CELTSCALE
 40
1.0
  9
$DISPSILH
 70
     0
  9
$DIMSCALE
 40
1.0
  9
$DIMASZ
 40
10.0
  9
$DIMEXO
 40
2.0
  9
$DIMDLI
 40
3.75
  9
$DIMRND
 40
0.0
  9
$DIMDLE
 40
0.0
  9
$DIMEXE
 40
1.25
  9
$DIMTP
 40
0.0
  9
$DIMTM
 40
0.0
  9
$DIMTXT
 40
20.0
  9
$DIMCEN
 40
2.5
  9
$DIMTSZ
 40
0.0
  9
$DIMTOL
 70
     0
  9
$DIMLIM
 70
     0
  9
$DIMTIH
 70
     0
  9
$DIMTOH
 70
     0
  9
$DIMSE1
 70
     0
  9
$DIMSE2
 70
     0
  9
$DIMTAD
 70
     1
  9
$DIMZIN
 70
     8
  9
$DIMBLK
  1
Open
  9
$DIMASO
 70
     1
  9
$DIMSHO
 70
     1
  9
$DIMPOST
  1

  9
$DIMAPOST
  1

  9
$DIMALT
 70
     0
  9
$DIMALTD
 70
     3
  9
$DIMALTF
 40
0.03937007874016
  9
$DIMLFAC
 40
1.0
  9
$DIMTOFL
 70
     1
  9
$DIMTVP
 40
0.0
  9
$DIMTIX
 70
     0
  9
$DIMSOXD
 70
     0
  9
$DIMSAH
 70
     0
  9
$DIMBLK1
  1

  9
$DIMBLK2
  1

  9
$DIMSTYLE
  2
NS寸法
  9
$DIMCLRD
 70
     0
  9
$DIMCLRE
 70
     0
  9
$DIMCLRT
 70
     0
  9
$DIMTFAC
 40
1.0
  9
$DIMGAP
 40
1.0
  9
$DIMJUST
 70
     0
  9
$DIMSD1
 70
     0
  9
$DIMSD2
 70
     0
  9
$DIMTOLJ
 70
     0
  9
$DIMTZIN
 70
     8
  9
$DIMALTZ
 70
     0
  9
$DIMALTTZ
 70
     0
  9
$DIMUPT
 70
     0
  9
$DIMDEC
 70
     2
  9
$DIMTDEC
 70
     2
  9
$DIMALTU
 70
     2
  9
$DIMALTTD
 70
     3
  9
$DIMTXSTY
  7
Standard
  9
$DIMAUNIT
 70
     0
  9
$DIMADEC
 70
     0
  9
$DIMALTRND
 40
0.0
  9
$DIMAZIN
 70
     0
  9
$DIMDSEP
 70
    44
  9
$DIMATFIT
 70
     3
  9
$DIMFRAC
 70
     0
  9
$DIMLDRBLK
  1

  9
$DIMLUNIT
 70
     2
  9
$DIMLWD
 70
    -2
  9
$DIMLWE
 70
    -2
  9
$DIMTMOVE
 70
     0
  9
$DIMFXL
 40
1.0
  9
$DIMFXLON
 70
     0
  9
$DIMJOGANG
 40
0.7853981633974483
  9
$DIMTFILL
 70
     0
  9
$DIMTFILLCLR
 70
     0
  9
$DIMARCSYM
 70
     0
  9
$DIMLTYPE
  6

  9
$DIMLTEX1
  6

  9
$DIMLTEX2
  6

  9
$DIMTXTDIRECTION
 70
     0
  9
$LUNITS
 70
     2
  9
$LUPREC
 70
     4
  9
$SKETCHINC
 40
1.0
  9
$FILLETRAD
 40
0.0
  9
$AUNITS
 70
     0
  9
$AUPREC
 70
     0
  9
$MENU
  1
.
  9
$ELEVATION
 40
0.0
  9
$PELEVATION
 40
0.0
  9
$THICKNESS
 40
0.0
  9
$LIMCHECK
 70
     0
  9
$CHAMFERA
 40
0.0
  9
$CHAMFERB
 40
0.0
  9
$CHAMFERC
 40
0.0
  9
$CHAMFERD
 40
0.0
  9
$SKPOLY
 70
     0
  9
$TDCREATE
 40
2459239.484710648
  9
$TDUCREATE
 40
2459239.109710648
  9
$TDUPDATE
 40
2459249.620150463
  9
$TDUUPDATE
 40
2459249.245150463
  9
$TDINDWG
 40
0.0024074074
  9
$TDUSRTIMER
 40
0.0024074074
  9
$USRTIMER
 70
     1
  9
$ANGBASE
 50
0.0
  9
$ANGDIR
 70
     0
  9
$PDMODE
 70
     0
  9
$PDSIZE
 40
0.0
  9
$PLINEWID
 40
0.0
  9
$SPLFRAME
 70
     0
  9
$SPLINETYPE
 70
     6
  9
$SPLINESEGS
 70
     8
  9
$HANDSEED
  5
4765
  9
$SURFTAB1
 70
     6
  9
$SURFTAB2
 70
     6
  9
$SURFTYPE
 70
     6
  9
$SURFU
 70
     6
  9
$SURFV
 70
     6
  9
$UCSBASE
  2

  9
$UCSNAME
  2

  9
$UCSORG
 10
0.0
 20
0.0
 30
0.0
  9
$UCSXDIR
 10
1.0
 20
0.0
 30
0.0
  9
$UCSYDIR
 10
0.0
 20
1.0
 30
0.0
  9
$UCSORTHOREF
  2

  9
$UCSORTHOVIEW
 70
     0
  9
$UCSORGTOP
 10
0.0
 20
0.0
 30
0.0
  9
$UCSORGBOTTOM
 10
0.0
 20
0.0
 30
0.0
  9
$UCSORGLEFT
 10
0.0
 20
0.0
 30
0.0
  9
$UCSORGRIGHT
 10
0.0
 20
0.0
 30
0.0
  9
$UCSORGFRONT
 10
0.0
 20
0.0
 30
0.0
  9
$UCSORGBACK
 10
0.0
 20
0.0
 30
0.0
  9
$PUCSBASE
  2

  9
$PUCSNAME
  2

  9
$PUCSORG
 10
0.0
 20
0.0
 30
0.0
  9
$PUCSXDIR
 10
1.0
 20
0.0
 30
0.0
  9
$PUCSYDIR
 10
0.0
 20
1.0
 30
0.0
  9
$PUCSORTHOREF
  2

  9
$PUCSORTHOVIEW
 70
     0
  9
$PUCSORGTOP
 10
0.0
 20
0.0
 30
0.0
  9
$PUCSORGBOTTOM
 10
0.0
 20
0.0
 30
0.0
  9
$PUCSORGLEFT
 10
0.0
 20
0.0
 30
0.0
  9
$PUCSORGRIGHT
 10
0.0
 20
0.0
 30
0.0
  9
$PUCSORGFRONT
 10
0.0
 20
0.0
 30
0.0
  9
$PUCSORGBACK
 10
0.0
 20
0.0
 30
0.0
  9
$USERI1
 70
     0
  9
$USERI2
 70
     0
  9
$USERI3
 70
     0
  9
$USERI4
 70
     0
  9
$USERI5
 70
     0
  9
$USERR1
 40
0.0
  9
$USERR2
 40
0.0
  9
$USERR3
 40
0.0
  9
$USERR4
 40
0.0
  9
$USERR5
 40
0.0
  9
$WORLDVIEW
 70
     1
  9
$SHADEDGE
 70
     3
  9
$SHADEDIF
 70
    70
  9
$TILEMODE
 70
     1
  9
$MAXACTVP
 70
    64
  9
$PINSBASE
 10
0.0
 20
0.0
 30
0.0
  9
$PLIMCHECK
 70
     0
  9
$PEXTMIN
 10
0.0
 20
0.0
 30
0.0
  9
$PEXTMAX
 10
297.0
 20
210.0
 30
0.0
  9
$PLIMMIN
 10
0.0
 20
0.0
  9
$PLIMMAX
 10
297.0
 20
210.0
  9
$UNITMODE
 70
     0
  9
$VISRETAIN
 70
     1
  9
$PLINEGEN
 70
     0
  9
$PSLTSCALE
 70
     1
  9
$TREEDEPTH
 70
  3020
  9
$CMLSTYLE
  2
Standard
  9
$CMLJUST
 70
     0
  9
$CMLSCALE
 40
20.0
  9
$PROXYGRAPHICS
 70
     1
  9
$MEASUREMENT
 70
     1
  9
$CELWEIGHT
370
    -1
  9
$ENDCAPS
280
     0
  9
$JOINSTYLE
280
     0
  9
$LWDISPLAY
290
     0
  9
$INSUNITS
 70
     4
  9
$HYPERLINKBASE
  1

  9
$STYLESHEET
  1

  9
$XEDIT
290
     1
  9
$CEPSNTYPE
380
     0
  9
$PSTYLEMODE
290
     1
  9
$FINGERPRINTGUID
  2
{749227E2-A959-8D41-8B03-9E258DF0B17D}
  9
$VERSIONGUID
  2
{CC2969B1-DB53-9C4E-B3A5-C284DB51D78C}
  9
$EXTNAMES
290
     1
  9
$PSVPSCALE
 40
0.0
  9
$OLESTARTUP
290
     0
  9
$SORTENTS
280
   127
  9
$INDEXCTL
280
     0
  9
$HIDETEXT
280
     1
  9
$XCLIPFRAME
280
     2
  9
$HALOGAP
280
     0
  9
$OBSCOLOR
 70
   257
  9
$OBSLTYPE
280
     0
  9
$INTERSECTIONDISPLAY
280
     0
  9
$INTERSECTIONCOLOR
 70
   257
  9
$DIMASSOC
280
     2
  9
$PROJECTNAME
  1

  9
$CAMERADISPLAY
290
     0
  9
$LENSLENGTH
 40
50.0
  9
$CAMERAHEIGHT
 40
0.0
  9
$STEPSPERSEC
 40
2.0
  9
$STEPSIZE
 40
6.0
  9
$3DDWFPREC
 40
2.0
  9
$PSOLWIDTH
 40
5.0
  9
$PSOLHEIGHT
 40
80.0
  9
$LOFTANG1
 40
1.570796326794896
  9
$LOFTANG2
 40
1.570796326794896
  9
$LOFTMAG1
 40
0.0
  9
$LOFTMAG2
 40
0.0
  9
$LOFTPARAM
 70
     7
  9
$LOFTNORMALS
280
     1
  9
$LATITUDE
 40
37.795
  9
$LONGITUDE
 40
-122.394
  9
$NORTHDIRECTION
 40
0.0
  9
$TIMEZONE
 70
 -8000
  9
$LIGHTGLYPHDISPLAY
280
     1
  9
$TILEMODELIGHTSYNCH
280
     1
  9
$CMATERIAL
347
EC
  9
$SOLIDHIST
280
     0
  9
$SHOWHIST
280
     1
  9
$DWFFRAME
280
     2
  9
$DGNFRAME
280
     0
  9
$REALWORLDSCALE
290
     1
  9
$INTERFERECOLOR
 62
     1
  9
$INTERFEREOBJVS
345
F9
  9
$INTERFEREVPVS
346
F6
  9
$CSHADOW
280
     0
  9
$SHADOWPLANELOCATION
 40
0.0
  0
ENDSEC
  0
SECTION
  2
CLASSES
  0
CLASS
  1
ACDBDICTIONARYWDFLT
  2
AcDbDictionaryWithDefault
  3
ObjectDBX Classes
 90
        0
 91
        1
280
     0
281
     0
  0
CLASS
  1
DICTIONARYVAR
  2
AcDbDictionaryVar
  3
ObjectDBX Classes
 90
        0
 91
       15
280
     0
281
     0
  0
CLASS
  1
TABLESTYLE
  2
AcDbTableStyle
  3
ObjectDBX Classes
 90
     4095
 91
        1
280
     0
281
     0
  0
CLASS
  1
MATERIAL
  2
AcDbMaterial
  3
ObjectDBX Classes
 90
     1153
 91
        3
280
     0
281
     0
  0
CLASS
  1
VISUALSTYLE
  2
AcDbVisualStyle
  3
ObjectDBX Classes
 90
     4095
 91
       24
280
     0
281
     0
  0
CLASS
  1
SCALE
  2
AcDbScale
  3
ObjectDBX Classes
 90
     1153
 91
       17
280
     0
281
     0
  0
CLASS
  1
MLEADERSTYLE
  2
AcDbMLeaderStyle
  3
ACDB_MLEADERSTYLE_CLASS
 90
     4095
 91
        5
280
     0
281
     0
  0
CLASS
  1
CELLSTYLEMAP
  2
AcDbCellStyleMap
  3
ObjectDBX Classes
 90
     1152
 91
        1
280
     0
281
     0
  0
CLASS
  1
EXACXREFPANELOBJECT
  2
ExAcXREFPanelObject
  3
EXAC_ESW
 90
     1025
 91
        0
280
     0
281
     0
  0
CLASS
  1
NPOCOLLECTION
  2
AcDbImpNonPersistentObjectsCollection
  3
ObjectDBX Classes
 90
     1153
 91
        0
280
     0
281
     0
  0
CLASS
  1
LAYER_INDEX
  2
AcDbLayerIndex
  3
ObjectDBX Classes
 90
        0
 91
        0
280
     0
281
     0
  0
CLASS
  1
SPATIAL_INDEX
  2
AcDbSpatialIndex
  3
ObjectDBX Classes
 90
        0
 91
        0
280
     0
281
     0
  0
CLASS
  1
IDBUFFER
  2
AcDbIdBuffer
  3
ObjectDBX Classes
 90
        0
 91
        0
280
     0
281
     0
  0
CLASS
  1
ACDBSECTIONVIEWSTYLE
  2
AcDbSectionViewStyle
  3
ObjectDBX Classes
 90
     1025
 91
        2
280
     0
281
     0
  0
CLASS
  1
ACDBDETAILVIEWSTYLE
  2
AcDbDetailViewStyle
  3
ObjectDBX Classes
 90
     1025
 91
        2
280
     0
281
     0
  0
CLASS
  1
SORTENTSTABLE
  2
AcDbSortentsTable
  3
ObjectDBX Classes
 90
        0
 91
        1
280
     0
281
     0
  0
CLASS
  1
ACDB_MTEXTOBJECTCONTEXTDATA_CLASS
  2
AcDbMTextObjectContextData
  3
ObjectDBX Classes
 90
     1153
 91
        7
280
     0
281
     0
  0
CLASS
  1
ACDB_TEXTOBJECTCONTEXTDATA_CLASS
  2
AcDbTextObjectContextData
  3
ObjectDBX Classes
 90
     1153
 91
        7
280
     0
281
     0
  0
CLASS
  1
DIMASSOC
  2
AcDbDimAssoc
  3
"AcDbDimAssoc|Product Desc:     AcDim ARX App For Dimension|Company:          Autodesk, Inc.|WEB Address:      www.autodesk.com"
 90
        0
 91
        0
280
     0
281
     0
  0
CLASS
  1
MULTILEADER
  2
AcDbMLeader
  3
ACDB_MLEADER_CLASS
 90
     1025
 91
        0
280
     0
281
     1
  0
CLASS
  1
ACDB_ALDIMOBJECTCONTEXTDATA_CLASS
  2
AcDbAlignedDimensionObjectContextData
  3
ObjectDBX Classes
 90
     1153
 91
        5
280
     0
281
     0
  0
CLASS
  1
ACDB_LEADEROBJECTCONTEXTDATA_CLASS
  2
AcDbLeaderObjectContextData
  3
ObjectDBX Classes
 90
     1153
 91
        0
280
     0
281
     0
  0
CLASS
  1
ACDB_MLEADEROBJECTCONTEXTDATA_CLASS
  2
AcDbMLeaderObjectContextData
  3
ObjectDBX Classes
 90
     1153
 91
        0
280
     0
281
     0
  0
CLASS
  1
ACDB_HATCHVIEWCONTEXTDATA_CLASS
  2
AcDbHatchViewContextData
  3
ObjectDBX Classes
 90
     1153
 91
        0
280
     0
281
     0
  0
CLASS
  1
ACDB_HATCHSCALECONTEXTDATA_CLASS
  2
AcDbHatchScaleContextData
  3
ObjectDBX Classes
 90
     1153
 91
        0
280
     0
281
     0
  0
CLASS
  1
ACAD_EVALUATION_GRAPH
  2
AcDbEvalGraph
  3
ObjectDBX Classes
 90
     1153
 91
        0
280
     0
281
     0
  0
CLASS
  1
ACAECUSTOBJ
  2
AcAeEditorObj
  3
AcAeEditorObj
 90
     1024
 91
        0
280
     0
281
     0
  0
CLASS
  1
PLOTSETTINGS
  2
AcDbPlotSettings
  3
ObjectDBX Classes
 90
        0
 91
        2
280
     0
281
     0
  0
ENDSEC
  0
SECTION
  2
TABLES
  0
TABLE
  2
VPORT
  5
8
330
0
100
AcDbSymbolTable
 70
     1
  0
VPORT
  5
EA
330
8
100
AcDbSymbolTableRecord
100
AcDbViewportTableRecord
  2
*Active
 70
     0
 10
0.0
 20
0.0
 11
1.0
 21
1.0
 12
4050.000037719751
 22
3354.982247236682
 13
0.0
 23
0.0
 14
10.0
 24
10.0
 15
10.0
 25
10.0
 16
0.0
 26
0.0
 36
1.0
 17
0.0
 27
0.0
 37
0.0
 40
6078.393704931991
 41
1.581724581724581
 42
50.0
 43
0.0
 44
0.0
 50
0.0
 51
0.0
 71
     0
 72
  1000
 73
     1
 74
     3
 75
     0
 76
     0
 77
     0
 78
     0
281
     0
 65
     1
110
0.0
120
0.0
130
0.0
111
1.0
121
0.0
131
0.0
112
0.0
122
1.0
132
0.0
 79
     0
146
0.0
348
F5
 60
     3
 61
     5
292
     1
282
     1
141
0.0
142
0.0
 63
   250
421
  3355443
1001
ACAD_NAV_VCDISPLAY
1070
     3
  0
ENDTAB
  0
TABLE
  2
LTYPE
  5
5
330
0
100
AcDbSymbolTable
 70
     4
  0
LTYPE
  5
14
330
5
100
AcDbSymbolTableRecord
100
AcDbLinetypeTableRecord
  2
ByBlock
 70
     0
  3

 72
    65
 73
     0
 40
0.0
  0
LTYPE
  5
15
330
5
100
AcDbSymbolTableRecord
100
AcDbLinetypeTableRecord
  2
ByLayer
 70
     0
  3

 72
    65
 73
     0
 40
0.0
  0
LTYPE
  5
16
330
5
100
AcDbSymbolTableRecord
100
AcDbLinetypeTableRecord
  2
Continuous
 70
     0
  3
Solid line
 72
    65
 73
     0
 40
0.0
  0
LTYPE
  5
2C4
330
5
100
AcDbSymbolTableRecord
100
AcDbLinetypeTableRecord
  2
ACAD_ISO10W100
 70
     0
  3
ISO dash dot __ . __ . __ . __ . __ . __ . __ .
 72
    65
 73
     4
 40
18.0
 49
12.0
 74
     0
 49
-3.0
 74
     0
 49
0.0
 74
     0
 49
-3.0
 74
     0
  0
LTYPE
  5
456
330
5
100
AcDbSymbolTableRecord
100
AcDbLinetypeTableRecord
  2
ACAD_ISO02W100
 70
     0
  3
ISO dash __ __ __ __ __ __ __ __ __ __ __ __ __
 72
    65
 73
     2
 40
15.0
 49
12.0
 74
     0
 49
-3.0
 74
     0
  0
LTYPE
  5
457
330
5
100
AcDbSymbolTableRecord
100
AcDbLinetypeTableRecord
  2
ACAD_ISO03W100
 70
     0
  3
ISO dash space __    __    __    __    __    __
 72
    65
 73
     2
 40
30.0
 49
12.0
 74
     0
 49
-18.0
 74
     0
  0
ENDTAB
  0
TABLE
  2
LAYER
  5
2
102
{ACAD_XDICTIONARY
360
1FF
102
}
330
0
100
AcDbSymbolTable
 70
    17
  0
LAYER
  5
10
102
{ACAD_XDICTIONARY
360
13C
102
}
330
2
100
AcDbSymbolTableRecord
100
AcDbLayerTableRecord
  2
0
 70
     0
 62
     7
  6
Continuous
370
    -3
390
F
347
EE
348
0
  0
LAYER
  5
458
330
2
100
AcDbSymbolTableRecord
100
AcDbLayerTableRecord
  2
Defpoints
 70
     0
 62
     7
  6
Continuous
290
     0
370
    -3
390
F
347
EE
348
0
  0
LAYER
  5
459
102
{ACAD_XDICTIONARY
360
45A
102
}
330
2
100
AcDbSymbolTableRecord
100
AcDbLayerTableRecord
  2
躯体
 70
     0
 62
     2
  6
Continuous
370
    -3
390
F
347
EE
348
0
  0
LAYER
  5
45D
102
{ACAD_XDICTIONARY
360
45E
102
}
330
2
100
AcDbSymbolTableRecord
100
AcDbLayerTableRecord
  2
文字
 70
     0
 62
     8
  6
Continuous
370
    -3
390
F
347
EE
348
0
  0
LAYER
  5
45F
102
{ACAD_XDICTIONARY
360
460
102
}
330
2
100
AcDbSymbolTableRecord
100
AcDbLayerTableRecord
  2
寸法
 70
     0
 62
     8
  6
Continuous
370
    -3
390
F
347
EE
348
0
1001
AcAecLayerStandard
1000

1000

  0
LAYER
  5
471
102
{ACAD_XDICTIONARY
360
472
102
}
330
2
100
AcDbSymbolTableRecord
100
AcDbLayerTableRecord
  2
ﾏﾙｴｽｱﾙﾐﾊﾞｰ
 70
     0
 62
    51
  6
Continuous
370
    -3
390
F
347
EE
348
0
1001
AcAecLayerStandard
1000

1000

  0
LAYER
  5
1854
102
{ACAD_XDICTIONARY
360
1855
102
}
330
2
100
AcDbSymbolTableRecord
100
AcDbLayerTableRecord
  2
断熱層
 70
     0
 62
     5
  6
Continuous
370
    -3
390
F
347
EE
348
0
1001
AcAecLayerStandard
1000

1000

  0
LAYER
  5
31BA
330
2
100
AcDbSymbolTableRecord
100
AcDbLayerTableRecord
  2
ﾏﾙｴｽｼﾝｸﾞﾙ
 70
     0
 62
     3
  6
Continuous
370
    -3
390
F
347
EE
348
0
1001
AcAecLayerStandard
1000

1000

  0
LAYER
  5
31BB
330
2
100
AcDbSymbolTableRecord
100
AcDbLayerTableRecord
  2
ｶｽﾀﾑﾍﾞｰｽ
 70
     0
 62
     5
  6
Continuous
370
    -3
390
F
347
EE
348
0
1001
AcAecLayerStandard
1000

1000

  0
LAYER
  5
31BC
330
2
100
AcDbSymbolTableRecord
100
AcDbLayerTableRecord
  2
枠
 70
     0
 62
     7
  6
Continuous
370
    -3
390
F
347
EE
348
0
1001
AcAecLayerStandard
1000

1000

  0
LAYER
  5
3619
330
2
100
AcDbSymbolTableRecord
100
AcDbLayerTableRecord
  2
ﾏﾙｴｽｱﾙﾐﾌﾗｯｼﾝｸﾞ
 70
     0
 62
     6
  6
Continuous
370
    -3
390
F
347
EE
348
0
1001
AcAecLayerStandard
1000

1000

  0
LAYER
  5
4097
330
2
100
AcDbSymbolTableRecord
100
AcDbLayerTableRecord
  2
ﾊｯﾁ
 70
     0
 62
     8
  6
Continuous
370
    -3
390
F
347
EE
348
0
1001
AcAecLayerStandard
1000

1000

  0
LAYER
  5
4098
330
2
100
AcDbSymbolTableRecord
100
AcDbLayerTableRecord
  2
ﾏﾙｴｽｽﾃﾝ雪止め
 70
     0
 62
     6
  6
Continuous
370
    -3
390
F
347
EE
348
0
  0
LAYER
  5
4099
330
2
100
AcDbSymbolTableRecord
100
AcDbLayerTableRecord
  2
桟木隠れ線
 70
     0
 62
    40
  6
ACAD_ISO03W100
370
    -3
390
F
347
EE
348
0
1001
AcAecLayerStandard
1000

1000

  0
LAYER
  5
409A
330
2
100
AcDbSymbolTableRecord
100
AcDbLayerTableRecord
  2
ﾏﾙｴｽｽﾃﾝ雪止め隠れ線
 70
     0
 62
     6
  6
ACAD_ISO03W100
370
    -3
390
F
347
EE
348
0
1001
AcAecLayerStandard
1000

1000

  0
LAYER
  5
409B
330
2
100
AcDbSymbolTableRecord
100
AcDbLayerTableRecord
  2
補助線隠れ線
 70
     0
 62
     1
  6
ACAD_ISO03W100
370
    -3
390
F
347
EE
348
0
1001
AcAecLayerStandard
1000

1000

  0
LAYER
  5
409C
330
2
100
AcDbSymbolTableRecord
100
AcDbLayerTableRecord
  2
ﾏﾙｴｽｼﾝｸﾞﾙ隠れ線
 70
     0
 62
     3
  6
ACAD_ISO03W100
370
    -3
390
F
347
EE
348
0
1001
AcAecLayerStandard
1000

1000

  0
ENDTAB
  0
TABLE
  2
STYLE
  5
3
330
0
100
AcDbSymbolTable
 70
     9
  0
STYLE
  5
11
330
3
100
AcDbSymbolTableRecord
100
AcDbTextStyleTableRecord
  2
Standard
 70
     0
 40
0.0
 41
1.0
 50
0.0
 71
     0
 42
2.5
  3
arial.ttf
  4

1001
ACAD
1000
Arial
1071
       34
  0
STYLE
  5
132
330
3
100
AcDbSymbolTableRecord
100
AcDbTextStyleTableRecord
  2
Annotative
 70
     0
 40
0.0
 41
1.0
 50
0.0
 71
     0
 42
2.5
  3
arial.ttf
  4

1001
AcadAnnotative
1000
AnnotativeData
1002
{
1070
     1
1070
     1
1002
}
1001
ACAD
1000
Arial
1071
       34
  0
STYLE
  5
298
330
3
100
AcDbSymbolTableRecord
100
AcDbTextStyleTableRecord
  2
NS横文字
 70
     0
 40
0.0
 41
1.0
 50
0.0
 71
     0
 42
10.0
  3

  4

1001
AcadAnnotative
1000
AnnotativeData
1002
{
1070
     1
1070
     1
1002
}
1001
ACAD
1000
MS Gothic
1071
    32817
  0
STYLE
  5
29B
330
3
100
AcDbSymbolTableRecord
100
AcDbTextStyleTableRecord
  2
NS縦文字
 70
     0
 40
0.0
 41
1.0
 50
0.0
 71
     0
 42
2.5
  3

  4

1001
AcadAnnotative
1000
AnnotativeData
1002
{
1070
     1
1070
     1
1002
}
1001
ACAD
1000
@MS Gothic
1071
    32817
  0
STYLE
  5
2C3
330
3
100
AcDbSymbolTableRecord
100
AcDbTextStyleTableRecord
  2

 70
     1
 40
0.0
 41
1.0
 50
0.0
 71
     0
 42
2.5
  3
ltypeshp.shx
  4

  0
STYLE
  5
479
330
3
100
AcDbSymbolTableRecord
100
AcDbTextStyleTableRecord
  2
ﾃﾞｨﾃｰﾙ
 70
     0
 40
0.0
 41
1.0
 50
0.0
 71
     0
 42
0.2
  3
txt.shx
  4
extfont.shx
  0
STYLE
  5
47A
330
3
100
AcDbSymbolTableRecord
100
AcDbTextStyleTableRecord
  2
ディテール
 70
     0
 40
20.0
 41
1.0
 50
0.0
 71
     0
 42
2.5
  3
txt.shx
  4
extfont2.shx
  0
STYLE
  5
31BF
330
3
100
AcDbSymbolTableRecord
100
AcDbTextStyleTableRecord
  2
ﾃﾞｨﾃｰﾙ(ｼﾝｸﾞﾙ)
 70
     0
 40
0.0
 41
1.0
 50
0.0
 71
     0
 42
10.0
  3
txt.shx
  4
extfont.shx
  0
STYLE
  5
31C0
330
3
100
AcDbSymbolTableRecord
100
AcDbTextStyleTableRecord
  2
スタイル2
 70
     0
 40
150.0
 41
1.0
 50
0.0
 71
     0
 42
150.0
  3
swissk.ttf
  4

1001
ACAD
1000
Swis721 Blk BT
1071
       34
  0
ENDTAB
  0
TABLE
  2
VIEW
  5
6
330
0
100
AcDbSymbolTable
 70
     0
  0
ENDTAB
  0
TABLE
  2
UCS
  5
7
330
0
100
AcDbSymbolTable
 70
     0
  0
ENDTAB
  0
TABLE
  2
APPID
  5
9
330
0
100
AcDbSymbolTable
 70
    18
  0
APPID
  5
12
330
9
100
AcDbSymbolTableRecord
100
AcDbRegAppTableRecord
  2
ACAD
 70
     0
  0
APPID
  5
9E
330
9
100
AcDbSymbolTableRecord
100
AcDbRegAppTableRecord
  2
ACAD_PSEXT
 70
     0
  0
APPID
  5
133
330
9
100
AcDbSymbolTableRecord
100
AcDbRegAppTableRecord
  2
AcadAnnoPO
 70
     0
  0
APPID
  5
134
330
9
100
AcDbSymbolTableRecord
100
AcDbRegAppTableRecord
  2
AcadAnnotative
 70
     0
  0
APPID
  5
135
330
9
100
AcDbSymbolTableRecord
100
AcDbRegAppTableRecord
  2
ACAD_DSTYLE_DIMJAG
 70
     0
  0
APPID
  5
136
330
9
100
AcDbSymbolTableRecord
100
AcDbRegAppTableRecord
  2
ACAD_DSTYLE_DIMTALN
 70
     0
  0
APPID
  5
165
330
9
100
AcDbSymbolTableRecord
100
AcDbRegAppTableRecord
  2
ACAD_MLEADERVER
 70
     0
  0
APPID
  5
217
330
9
100
AcDbSymbolTableRecord
100
AcDbRegAppTableRecord
  2
ACAD_NAV_VCDISPLAY
 70
     0
  0
APPID
  5
29E
330
9
100
AcDbSymbolTableRecord
100
AcDbRegAppTableRecord
  2
ACAD_DSTYLE_DIMBREAK
 70
     0
  0
APPID
  5
2C0
330
9
100
AcDbSymbolTableRecord
100
AcDbRegAppTableRecord
  2
AcAecLayerStandard
 70
     0
  0
APPID
  5
2C1
330
9
100
AcDbSymbolTableRecord
100
AcDbRegAppTableRecord
  2
AcCmTransparency
 70
     0
  0
APPID
  5
2C5
330
9
100
AcDbSymbolTableRecord
100
AcDbRegAppTableRecord
  2
ACAD_EXEMPT_FROM_CAD_STANDARDS
 70
     0
  0
APPID
  5
47E
330
9
100
AcDbSymbolTableRecord
100
AcDbRegAppTableRecord
  2
ACAD_DSTYLE_DIMJOGGED_JOGANGLE_SYMBOL
 70
     0
  0
APPID
  5
47F
330
9
100
AcDbSymbolTableRecord
100
AcDbRegAppTableRecord
  2
GradientColor1ACI
 70
     0
  0
APPID
  5
480
330
9
100
AcDbSymbolTableRecord
100
AcDbRegAppTableRecord
  2
GradientColor2ACI
 70
     0
  0
APPID
  5
DB3
330
9
100
AcDbSymbolTableRecord
100
AcDbRegAppTableRecord
  2
ACAD_DSTYLE_DIMRADIAL_EXTENSION
 70
     0
  0
APPID
  5
1D60
330
9
100
AcDbSymbolTableRecord
100
AcDbRegAppTableRecord
  2
AcLayerTools
 70
     0
  0
APPID
  5
2C5F
330
9
100
AcDbSymbolTableRecord
100
AcDbRegAppTableRecord
  2
ACAUTHENVIRON
 70
     0
  0
ENDTAB
  0
TABLE
  2
DIMSTYLE
  5
A
330
0
100
AcDbSymbolTable
 70
     8
100
AcDbDimStyleTable
 71
     4
340
2A5
340
47C
340
27
340
137
  0
DIMSTYLE
105
1B0
330
A
100
AcDbSymbolTableRecord
100
AcDbDimStyleTableRecord
  2
Standard
 70
     0
340
11
  0
DIMSTYLE
105
137
330
A
100
AcDbSymbolTableRecord
100
AcDbDimStyleTableRecord
  2
Annotative
 70
     0
 40
0.0
 41
2.5
 42
0.625
 43
3.75
 44
1.25
 73
     0
 74
     0
 77
     1
 78
     8
140
2.5
141
2.5
143
0.03937007874016
147
0.625
171
     3
172
     1
271
     2
272
     2
274
     3
278
    44
283
     0
284
     8
340
11
1001
AcadAnnotative
1000
AnnotativeData
1002
{
1070
     1
1070
     1
1002
}
1001
ACAD_DSTYLE_DIMJAG
1070
   388
1040
1.5
1001
ACAD_DSTYLE_DIMTALN
1070
   392
1070
     0
  0
DIMSTYLE
105
27
330
A
100
AcDbSymbolTableRecord
100
AcDbDimStyleTableRecord
  2
ISO-25
 70
     0
 41
2.5
 42
0.625
 43
3.75
 44
1.25
 73
     0
 74
     0
 77
     1
 78
     8
140
2.5
141
2.5
143
0.03937007874016
147
0.625
171
     3
172
     1
271
     2
272
     2
274
     3
278
    44
283
     0
284
     8
340
11
  0
DIMSTYLE
105
2A5
102
{ACAD_REACTORS
330
4418
330
441D
330
4422
330
4470
330
4475
102
}
330
A
100
AcDbSymbolTableRecord
100
AcDbDimStyleTableRecord
  2
NS寸法
 70
     0
 41
10.0
 42
2.0
 43
3.75
 44
1.25
 73
     0
 74
     0
 77
     1
 78
     8
140
20.0
141
2.5
143
0.03937007874016
147
1.0
171
     3
172
     1
271
     2
272
     2
274
     3
278
    44
283
     0
284
     8
340
11
342
29F
1001
ACAD_DSTYLE_DIMBREAK
1070
   391
1040
3.75
1001
AcadAnnotative
1000
AnnotativeData
1002
{
1070
     1
1070
     1
1002
}
1001
ACAD_DSTYLE_DIMJAG
1070
   388
1040
1.5
1001
ACAD_DSTYLE_DIMTALN
1070
   392
1070
     0
  0
DIMSTYLE
105
47B
330
A
100
AcDbSymbolTableRecord
100
AcDbDimStyleTableRecord
  2
ﾃﾞｨﾃｰﾙ
 70
     0
 41
5.0
 42
20.0
 43
20.0
 44
0.0
 49
0.18
 50
90.0
 73
     0
 74
     0
 77
     1
 78
     8
 79
     2
140
20.0
141
0.0
147
5.0
172
     1
174
     1
279
     2
340
479
341
3AA
1001
ACAD_DSTYLE_DIMJAG
1070
   388
1040
1.5
1001
ACAD_DSTYLE_DIMTALN
1070
   392
1070
     0
1001
ACAD_DSTYLE_DIMJOGGED_JOGANGLE_SYMBOL
1070
   384
1040
1.570796326794896
  0
DIMSTYLE
105
47C
330
A
100
AcDbSymbolTableRecord
100
AcDbDimStyleTableRecord
  2
ﾃﾞｨﾃｰﾙ（角）
 70
     0
 41
2.0
 42
30.0
 43
20.0
 44
0.0
 49
0.18
 50
90.0
 73
     0
 74
     0
 77
     1
 78
     8
 79
     2
140
10.0
141
0.0
147
1.0
172
     1
174
     1
279
     2
340
11
342
3AA
1001
ACAD_DSTYLE_DIMJOGGED_JOGANGLE_SYMBOL
1070
   384
1040
1.570796326794896
  0
DIMSTYLE
105
47D
330
A
100
AcDbSymbolTableRecord
100
AcDbDimStyleTableRecord
  2
ﾃﾞｨﾃｰﾙ2
 70
     0
 41
5.0
 42
10.0
 43
10.0
 44
0.0
 49
0.18
 50
90.0
 73
     0
 74
     0
 77
     1
 78
     8
 79
     2
140
20.0
141
0.0
147
5.0
172
     1
174
     1
279
     2
340
479
341
453
1001
ACAD_DSTYLE_DIMBREAK
1070
   391
1040
0.125
1001
ACAD_DSTYLE_DIMJAG
1070
   388
1040
1.5
1001
ACAD_DSTYLE_DIMTALN
1070
   392
1070
     0
1001
ACAD_DSTYLE_DIMJOGGED_JOGANGLE_SYMBOL
1070
   384
1040
1.570796326794896
  0
DIMSTYLE
105
31C1
330
A
100
AcDbSymbolTableRecord
100
AcDbDimStyleTableRecord
  2
ﾃﾞｨﾃｰﾙ（ｼﾝｸﾞﾙ）
 70
     0
 40
0.5
 41
5.0
 42
20.0
 43
20.0
 44
0.0
 49
0.18
 50
90.0
 73
     0
 74
     0
 77
     1
 78
     8
 79
     2
140
20.0
141
0.0
147
5.0
172
     1
174
     1
279
     2
340
31BF
1001
ACAD_DSTYLE_DIMJOGGED_JOGANGLE_SYMBOL
1070
   384
1040
1.570796326794896
  0
ENDTAB
  0
TABLE
  2
BLOCK_RECORD
  5
1
330
0
100
AcDbSymbolTable
 70
     9
  0
BLOCK_RECORD
  5
1F
102
{ACAD_XDICTIONARY
360
1CE
102
}
330
1
100
AcDbSymbolTableRecord
100
AcDbBlockTableRecord
  2
*Model_Space
340
22
 70
     0
280
     1
281
     0
  0
BLOCK_RECORD
  5
349F
330
1
100
AcDbSymbolTableRecord
100
AcDbBlockTableRecord
  2
*Paper_Space
340
34A0
 70
     0
280
     1
281
     0
  0
BLOCK_RECORD
  5
29F
330
1
100
AcDbSymbolTableRecord
100
AcDbBlockTableRecord
  2
_Open
340
0
102
{BLKREFS
331
46B5
331
46B6
331
46BE
331
46BF
331
46C7
331
46C8
331
46D0
331
46D1
331
46D9
331
46DA
102
}
 70
     0
280
     1
281
     0
  0
BLOCK_RECORD
  5
3AA
330
1
100
AcDbSymbolTableRecord
100
AcDbBlockTableRecord
  2
_Dot
340
0
 70
     0
280
     1
281
     0
  0
BLOCK_RECORD
  5
453
330
1
100
AcDbSymbolTableRecord
100
AcDbBlockTableRecord
  2
_None
340
0
 70
     0
280
     1
281
     0
  0
BLOCK_RECORD
  5
3FD4
330
1
100
AcDbSymbolTableRecord
100
AcDbBlockTableRecord
  2
*Paper_Space3
340
3FD5
 70
     0
280
     1
281
     0
  0
BLOCK_RECORD
  5
457D
330
1
100
AcDbSymbolTableRecord
100
AcDbBlockTableRecord
  2
*D4
340
0
 70
     0
280
     1
281
     0
  0
BLOCK_RECORD
  5
4589
330
1
100
AcDbSymbolTableRecord
100
AcDbBlockTableRecord
  2
*D5
340
0
 70
     0
280
     1
281
     0
  0
BLOCK_RECORD
  5
4595
330
1
100
AcDbSymbolTableRecord
100
AcDbBlockTableRecord
  2
*D6
340
0
 70
     0
280
     1
281
     0
  0
BLOCK_RECORD
  5
45A1
330
1
100
AcDbSymbolTableRecord
100
AcDbBlockTableRecord
  2
*D7
340
0
 70
     0
280
     1
281
     0
  0
BLOCK_RECORD
  5
45AD
330
1
100
AcDbSymbolTableRecord
100
AcDbBlockTableRecord
  2
*D8
340
0
 70
     0
280
     1
281
     0
  0
ENDTAB
  0
ENDSEC
  0
SECTION
  2
BLOCKS
  0
BLOCK
  5
20
330
1F
100
AcDbEntity
  8
0
100
AcDbBlockBegin
  2
*Model_Space
 70
     0
 10
0.0
 20
0.0
 30
0.0
  3
*Model_Space
  1

  0
ENDBLK
  5
21
330
1F
100
AcDbEntity
  8
0
100
AcDbBlockEnd
  0
BLOCK
  5
34A1
330
349F
100
AcDbEntity
 67
     1
  8
0
100
AcDbBlockBegin
  2
*Paper_Space
 70
     0
 10
0.0
 20
0.0
 30
0.0
  3
*Paper_Space
  1

  0
ENDBLK
  5
34A2
330
349F
100
AcDbEntity
 67
     1
  8
0
100
AcDbBlockEnd
  0
BLOCK
  5
2A3
330
29F
100
AcDbEntity
  8
0
100
AcDbBlockBegin
  2
_Open
 70
     0
 10
0.0
 20
0.0
 30
0.0
  3
_Open
  1

  0
LINE
  5
2A0
330
29F
100
AcDbEntity
  8
0
  6
ByBlock
 62
     0
370
    -2
100
AcDbLine
 10
-1.0
 20
0.1666666666666666
 30
0.0
 11
0.0
 21
0.0
 31
0.0
  0
LINE
  5
2A1
330
29F
100
AcDbEntity
  8
0
  6
ByBlock
 62
     0
370
    -2
100
AcDbLine
 10
-1.0
 20
-0.1666666666666666
 30
0.0
 11
0.0
 21
0.0
 31
0.0
  0
LINE
  5
2A2
330
29F
100
AcDbEntity
  8
0
  6
ByBlock
 62
     0
370
    -2
100
AcDbLine
 10
0.0
 20
0.0
 30
0.0
 11
-1.0
 21
0.0
 31
0.0
  0
ENDBLK
  5
2A4
330
29F
100
AcDbEntity
  8
0
100
AcDbBlockEnd
  0
BLOCK
  5
3AB
330
3AA
100
AcDbEntity
  8
0
100
AcDbBlockBegin
  2
_Dot
 70
     0
 10
0.0
 20
0.0
 30
0.0
  3
_Dot
  1

  0
LWPOLYLINE
  5
3AC
330
3AA
100
AcDbEntity
  8
0
  6
ByBlock
 62
     0
100
AcDbPolyline
 90
        2
 70
     1
 43
0.5
 10
-0.25
 20
0.0
 42
1.0
 10
0.25
 20
0.0
 42
1.0
  0
LINE
  5
3AD
330
3AA
100
AcDbEntity
  8
0
  6
ByBlock
 62
     0
370
    -2
100
AcDbLine
 10
-0.5
 20
0.0
 30
0.0
 11
-1.0
 21
0.0
 31
0.0
  0
ENDBLK
  5
3AE
330
3AA
100
AcDbEntity
  8
0
100
AcDbBlockEnd
  0
BLOCK
  5
454
330
453
100
AcDbEntity
  8
0
 62
     1
100
AcDbBlockBegin
  2
_None
 70
     0
 10
0.0
 20
0.0
 30
0.0
  3
_None
  1

  0
ENDBLK
  5
455
330
453
100
AcDbEntity
  8
0
 62
     1
100
AcDbBlockEnd
  0
BLOCK
  5
3FD6
330
3FD4
100
AcDbEntity
 67
     1
  8
0
100
AcDbBlockBegin
  2
*Paper_Space3
 70
     0
 10
0.0
 20
0.0
 30
0.0
  3
*Paper_Space3
  1

  0
VIEWPORT
  5
3FE2
102
{ACAD_XDICTIONARY
360
3FE3
102
}
330
3FD4
100
AcDbEntity
 67
     1
  8
0
100
AcDbViewport
 10
105.0028812669753
 20
148.500000691507
 30
0.0
 40
828.0170675023994
 41
299.597156044392
 68
     0
 69
     0
 12
105.0028812669753
 22
148.500000691507
 13
0.0
 23
0.0
 14
10.0
 24
10.0
 15
10.0
 25
10.0
 16
0.0
 26
0.0
 36
1.0
 17
0.0
 27
0.0
 37
0.0
 42
50.0
 43
0.0
 44
0.0
 45
299.597156044392
 50
0.0
 51
0.0
 72
  1000
 90
   557088
  1

281
     0
 71
     1
 74
     0
110
0.0
120
0.0
130
0.0
111
1.0
121
0.0
131
0.0
112
0.0
122
1.0
132
0.0
 79
     0
146
0.0
170
     0
 61
     5
348
F5
292
     1
282
     1
141
0.0
142
0.0
 63
   250
421
  3355443
  0
VIEWPORT
  5
4023
102
{ACAD_XDICTIONARY
360
4024
102
}
330
3FD4
100
AcDbEntity
 67
     1
  8
0
100
AcDbViewport
 10
105.0
 20
148.5
 30
0.0
 40
210.0
 41
297.0
 68
     0
 69
     0
 12
375.5330085889872
 22
79.03553390593241
 13
0.0
 23
0.0
 14
10.0
 24
10.0
 15
10.0
 25
10.0
 16
0.0
 26
0.0
 36
1.0
 17
0.0
 27
0.0
 37
0.0
 42
50.0
 43
0.0
 44
0.0
 45
2.837157155526824
 50
0.0
 51
0.0
 72
  1000
 90
   819296
  1

281
     0
 71
     1
 74
     0
110
0.0
120
0.0
130
0.0
111
1.0
121
0.0
131
0.0
112
0.0
122
1.0
132
0.0
 79
     0
146
0.0
170
     0
 61
     5
348
F5
292
     1
282
     1
141
0.0
142
0.0
 63
   250
421
  3355443
  0
ENDBLK
  5
3FD7
330
3FD4
100
AcDbEntity
 67
     1
  8
0
100
AcDbBlockEnd
  0
BLOCK
  5
457E
330
457D
100
AcDbEntity
  8
0
100
AcDbBlockBegin
  2
*D4
 70
     1
 10
0.0
 20
0.0
 30
0.0
  3
*D4
  1

  0
LINE
  5
46D6
330
457D
100
AcDbEntity
  8
寸法
  6
Continuous
 62
     0
440
 16777216
370
    -2
100
AcDbLine
 10
5263.631667064373
 20
4142.271568880466
 30
0.0
 11
5323.91446164411
 21
4142.271568880466
 31
0.0
  0
LINE
  5
46D7
330
457D
100
AcDbEntity
  8
寸法
  6
Continuous
 62
     0
440
 16777216
370
    -2
100
AcDbLine
 10
5266.131667064374
 20
4269.271568880465
 30
0.0
 11
5323.91446164411
 21
4269.271568880465
 31
0.0
  0
LINE
  5
46D8
330
457D
100
AcDbEntity
  8
寸法
  6
Continuous
 62
     0
440
 16777216
370
    -2
100
AcDbLine
 10
5322.66446164411
 20
4152.271568880466
 30
0.0
 11
5322.66446164411
 21
4259.271568880466
 31
0.0
  0
INSERT
  5
46D9
330
457D
100
AcDbEntity
  8
寸法
  6
Continuous
 62
     0
440
 16777216
370
    -2
100
AcDbBlockReference
  2
_Open
 10
5322.66446164411
 20
4142.271568880466
 30
0.0
 41
10.0
 42
10.0
 43
10.0
 50
270.0
  0
INSERT
  5
46DA
330
457D
100
AcDbEntity
  8
寸法
  6
Continuous
 62
     0
440
 16777216
370
    -2
100
AcDbBlockReference
  2
_Open
 10
5322.66446164411
 20
4269.271568880465
 30
0.0
 41
10.0
 42
10.0
 43
10.0
 50
90.0
  0
MTEXT
  5
46DB
330
457D
100
AcDbEntity
  8
寸法
  6
Continuous
 62
     0
440
 16777216
370
     5
100
AcDbMText
 10
5311.623533949703
 20
4205.771568880463
 30
0.0
 40
20.0
 41
0.0
 46
0.0
 71
     5
 72
     1
  1
127
 11
0.0000000000000001
 21
1.0
 31
0.0
 73
     1
 44
1.0
  0
POINT
  5
46DC
330
457D
100
AcDbEntity
  8
Defpoints
  6
Continuous
 62
     0
440
 16777216
100
AcDbPoint
 10
5261.631667064374
 20
4142.271568880466
 30
0.0
  0
POINT
  5
46DD
330
457D
100
AcDbEntity
  8
Defpoints
  6
Continuous
 62
     0
440
 16777216
100
AcDbPoint
 10
5264.131667064374
 20
4269.271568880465
 30
0.0
  0
POINT
  5
46DE
330
457D
100
AcDbEntity
  8
Defpoints
  6
Continuous
 62
     0
440
 16777216
100
AcDbPoint
 10
5322.66446164411
 20
4269.271568880465
 30
0.0
  0
ENDBLK
  5
457F
330
457D
100
AcDbEntity
  8
0
100
AcDbBlockEnd
  0
BLOCK
  5
458A
330
4589
100
AcDbEntity
  8
0
100
AcDbBlockBegin
  2
*D5
 70
     1
 10
0.0
 20
0.0
 30
0.0
  3
*D5
  1

  0
LINE
  5
46CD
330
4589
100
AcDbEntity
  8
寸法
  6
Continuous
 62
     0
440
 16777216
370
    -2
100
AcDbLine
 10
5266.131667064374
 20
4269.271568880465
 30
0.0
 11
5323.91446164411
 21
4269.271568880465
 31
0.0
  0
LINE
  5
46CE
330
4589
100
AcDbEntity
  8
寸法
  6
Continuous
 62
     0
440
 16777216
370
    -2
100
AcDbLine
 10
5263.631667064373
 20
4396.271568880465
 30
0.0
 11
5323.91446164411
 21
4396.271568880465
 31
0.0
  0
LINE
  5
46CF
330
4589
100
AcDbEntity
  8
寸法
  6
Continuous
 62
     0
440
 16777216
370
    -2
100
AcDbLine
 10
5322.66446164411
 20
4279.271568880465
 30
0.0
 11
5322.66446164411
 21
4386.271568880466
 31
0.0
  0
INSERT
  5
46D0
330
4589
100
AcDbEntity
  8
寸法
  6
Continuous
 62
     0
440
 16777216
370
    -2
100
AcDbBlockReference
  2
_Open
 10
5322.66446164411
 20
4269.271568880465
 30
0.0
 41
10.0
 42
10.0
 43
10.0
 50
270.0
  0
INSERT
  5
46D1
330
4589
100
AcDbEntity
  8
寸法
  6
Continuous
 62
     0
440
 16777216
370
    -2
100
AcDbBlockReference
  2
_Open
 10
5322.66446164411
 20
4396.271568880465
 30
0.0
 41
10.0
 42
10.0
 43
10.0
 50
90.0
  0
MTEXT
  5
46D2
330
4589
100
AcDbEntity
  8
寸法
  6
Continuous
 62
     0
440
 16777216
370
     5
100
AcDbMText
 10
5311.623533949703
 20
4332.771568880463
 30
0.0
 40
20.0
 41
0.0
 46
0.0
 71
     5
 72
     1
  1
127
 11
0.0000000000000001
 21
1.0
 31
0.0
 73
     1
 44
1.0
  0
POINT
  5
46D3
330
4589
100
AcDbEntity
  8
Defpoints
  6
Continuous
 62
     0
440
 16777216
100
AcDbPoint
 10
5264.131667064374
 20
4269.271568880465
 30
0.0
  0
POINT
  5
46D4
330
4589
100
AcDbEntity
  8
Defpoints
  6
Continuous
 62
     0
440
 16777216
100
AcDbPoint
 10
5261.631667064374
 20
4396.271568880465
 30
0.0
  0
POINT
  5
46D5
330
4589
100
AcDbEntity
  8
Defpoints
  6
Continuous
 62
     0
440
 16777216
100
AcDbPoint
 10
5322.66446164411
 20
4396.271568880465
 30
0.0
  0
ENDBLK
  5
458B
330
4589
100
AcDbEntity
  8
0
100
AcDbBlockEnd
  0
BLOCK
  5
4596
330
4595
100
AcDbEntity
  8
0
100
AcDbBlockBegin
  2
*D6
 70
     1
 10
0.0
 20
0.0
 30
0.0
  3
*D6
  1

  0
LINE
  5
46C4
330
4595
100
AcDbEntity
  8
寸法
  6
Continuous
 62
     0
440
 16777216
370
    -2
100
AcDbLine
 10
5263.631667064373
 20
4396.271568880465
 30
0.0
 11
5323.91446164411
 21
4396.271568880465
 31
0.0
  0
LINE
  5
46C5
330
4595
100
AcDbEntity
  8
寸法
  6
Continuous
 62
     0
440
 16777216
370
    -2
100
AcDbLine
 10
5266.131667064374
 20
4523.271568880465
 30
0.0
 11
5323.91446164411
 21
4523.271568880465
 31
0.0
  0
LINE
  5
46C6
330
4595
100
AcDbEntity
  8
寸法
  6
Continuous
 62
     0
440
 16777216
370
    -2
100
AcDbLine
 10
5322.66446164411
 20
4406.271568880465
 30
0.0
 11
5322.66446164411
 21
4513.271568880465
 31
0.0
  0
INSERT
  5
46C7
330
4595
100
AcDbEntity
  8
寸法
  6
Continuous
 62
     0
440
 16777216
370
    -2
100
AcDbBlockReference
  2
_Open
 10
5322.66446164411
 20
4396.271568880465
 30
0.0
 41
10.0
 42
10.0
 43
10.0
 50
270.0
  0
INSERT
  5
46C8
330
4595
100
AcDbEntity
  8
寸法
  6
Continuous
 62
     0
440
 16777216
370
    -2
100
AcDbBlockReference
  2
_Open
 10
5322.66446164411
 20
4523.271568880465
 30
0.0
 41
10.0
 42
10.0
 43
10.0
 50
90.0
  0
MTEXT
  5
46C9
330
4595
100
AcDbEntity
  8
寸法
  6
Continuous
 62
     0
440
 16777216
370
     5
100
AcDbMText
 10
5311.623533949703
 20
4459.771568880464
 30
0.0
 40
20.0
 41
0.0
 46
0.0
 71
     5
 72
     1
  1
127
 11
0.0000000000000001
 21
1.0
 31
0.0
 73
     1
 44
1.0
  0
POINT
  5
46CA
330
4595
100
AcDbEntity
  8
Defpoints
  6
Continuous
 62
     0
440
 16777216
100
AcDbPoint
 10
5261.631667064374
 20
4396.271568880465
 30
0.0
  0
POINT
  5
46CB
330
4595
100
AcDbEntity
  8
Defpoints
  6
Continuous
 62
     0
440
 16777216
100
AcDbPoint
 10
5264.131667064374
 20
4523.271568880465
 30
0.0
  0
POINT
  5
46CC
330
4595
100
AcDbEntity
  8
Defpoints
  6
Continuous
 62
     0
440
 16777216
100
AcDbPoint
 10
5322.66446164411
 20
4523.271568880465
 30
0.0
  0
ENDBLK
  5
4597
330
4595
100
AcDbEntity
  8
0
100
AcDbBlockEnd
  0
BLOCK
  5
45A2
330
45A1
100
AcDbEntity
  8
0
100
AcDbBlockBegin
  2
*D7
 70
     1
 10
0.0
 20
0.0
 30
0.0
  3
*D7
  1

  0
LINE
  5
46BB
330
45A1
100
AcDbEntity
  8
寸法
  6
Continuous
 62
     0
440
 16777216
370
    -2
100
AcDbLine
 10
3894.131667064372
 20
5084.271568880463
 30
0.0
 11
3894.131667064372
 21
5177.083518824082
 31
0.0
  0
LINE
  5
46BC
330
45A1
100
AcDbEntity
  8
寸法
  6
Continuous
 62
     0
440
 16777216
370
    -2
100
AcDbLine
 10
4351.631667064371
 20
4956.936632389925
 30
0.0
 11
4351.631667064371
 21
5177.083518824082
 31
0.0
  0
LINE
  5
46BD
330
45A1
100
AcDbEntity
  8
寸法
  6
Continuous
 62
     0
440
 16777216
370
    -2
100
AcDbLine
 10
3904.131667064372
 20
5175.833518824082
 30
0.0
 11
4341.631667064372
 21
5175.833518824082
 31
0.0
  0
INSERT
  5
46BE
330
45A1
100
AcDbEntity
  8
寸法
  6
Continuous
 62
     0
440
 16777216
370
    -2
100
AcDbBlockReference
  2
_Open
 10
3894.131667064372
 20
5175.833518824082
 30
0.0
 41
10.0
 42
10.0
 43
10.0
 50
180.0
  0
INSERT
  5
46BF
330
45A1
100
AcDbEntity
  8
寸法
  6
Continuous
 62
     0
440
 16777216
370
    -2
100
AcDbBlockReference
  2
_Open
 10
4351.631667064371
 20
5175.833518824082
 30
0.0
 41
10.0
 42
10.0
 43
10.0
  0
MTEXT
  5
46C0
330
45A1
100
AcDbEntity
  8
寸法
  6
Continuous
 62
     0
440
 16777216
370
     5
100
AcDbMText
 10
4122.881667064372
 20
5188.811690720399
 30
0.0
 40
20.0
 41
0.0
 46
0.0
 71
     5
 72
     1
  1
457,5
 73
     1
 44
1.0
  0
POINT
  5
46C1
330
45A1
100
AcDbEntity
  8
Defpoints
  6
Continuous
 62
     0
440
 16777216
100
AcDbPoint
 10
3894.131667064372
 20
5082.271568880464
 30
0.0
  0
POINT
  5
46C2
330
45A1
100
AcDbEntity
  8
Defpoints
  6
Continuous
 62
     0
440
 16777216
100
AcDbPoint
 10
4351.631667064371
 20
4954.936632389925
 30
0.0
  0
POINT
  5
46C3
330
45A1
100
AcDbEntity
  8
Defpoints
  6
Continuous
 62
     0
440
 16777216
100
AcDbPoint
 10
4351.631667064371
 20
5175.833518824082
 30
0.0
  0
ENDBLK
  5
45A3
330
45A1
100
AcDbEntity
  8
0
100
AcDbBlockEnd
  0
BLOCK
  5
45AE
330
45AD
100
AcDbEntity
  8
0
100
AcDbBlockBegin
  2
*D8
 70
     1
 10
0.0
 20
0.0
 30
0.0
  3
*D8
  1

  0
LINE
  5
46B2
330
45AD
100
AcDbEntity
  8
寸法
  6
Continuous
 62
     0
440
 16777216
370
    -2
100
AcDbLine
 10
4351.631667064371
 20
4956.936632389925
 30
0.0
 11
4351.631667064371
 21
5252.562277648874
 31
0.0
  0
LINE
  5
46B3
330
45AD
100
AcDbEntity
  8
寸法
  6
Continuous
 62
     0
440
 16777216
370
    -2
100
AcDbLine
 10
3436.631667064372
 20
5084.271568880463
 30
0.0
 11
3436.631667064372
 21
5252.562277648874
 31
0.0
  0
LINE
  5
46B4
330
45AD
100
AcDbEntity
  8
寸法
  6
Continuous
 62
     0
440
 16777216
370
    -2
100
AcDbLine
 10
4341.631667064372
 20
5251.312277648874
 30
0.0
 11
3446.631667064372
 21
5251.312277648874
 31
0.0
  0
INSERT
  5
46B5
330
45AD
100
AcDbEntity
  8
寸法
  6
Continuous
 62
     0
440
 16777216
370
    -2
100
AcDbBlockReference
  2
_Open
 10
4351.631667064371
 20
5251.312277648874
 30
0.0
 41
10.0
 42
10.0
 43
10.0
  0
INSERT
  5
46B6
330
45AD
100
AcDbEntity
  8
寸法
  6
Continuous
 62
     0
440
 16777216
370
    -2
100
AcDbBlockReference
  2
_Open
 10
3436.631667064372
 20
5251.312277648874
 30
0.0
 41
10.0
 42
10.0
 43
10.0
 50
180.0
  0
MTEXT
  5
46B7
330
45AD
100
AcDbEntity
  8
寸法
  6
Continuous
 62
     0
440
 16777216
370
     5
100
AcDbMText
 10
3894.131667064372
 20
5262.523737403308
 30
0.0
 40
20.0
 41
0.0
 46
0.0
 71
     5
 72
     1
  1
915
 73
     1
 44
1.0
  0
POINT
  5
46B8
330
45AD
100
AcDbEntity
  8
Defpoints
  6
Continuous
 62
     0
440
 16777216
100
AcDbPoint
 10
4351.631667064371
 20
4954.936632389925
 30
0.0
  0
POINT
  5
46B9
330
45AD
100
AcDbEntity
  8
Defpoints
  6
Continuous
 62
     0
440
 16777216
100
AcDbPoint
 10
3436.631667064372
 20
5082.271568880464
 30
0.0
  0
POINT
  5
46BA
330
45AD
100
AcDbEntity
  8
Defpoints
  6
Continuous
 62
     0
440
 16777216
100
AcDbPoint
 10
3436.631667064372
 20
5251.312277648874
 30
0.0
  0
ENDBLK
  5
45AF
330
45AD
100
AcDbEntity
  8
0
100
AcDbBlockEnd
  0
ENDSEC
  0
SECTION
  2
ENTITIES
  0
HATCH
  5
1A98
330
1F
100
AcDbEntity
  8
断熱層
100
AcDbHatch
 10
0.0
 20
0.0
 30
0.0
210
0.0
220
0.0
230
1.0
  2
ANSI37
 70
     0
 71
     0
 91
        1
 92
        1
 93
        2
 72
     1
 10
376.5231293186581
 20
78.04541317626072
 11
374.5428878593162
 21
80.02565463560413
 72
     2
 10
376.9974746830557
 20
80.49999999999995
 40
2.499999999999943
 50
190.9375030835813
 51
259.0624969163791
 73
     1
 97
        0
 75
     0
 76
     1
 52
0.0
 41
5.0
 77
     0
 78
     2
 53
45.0
 43
20739.56311116091
 44
-703.0713436109799
 45
-11.22532015133644
 46
11.22532015133644
 79
     0
 53
135.0
 43
20739.56311116091
 44
-703.0713436109799
 45
-11.22532015133644
 46
-11.22532015133644
 79
     0
 98
        1
 10
794.6319006576632
 20
92.77927700190048
1001
ACAD
1010
0.0
1020
0.0
1030
0.0
  0
LINE
  5
4311
330
1F
100
AcDbEntity
  8
枠
  6
ByBlock
370
     5
100
AcDbLine
 10
7122.994584139451
 20
281.3895781099418
 30
0.0
 11
7122.994584139451
 21
-0.0000000000145519
 31
0.0
  0
LINE
  5
4312
330
1F
100
AcDbEntity
  8
枠
  6
ByBlock
370
     5
100
AcDbLine
 10
6224.069479267128
 20
281.3895781099418
 30
0.0
 11
8100.000000000072
 21
281.3895781099418
 31
0.0
  0
LINE
  5
4313
330
1F
100
AcDbEntity
  8
枠
  6
ByBlock
370
     5
100
AcDbLine
 10
8100.000000000072
 20
187.5930520733382
 30
0.0
 11
7122.994584139597
 21
187.5930520733382
 31
0.0
  0
LINE
  5
4314
330
1F
100
AcDbEntity
  8
枠
  6
ByBlock
370
     5
100
AcDbLine
 10
7122.994584139597
 20
93.79652603666182
 30
0.0
 11
8100.000000000072
 21
93.79652603658906
 31
0.0
  0
MTEXT
  5
4315
102
{ACAD_XDICTIONARY
360
4316
102
}
330
1F
100
AcDbEntity
  8
枠
  6
ByBlock
370
     5
100
AcDbMText
 10
6269.804736949271
 20
183.8952056913986
 30
0.0
 40
77.777777775
 41
809.4125234105653
 46
0.0
 71
     1
 72
     5
  1
{\fMS Gothic|b0|i0|c128|p49;日新工業株式会社}
  7
NS横文字
 73
     1
 44
1.0
1001
ACAD
1000
ACAD_MTEXT_DEFINED_HEIGHT_BEGIN
1070
    46
1040
0.0
1000
ACAD_MTEXT_DEFINED_HEIGHT_END
1001
AcadAnnotative
1000
AnnotativeData
1002
{
1070
     1
1070
     1
1002
}
  0
LINE
  5
431A
330
1F
100
AcDbEntity
  8
枠
  6
ByBlock
370
     5
100
AcDbLine
 10
6224.069479267128
 20
281.3895781099418
 30
0.0
 11
0.0000000000727596
 21
281.3895781099418
 31
0.0
  0
LINE
  5
431B
330
1F
100
AcDbEntity
  8
枠
  6
ByBlock
370
     5
100
AcDbLine
 10
6224.069479267128
 20
281.3895781099418
 30
0.0
 11
6224.069479267128
 21
-0.0000000000145519
 31
0.0
  0
LINE
  5
431C
330
1F
100
AcDbEntity
  8
枠
  6
ByBlock
370
     5
100
AcDbLine
 10
5325.144374394513
 20
-0.0000000000145519
 30
0.0
 11
0.0000000000727596
 21
-0.0000000000145519
 31
0.0
  0
LINE
  5
431D
330
1F
100
AcDbEntity
  8
枠
  6
ByBlock
370
     5
100
AcDbLine
 10
6224.069479266982
 20
70.34740092340507
 30
0.0
 11
0.0000000000727596
 21
70.34740092340507
 31
0.0
  0
LINE
  5
431E
330
1F
100
AcDbEntity
  8
枠
  6
ByBlock
370
     5
100
AcDbLine
 10
6224.069479266982
 20
140.6948018468247
 30
0.0
 11
0.0000000000727596
 21
140.6948018468247
 31
0.0
  0
LINE
  5
431F
330
1F
100
AcDbEntity
  8
枠
  6
ByBlock
370
     5
100
AcDbLine
 10
6224.069479266982
 20
211.0422027701716
 30
0.0
 11
0.0000000000727596
 21
211.0422027702443
 31
0.0
  0
LWPOLYLINE
  5
4320
330
1F
100
AcDbEntity
  8
枠
  6
Continuous
370
     5
100
AcDbPolyline
 90
        4
 70
     1
 43
0.0
 10
0.0
 20
0.0
 10
8100.0
 20
0.0
 10
8100.0
 20
5640.0
 10
0.0
 20
5640.0
  0
LINE
  5
4321
330
1F
100
AcDbEntity
  8
枠
  6
Continuous
370
     5
100
AcDbLine
 10
2700.000000000073
 20
281.3895781099418
 30
0.0
 11
2700.000000000073
 21
5639.999999999986
 31
0.0
  0
LINE
  5
4322
330
1F
100
AcDbEntity
  8
枠
  6
Continuous
370
     5
100
AcDbLine
 10
5399.999999999927
 20
281.3895781099418
 30
0.0
 11
5400.000000000073
 21
5639.999999999986
 31
0.0
  0
LINE
  5
4323
330
1F
100
AcDbEntity
  8
枠
  6
Continuous
370
     5
100
AcDbLine
 10
8100.000000000072
 20
3859.999999999985
 30
0.0
 11
0.0000000000727596
 21
3859.999999999985
 31
0.0
  0
LINE
  5
4324
330
1F
100
AcDbEntity
  8
枠
  6
Continuous
370
     5
100
AcDbLine
 10
8100.000000000072
 20
2079.999999999985
 30
0.0
 11
0.0000000000727596
 21
2079.999999999985
 31
0.0
  0
LINE
  5
4325
330
1F
100
AcDbEntity
  8
枠
  6
ByBlock
370
     5
100
AcDbLine
 10
8100.000000000072
 20
5546.203473963382
 30
0.0
 11
0.0000000002182787
 21
5546.203473963382
 31
0.0
  0
LINE
  5
4326
330
1F
100
AcDbEntity
  8
枠
  6
ByBlock
370
     5
100
AcDbLine
 10
8100.000000000072
 20
3766.203473963382
 30
0.0
 11
0.0000000002182787
 21
3766.203473963382
 31
0.0
  0
LINE
  5
4327
330
1F
100
AcDbEntity
  8
枠
  6
ByBlock
370
     5
100
AcDbLine
 10
8100.000000000072
 20
1986.203473963382
 30
0.0
 11
0.0000000002182787
 21
1986.203473963382
 31
0.0
  0
MTEXT
  5
4328
102
{ACAD_XDICTIONARY
360
4329
102
}
330
1F
100
AcDbEntity
  8
枠
  6
ByBlock
370
     5
100
AcDbMText
 10
2381.819152844837
 20
5617.732521540776
 30
0.0
 40
38.8888888875
 41
318.1808471552386
 46
0.0
 71
     1
 72
     5
  1
{\fMS Gothic|b0|i0|c128|p49;２Ｈ－２０１}
  7
NS横文字
 73
     1
 44
1.0
1001
ACAD
1000
ACAD_MTEXT_DEFINED_HEIGHT_BEGIN
1070
    46
1040
0.0
1000
ACAD_MTEXT_DEFINED_HEIGHT_END
1001
AcadAnnotative
1000
AnnotativeData
1002
{
1070
     1
1070
     1
1002
}
  0
MTEXT
  5
432D
102
{ACAD_XDICTIONARY
360
432E
102
}
330
1F
100
AcDbEntity
  8
枠
  6
ByBlock
370
     5
100
AcDbMText
 10
5081.819152844837
 20
5617.732521540776
 30
0.0
 40
38.8888888875
 41
318.1808471552386
 46
0.0
 71
     1
 72
     5
  1
{\fMS Gothic|b0|i0|c128|p49;２Ｈ－２０２}
  7
NS横文字
 73
     1
 44
1.0
1001
ACAD
1000
ACAD_MTEXT_DEFINED_HEIGHT_BEGIN
1070
    46
1040
0.0
1000
ACAD_MTEXT_DEFINED_HEIGHT_END
1001
AcadAnnotative
1000
AnnotativeData
1002
{
1070
     1
1070
     1
1002
}
  0
LINE
  5
4332
330
1F
100
AcDbEntity
  8
ﾏﾙｴｽｼﾝｸﾞﾙ
370
     5
100
AcDbLine
 10
2829.131667064372
 20
4122.271568880464
 30
0.0
 11
5264.131667064372
 21
4122.271568880464
 31
0.0
  0
LINE
  5
4333
330
1F
100
AcDbEntity
  8
ﾏﾙｴｽｱﾙﾐﾌﾗｯｼﾝｸﾞ
  6
Continuous
370
     5
100
AcDbLine
 10
2830.381667064372
 20
4122.271568880464
 30
0.0
 11
5262.881667064369
 21
4122.271568880464
 31
0.0
  0
LINE
  5
4334
330
1F
100
AcDbEntity
  8
ﾏﾙｴｽｼﾝｸﾞﾙ
370
     5
100
AcDbLine
 10
2829.131667064372
 20
4266.771568880463
 30
0.0
 11
2829.131667064372
 21
4142.271568880463
 31
0.0
  0
LINE
  5
4335
330
1F
100
AcDbEntity
  8
ﾏﾙｴｽｼﾝｸﾞﾙ
370
     5
100
AcDbLine
 10
3134.131667064372
 20
4266.771568880463
 30
0.0
 11
3134.131667064372
 21
4142.271568880463
 31
0.0
  0
LINE
  5
4336
330
1F
100
AcDbEntity
  8
ﾏﾙｴｽｼﾝｸﾞﾙ
370
     5
100
AcDbLine
 10
3129.131667064372
 20
4266.771568880463
 30
0.0
 11
3129.131667064372
 21
4142.271568880463
 31
0.0
  0
LINE
  5
4337
330
1F
100
AcDbEntity
  8
ﾏﾙｴｽｼﾝｸﾞﾙ
370
     5
100
AcDbLine
 10
2829.131667064372
 20
4142.271568880463
 30
0.0
 11
3129.131667064372
 21
4142.271568880463
 31
0.0
  0
LINE
  5
4338
330
1F
100
AcDbEntity
  8
ﾏﾙｴｽｼﾝｸﾞﾙ
370
     5
100
AcDbLine
 10
3134.131667064372
 20
4142.271568880463
 30
0.0
 11
3434.131667064372
 21
4142.271568880463
 31
0.0
  0
LINE
  5
4339
330
1F
100
AcDbEntity
  8
ﾏﾙｴｽｼﾝｸﾞﾙ
370
     5
100
AcDbLine
 10
3439.131667064372
 20
4142.271568880463
 30
0.0
 11
3739.131667064372
 21
4142.271568880463
 31
0.0
  0
LINE
  5
433A
330
1F
100
AcDbEntity
  8
ﾏﾙｴｽｼﾝｸﾞﾙ
370
     5
100
AcDbLine
 10
3739.131667064372
 20
4142.271568880463
 30
0.0
 11
3739.131667064372
 21
4266.771568880463
 31
0.0
  0
LINE
  5
433B
330
1F
100
AcDbEntity
  8
ﾏﾙｴｽｼﾝｸﾞﾙ
370
     5
100
AcDbLine
 10
3434.131667064372
 20
4142.271568880463
 30
0.0
 11
3434.131667064372
 21
4266.771568880463
 31
0.0
  0
LINE
  5
433C
330
1F
100
AcDbEntity
  8
ﾏﾙｴｽｼﾝｸﾞﾙ
370
     5
100
AcDbLine
 10
3439.131667064372
 20
4142.271568880463
 30
0.0
 11
3439.131667064372
 21
4266.771568880463
 31
0.0
  0
ARC
  5
433D
330
1F
100
AcDbEntity
  8
ﾏﾙｴｽｼﾝｸﾞﾙ
  6
Continuous
370
     5
100
AcDbCircle
 10
3131.631667064372
 20
4266.771568880463
 30
0.0
 40
2.5
100
AcDbArc
 50
0.0
 51
180.0
  0
ARC
  5
433E
330
1F
100
AcDbEntity
  8
ﾏﾙｴｽｼﾝｸﾞﾙ
  6
Continuous
370
     5
100
AcDbCircle
 10
3436.631667064372
 20
4266.771568880463
 30
0.0
 40
2.5
100
AcDbArc
 50
0.0
 51
180.0
  0
ARC
  5
433F
330
1F
100
AcDbEntity
  8
ﾏﾙｴｽｼﾝｸﾞﾙ
370
     5
100
AcDbCircle
 10
2826.631667064372
 20
4266.771568880463
 30
0.0
 40
2.5
100
AcDbArc
 50
0.0
 51
90.0
  0
ARC
  5
4340
330
1F
100
AcDbEntity
  8
ﾏﾙｴｽｼﾝｸﾞﾙ
370
     5
100
AcDbCircle
 10
3741.631667064372
 20
4266.771568880463
 30
0.0
 40
2.5
100
AcDbArc
 50
90.0
 51
180.0
  0
LINE
  5
4341
330
1F
100
AcDbEntity
  8
ﾏﾙｴｽｼﾝｸﾞﾙ
370
     5
100
AcDbLine
 10
3744.131667064372
 20
4266.771568880463
 30
0.0
 11
3744.131667064372
 21
4142.271568880463
 31
0.0
  0
LINE
  5
4342
330
1F
100
AcDbEntity
  8
ﾏﾙｴｽｼﾝｸﾞﾙ
370
     5
100
AcDbLine
 10
4049.131667064371
 20
4266.771568880463
 30
0.0
 11
4049.131667064371
 21
4142.271568880463
 31
0.0
  0
LINE
  5
4343
330
1F
100
AcDbEntity
  8
ﾏﾙｴｽｼﾝｸﾞﾙ
370
     5
100
AcDbLine
 10
4044.131667064372
 20
4266.771568880463
 30
0.0
 11
4044.131667064372
 21
4142.271568880463
 31
0.0
  0
LINE
  5
4344
330
1F
100
AcDbEntity
  8
ﾏﾙｴｽｼﾝｸﾞﾙ
370
     5
100
AcDbLine
 10
3744.131667064372
 20
4142.271568880463
 30
0.0
 11
4044.131667064372
 21
4142.271568880463
 31
0.0
  0
LINE
  5
4345
330
1F
100
AcDbEntity
  8
ﾏﾙｴｽｼﾝｸﾞﾙ
370
     5
100
AcDbLine
 10
4049.131667064371
 20
4142.271568880463
 30
0.0
 11
4349.131667064372
 21
4142.271568880463
 31
0.0
  0
LINE
  5
4346
330
1F
100
AcDbEntity
  8
ﾏﾙｴｽｼﾝｸﾞﾙ
370
     5
100
AcDbLine
 10
4354.131667064371
 20
4142.271568880463
 30
0.0
 11
4654.131667064372
 21
4142.271568880463
 31
0.0
  0
LINE
  5
4347
330
1F
100
AcDbEntity
  8
ﾏﾙｴｽｼﾝｸﾞﾙ
370
     5
100
AcDbLine
 10
4654.131667064372
 20
4142.271568880463
 30
0.0
 11
4654.131667064372
 21
4266.771568880463
 31
0.0
  0
LINE
  5
4348
330
1F
100
AcDbEntity
  8
ﾏﾙｴｽｼﾝｸﾞﾙ
370
     5
100
AcDbLine
 10
4349.131667064372
 20
4142.271568880463
 30
0.0
 11
4349.131667064372
 21
4266.771568880463
 31
0.0
  0
LINE
  5
4349
330
1F
100
AcDbEntity
  8
ﾏﾙｴｽｼﾝｸﾞﾙ
370
     5
100
AcDbLine
 10
4354.131667064371
 20
4142.271568880463
 30
0.0
 11
4354.131667064371
 21
4266.771568880463
 31
0.0
  0
ARC
  5
434A
330
1F
100
AcDbEntity
  8
ﾏﾙｴｽｼﾝｸﾞﾙ
  6
Continuous
370
     5
100
AcDbCircle
 10
4046.631667064372
 20
4266.771568880463
 30
0.0
 40
2.5
100
AcDbArc
 50
0.0
 51
180.0
  0
ARC
  5
434B
330
1F
100
AcDbEntity
  8
ﾏﾙｴｽｼﾝｸﾞﾙ
  6
Continuous
370
     5
100
AcDbCircle
 10
4351.631667064371
 20
4266.771568880463
 30
0.0
 40
2.5
100
AcDbArc
 50
0.0
 51
180.0
  0
ARC
  5
434C
330
1F
100
AcDbEntity
  8
ﾏﾙｴｽｼﾝｸﾞﾙ
370
     5
100
AcDbCircle
 10
3741.631667064372
 20
4266.771568880463
 30
0.0
 40
2.5
100
AcDbArc
 50
0.0
 51
90.0
  0
ARC
  5
434D
330
1F
100
AcDbEntity
  8
ﾏﾙｴｽｼﾝｸﾞﾙ
370
     5
100
AcDbCircle
 10
4656.631667064372
 20
4266.771568880463
 30
0.0
 40
2.5
100
AcDbArc
 50
90.0
 51
180.0
  0
LINE
  5
434E
330
1F
100
AcDbEntity
  8
ﾏﾙｴｽｼﾝｸﾞﾙ
370
     5
100
AcDbLine
 10
4656.631667064372
 20
4266.771568880463
 30
0.0
 11
4656.631667064372
 21
4142.271568880463
 31
0.0
  0
LINE
  5
434F
330
1F
100
AcDbEntity
  8
ﾏﾙｴｽｼﾝｸﾞﾙ
370
     5
100
AcDbLine
 10
4961.631667064372
 20
4266.771568880463
 30
0.0
 11
4961.631667064372
 21
4142.271568880463
 31
0.0
  0
LINE
  5
4350
330
1F
100
AcDbEntity
  8
ﾏﾙｴｽｼﾝｸﾞﾙ
370
     5
100
AcDbLine
 10
4956.631667064372
 20
4266.771568880463
 30
0.0
 11
4956.631667064372
 21
4142.271568880463
 31
0.0
  0
LINE
  5
4351
330
1F
100
AcDbEntity
  8
ﾏﾙｴｽｼﾝｸﾞﾙ
370
     5
100
AcDbLine
 10
4656.631667064372
 20
4142.271568880463
 30
0.0
 11
4956.631667064372
 21
4142.271568880463
 31
0.0
  0
LINE
  5
4352
330
1F
100
AcDbEntity
  8
ﾏﾙｴｽｼﾝｸﾞﾙ
370
     5
100
AcDbLine
 10
4961.631667064372
 20
4142.271568880463
 30
0.0
 11
5261.631667064372
 21
4142.271568880463
 31
0.0
  0
LINE
  5
4353
330
1F
100
AcDbEntity
  8
ﾏﾙｴｽｼﾝｸﾞﾙ
370
     5
100
AcDbLine
 10
5261.631667064372
 20
4142.271568880463
 30
0.0
 11
5261.631667064372
 21
4266.771568880463
 31
0.0
  0
ARC
  5
4354
330
1F
100
AcDbEntity
  8
ﾏﾙｴｽｼﾝｸﾞﾙ
  6
Continuous
370
     5
100
AcDbCircle
 10
4959.131667064372
 20
4266.771568880463
 30
0.0
 40
2.5
100
AcDbArc
 50
0.0
 51
180.0
  0
ARC
  5
4355
330
1F
100
AcDbEntity
  8
ﾏﾙｴｽｼﾝｸﾞﾙ
  6
Continuous
370
     5
100
AcDbCircle
 10
5264.131667064372
 20
4266.771568880463
 30
0.0
 40
2.5
100
AcDbArc
 50
90.0
 51
180.0
  0
ARC
  5
4356
330
1F
100
AcDbEntity
  8
ﾏﾙｴｽｼﾝｸﾞﾙ
370
     5
100
AcDbCircle
 10
4654.131667064372
 20
4266.771568880463
 30
0.0
 40
2.5
100
AcDbArc
 50
0.0
 51
90.0
  0
LINE
  5
4357
330
1F
100
AcDbEntity
  8
ﾏﾙｴｽｼﾝｸﾞﾙ
370
     5
100
AcDbLine
 10
2981.631667064372
 20
4393.771568880463
 30
0.0
 11
2981.631667064372
 21
4269.271568880464
 31
0.0
  0
LINE
  5
4358
330
1F
100
AcDbEntity
  8
ﾏﾙｴｽｼﾝｸﾞﾙ
370
     5
100
AcDbLine
 10
3286.631667064372
 20
4393.771568880463
 30
0.0
 11
3286.631667064372
 21
4269.271568880464
 31
0.0
  0
LINE
  5
4359
330
1F
100
AcDbEntity
  8
ﾏﾙｴｽｼﾝｸﾞﾙ
370
     5
100
AcDbLine
 10
3281.631667064373
 20
4393.771568880463
 30
0.0
 11
3281.631667064373
 21
4269.271568880464
 31
0.0
  0
LINE
  5
435A
330
1F
100
AcDbEntity
  8
ﾏﾙｴｽｼﾝｸﾞﾙ
370
     5
100
AcDbLine
 10
2981.631667064372
 20
4269.271568880464
 30
0.0
 11
3281.631667064373
 21
4269.271568880464
 31
0.0
  0
LINE
  5
435B
330
1F
100
AcDbEntity
  8
ﾏﾙｴｽｼﾝｸﾞﾙ
370
     5
100
AcDbLine
 10
3286.631667064372
 20
4269.271568880464
 30
0.0
 11
3586.631667064372
 21
4269.271568880464
 31
0.0
  0
LINE
  5
435C
330
1F
100
AcDbEntity
  8
ﾏﾙｴｽｼﾝｸﾞﾙ
370
     5
100
AcDbLine
 10
3591.631667064372
 20
4269.271568880464
 30
0.0
 11
3891.631667064372
 21
4269.271568880464
 31
0.0
  0
LINE
  5
435D
330
1F
100
AcDbEntity
  8
ﾏﾙｴｽｼﾝｸﾞﾙ
370
     5
100
AcDbLine
 10
3891.631667064372
 20
4269.271568880464
 30
0.0
 11
3891.631667064372
 21
4393.771568880463
 31
0.0
  0
LINE
  5
435E
330
1F
100
AcDbEntity
  8
ﾏﾙｴｽｼﾝｸﾞﾙ
370
     5
100
AcDbLine
 10
3586.631667064372
 20
4269.271568880464
 30
0.0
 11
3586.631667064372
 21
4393.771568880463
 31
0.0
  0
LINE
  5
435F
330
1F
100
AcDbEntity
  8
ﾏﾙｴｽｼﾝｸﾞﾙ
370
     5
100
AcDbLine
 10
3591.631667064372
 20
4269.271568880464
 30
0.0
 11
3591.631667064372
 21
4393.771568880463
 31
0.0
  0
ARC
  5
4360
330
1F
100
AcDbEntity
  8
ﾏﾙｴｽｼﾝｸﾞﾙ
  6
Continuous
370
     5
100
AcDbCircle
 10
3284.131667064372
 20
4393.771568880463
 30
0.0
 40
2.5
100
AcDbArc
 50
0.0
 51
180.0
  0
ARC
  5
4361
330
1F
100
AcDbEntity
  8
ﾏﾙｴｽｼﾝｸﾞﾙ
  6
Continuous
370
     5
100
AcDbCircle
 10
3589.131667064372
 20
4393.771568880463
 30
0.0
 40
2.5
100
AcDbArc
 50
0.0
 51
180.0
  0
ARC
  5
4362
330
1F
100
AcDbEntity
  8
ﾏﾙｴｽｼﾝｸﾞﾙ
370
     5
100
AcDbCircle
 10
2979.131667064372
 20
4393.771568880463
 30
0.0
 40
2.5
100
AcDbArc
 50
0.0
 51
90.0
  0
ARC
  5
4363
330
1F
100
AcDbEntity
  8
ﾏﾙｴｽｼﾝｸﾞﾙ
370
     5
100
AcDbCircle
 10
3894.131667064372
 20
4393.771568880463
 30
0.0
 40
2.5
100
AcDbArc
 50
90.0
 51
180.0
  0
LINE
  5
4364
330
1F
100
AcDbEntity
  8
ﾏﾙｴｽｼﾝｸﾞﾙ
370
     5
100
AcDbLine
 10
3896.631667064372
 20
4393.771568880463
 30
0.0
 11
3896.631667064372
 21
4269.271568880464
 31
0.0
  0
LINE
  5
4365
330
1F
100
AcDbEntity
  8
ﾏﾙｴｽｼﾝｸﾞﾙ
370
     5
100
AcDbLine
 10
4201.631667064371
 20
4393.771568880463
 30
0.0
 11
4201.631667064371
 21
4269.271568880464
 31
0.0
  0
LINE
  5
4366
330
1F
100
AcDbEntity
  8
ﾏﾙｴｽｼﾝｸﾞﾙ
370
     5
100
AcDbLine
 10
4196.631667064372
 20
4393.771568880463
 30
0.0
 11
4196.631667064372
 21
4269.271568880464
 31
0.0
  0
LINE
  5
4367
330
1F
100
AcDbEntity
  8
ﾏﾙｴｽｼﾝｸﾞﾙ
370
     5
100
AcDbLine
 10
3896.631667064372
 20
4269.271568880464
 30
0.0
 11
4196.631667064372
 21
4269.271568880464
 31
0.0
  0
LINE
  5
4368
330
1F
100
AcDbEntity
  8
ﾏﾙｴｽｼﾝｸﾞﾙ
370
     5
100
AcDbLine
 10
4201.631667064371
 20
4269.271568880464
 30
0.0
 11
4501.631667064372
 21
4269.271568880464
 31
0.0
  0
LINE
  5
4369
330
1F
100
AcDbEntity
  8
ﾏﾙｴｽｼﾝｸﾞﾙ
370
     5
100
AcDbLine
 10
4506.631667064372
 20
4269.271568880464
 30
0.0
 11
4806.631667064372
 21
4269.271568880464
 31
0.0
  0
LINE
  5
436A
330
1F
100
AcDbEntity
  8
ﾏﾙｴｽｼﾝｸﾞﾙ
370
     5
100
AcDbLine
 10
4806.631667064372
 20
4269.271568880464
 30
0.0
 11
4806.631667064372
 21
4393.771568880463
 31
0.0
  0
LINE
  5
436B
330
1F
100
AcDbEntity
  8
ﾏﾙｴｽｼﾝｸﾞﾙ
370
     5
100
AcDbLine
 10
4501.631667064372
 20
4269.271568880464
 30
0.0
 11
4501.631667064372
 21
4393.771568880463
 31
0.0
  0
LINE
  5
436C
330
1F
100
AcDbEntity
  8
ﾏﾙｴｽｼﾝｸﾞﾙ
370
     5
100
AcDbLine
 10
4506.631667064372
 20
4269.271568880464
 30
0.0
 11
4506.631667064372
 21
4393.771568880463
 31
0.0
  0
ARC
  5
436D
330
1F
100
AcDbEntity
  8
ﾏﾙｴｽｼﾝｸﾞﾙ
  6
Continuous
370
     5
100
AcDbCircle
 10
4199.131667064372
 20
4393.771568880463
 30
0.0
 40
2.5
100
AcDbArc
 50
0.0
 51
180.0
  0
ARC
  5
436E
330
1F
100
AcDbEntity
  8
ﾏﾙｴｽｼﾝｸﾞﾙ
  6
Continuous
370
     5
100
AcDbCircle
 10
4504.131667064371
 20
4393.771568880463
 30
0.0
 40
2.5
100
AcDbArc
 50
0.0
 51
180.0
  0
ARC
  5
436F
330
1F
100
AcDbEntity
  8
ﾏﾙｴｽｼﾝｸﾞﾙ
370
     5
100
AcDbCircle
 10
3894.131667064372
 20
4393.771568880463
 30
0.0
 40
2.5
100
AcDbArc
 50
0.0
 51
90.0
  0
ARC
  5
4370
330
1F
100
AcDbEntity
  8
ﾏﾙｴｽｼﾝｸﾞﾙ
370
     5
100
AcDbCircle
 10
4809.131667064372
 20
4393.771568880463
 30
0.0
 40
2.5
100
AcDbArc
 50
90.0
 51
180.0
  0
LINE
  5
4371
330
1F
100
AcDbEntity
  8
ﾏﾙｴｽｼﾝｸﾞﾙ
370
     5
100
AcDbLine
 10
4811.631667064371
 20
4393.771568880463
 30
0.0
 11
4811.631667064371
 21
4269.271568880464
 31
0.0
  0
LINE
  5
4372
330
1F
100
AcDbEntity
  8
ﾏﾙｴｽｼﾝｸﾞﾙ
370
     5
100
AcDbLine
 10
5116.631667064371
 20
4393.771568880463
 30
0.0
 11
5116.631667064371
 21
4269.271568880464
 31
0.0
  0
LINE
  5
4373
330
1F
100
AcDbEntity
  8
ﾏﾙｴｽｼﾝｸﾞﾙ
370
     5
100
AcDbLine
 10
5111.631667064372
 20
4393.771568880463
 30
0.0
 11
5111.631667064372
 21
4269.271568880464
 31
0.0
  0
LINE
  5
4374
330
1F
100
AcDbEntity
  8
ﾏﾙｴｽｼﾝｸﾞﾙ
370
     5
100
AcDbLine
 10
4811.631667064371
 20
4269.271568880464
 30
0.0
 11
5111.631667064372
 21
4269.271568880464
 31
0.0
  0
LINE
  5
4375
330
1F
100
AcDbEntity
  8
ﾏﾙｴｽｼﾝｸﾞﾙ
370
     5
100
AcDbLine
 10
5116.631667064371
 20
4269.271568880464
 30
0.0
 11
5264.131667064372
 21
4269.271568880464
 31
0.0
  0
ARC
  5
4376
330
1F
100
AcDbEntity
  8
ﾏﾙｴｽｼﾝｸﾞﾙ
  6
Continuous
370
     5
100
AcDbCircle
 10
5114.131667064372
 20
4393.771568880463
 30
0.0
 40
2.5
100
AcDbArc
 50
0.0
 51
180.0
  0
ARC
  5
4377
330
1F
100
AcDbEntity
  8
ﾏﾙｴｽｼﾝｸﾞﾙ
370
     5
100
AcDbCircle
 10
4809.131667064372
 20
4393.771568880463
 30
0.0
 40
2.5
100
AcDbArc
 50
0.0
 51
90.0
  0
LINE
  5
4378
330
1F
100
AcDbEntity
  8
ﾏﾙｴｽｼﾝｸﾞﾙ
370
     5
100
AcDbLine
 10
2829.131667064368
 20
4269.271568880464
 30
0.0
 11
2976.631667064372
 21
4269.271568880464
 31
0.0
  0
LINE
  5
4379
330
1F
100
AcDbEntity
  8
ﾏﾙｴｽｼﾝｸﾞﾙ
370
     5
100
AcDbLine
 10
2976.631667064372
 20
4269.271568880464
 30
0.0
 11
2976.631667064372
 21
4393.771568880463
 31
0.0
  0
ARC
  5
437A
330
1F
100
AcDbEntity
  8
ﾏﾙｴｽｼﾝｸﾞﾙ
370
     5
100
AcDbCircle
 10
2979.131667064372
 20
4393.771568880463
 30
0.0
 40
2.5
100
AcDbArc
 50
90.0
 51
180.0
  0
LINE
  5
437B
330
1F
100
AcDbEntity
  8
ﾏﾙｴｽｼﾝｸﾞﾙ
370
     5
100
AcDbLine
 10
2829.131667064372
 20
4520.771568880464
 30
0.0
 11
2829.131667064372
 21
4396.271568880464
 31
0.0
  0
LINE
  5
437C
330
1F
100
AcDbEntity
  8
ﾏﾙｴｽｼﾝｸﾞﾙ
370
     5
100
AcDbLine
 10
3134.131667064372
 20
4520.771568880464
 30
0.0
 11
3134.131667064372
 21
4396.271568880464
 31
0.0
  0
LINE
  5
437D
330
1F
100
AcDbEntity
  8
ﾏﾙｴｽｼﾝｸﾞﾙ
370
     5
100
AcDbLine
 10
3129.131667064372
 20
4520.771568880464
 30
0.0
 11
3129.131667064372
 21
4396.271568880464
 31
0.0
  0
LINE
  5
437E
330
1F
100
AcDbEntity
  8
ﾏﾙｴｽｼﾝｸﾞﾙ
370
     5
100
AcDbLine
 10
2829.131667064372
 20
4396.271568880464
 30
0.0
 11
3129.131667064372
 21
4396.271568880464
 31
0.0
  0
LINE
  5
437F
330
1F
100
AcDbEntity
  8
ﾏﾙｴｽｼﾝｸﾞﾙ
370
     5
100
AcDbLine
 10
3134.131667064372
 20
4396.271568880464
 30
0.0
 11
3434.131667064372
 21
4396.271568880464
 31
0.0
  0
LINE
  5
4380
330
1F
100
AcDbEntity
  8
ﾏﾙｴｽｼﾝｸﾞﾙ
370
     5
100
AcDbLine
 10
3439.131667064372
 20
4396.271568880464
 30
0.0
 11
3739.131667064372
 21
4396.271568880464
 31
0.0
  0
LINE
  5
4381
330
1F
100
AcDbEntity
  8
ﾏﾙｴｽｼﾝｸﾞﾙ
370
     5
100
AcDbLine
 10
3739.131667064372
 20
4396.271568880464
 30
0.0
 11
3739.131667064372
 21
4520.771568880464
 31
0.0
  0
LINE
  5
4382
330
1F
100
AcDbEntity
  8
ﾏﾙｴｽｼﾝｸﾞﾙ
370
     5
100
AcDbLine
 10
3434.131667064372
 20
4396.271568880464
 30
0.0
 11
3434.131667064372
 21
4520.771568880464
 31
0.0
  0
LINE
  5
4383
330
1F
100
AcDbEntity
  8
ﾏﾙｴｽｼﾝｸﾞﾙ
370
     5
100
AcDbLine
 10
3439.131667064372
 20
4396.271568880464
 30
0.0
 11
3439.131667064372
 21
4520.771568880464
 31
0.0
  0
ARC
  5
4384
330
1F
100
AcDbEntity
  8
ﾏﾙｴｽｼﾝｸﾞﾙ
  6
Continuous
370
     5
100
AcDbCircle
 10
3131.631667064372
 20
4520.771568880464
 30
0.0
 40
2.5
100
AcDbArc
 50
0.0
 51
180.0
  0
ARC
  5
4385
330
1F
100
AcDbEntity
  8
ﾏﾙｴｽｼﾝｸﾞﾙ
  6
Continuous
370
     5
100
AcDbCircle
 10
3436.631667064372
 20
4520.771568880464
 30
0.0
 40
2.5
100
AcDbArc
 50
0.0
 51
180.0
  0
ARC
  5
4386
330
1F
100
AcDbEntity
  8
ﾏﾙｴｽｼﾝｸﾞﾙ
370
     5
100
AcDbCircle
 10
2826.631667064372
 20
4520.771568880464
 30
0.0
 40
2.5
100
AcDbArc
 50
0.0
 51
90.0
  0
ARC
  5
4387
330
1F
100
AcDbEntity
  8
ﾏﾙｴｽｼﾝｸﾞﾙ
370
     5
100
AcDbCircle
 10
3741.631667064372
 20
4520.771568880464
 30
0.0
 40
2.5
100
AcDbArc
 50
90.0
 51
180.0
  0
LINE
  5
4388
330
1F
100
AcDbEntity
  8
ﾏﾙｴｽｼﾝｸﾞﾙ
370
     5
100
AcDbLine
 10
3744.131667064372
 20
4520.771568880464
 30
0.0
 11
3744.131667064372
 21
4396.271568880464
 31
0.0
  0
LINE
  5
4389
330
1F
100
AcDbEntity
  8
ﾏﾙｴｽｼﾝｸﾞﾙ
370
     5
100
AcDbLine
 10
4049.131667064371
 20
4520.771568880464
 30
0.0
 11
4049.131667064371
 21
4396.271568880464
 31
0.0
  0
LINE
  5
438A
330
1F
100
AcDbEntity
  8
ﾏﾙｴｽｼﾝｸﾞﾙ
370
     5
100
AcDbLine
 10
4044.131667064372
 20
4520.771568880464
 30
0.0
 11
4044.131667064372
 21
4396.271568880464
 31
0.0
  0
LINE
  5
438B
330
1F
100
AcDbEntity
  8
ﾏﾙｴｽｼﾝｸﾞﾙ
370
     5
100
AcDbLine
 10
3744.131667064372
 20
4396.271568880464
 30
0.0
 11
4044.131667064372
 21
4396.271568880464
 31
0.0
  0
LINE
  5
438C
330
1F
100
AcDbEntity
  8
ﾏﾙｴｽｼﾝｸﾞﾙ
370
     5
100
AcDbLine
 10
4049.131667064371
 20
4396.271568880464
 30
0.0
 11
4349.131667064372
 21
4396.271568880464
 31
0.0
  0
LINE
  5
438D
330
1F
100
AcDbEntity
  8
ﾏﾙｴｽｼﾝｸﾞﾙ
370
     5
100
AcDbLine
 10
4354.131667064371
 20
4396.271568880464
 30
0.0
 11
4654.131667064372
 21
4396.271568880464
 31
0.0
  0
LINE
  5
438E
330
1F
100
AcDbEntity
  8
ﾏﾙｴｽｼﾝｸﾞﾙ
370
     5
100
AcDbLine
 10
4654.131667064372
 20
4396.271568880464
 30
0.0
 11
4654.131667064372
 21
4520.771568880464
 31
0.0
  0
LINE
  5
438F
330
1F
100
AcDbEntity
  8
ﾏﾙｴｽｼﾝｸﾞﾙ
370
     5
100
AcDbLine
 10
4349.131667064372
 20
4396.271568880464
 30
0.0
 11
4349.131667064372
 21
4520.771568880464
 31
0.0
  0
LINE
  5
4390
330
1F
100
AcDbEntity
  8
ﾏﾙｴｽｼﾝｸﾞﾙ
370
     5
100
AcDbLine
 10
4354.131667064371
 20
4396.271568880464
 30
0.0
 11
4354.131667064371
 21
4520.771568880464
 31
0.0
  0
ARC
  5
4391
330
1F
100
AcDbEntity
  8
ﾏﾙｴｽｼﾝｸﾞﾙ
  6
Continuous
370
     5
100
AcDbCircle
 10
4046.631667064372
 20
4520.771568880464
 30
0.0
 40
2.5
100
AcDbArc
 50
0.0
 51
180.0
  0
ARC
  5
4392
330
1F
100
AcDbEntity
  8
ﾏﾙｴｽｼﾝｸﾞﾙ
  6
Continuous
370
     5
100
AcDbCircle
 10
4351.631667064371
 20
4520.771568880464
 30
0.0
 40
2.5
100
AcDbArc
 50
0.0
 51
180.0
  0
ARC
  5
4393
330
1F
100
AcDbEntity
  8
ﾏﾙｴｽｼﾝｸﾞﾙ
370
     5
100
AcDbCircle
 10
3741.631667064372
 20
4520.771568880464
 30
0.0
 40
2.5
100
AcDbArc
 50
0.0
 51
90.0
  0
ARC
  5
4394
330
1F
100
AcDbEntity
  8
ﾏﾙｴｽｼﾝｸﾞﾙ
370
     5
100
AcDbCircle
 10
4656.631667064372
 20
4520.771568880464
 30
0.0
 40
2.5
100
AcDbArc
 50
90.0
 51
180.0
  0
LINE
  5
4395
330
1F
100
AcDbEntity
  8
ﾏﾙｴｽｼﾝｸﾞﾙ
370
     5
100
AcDbLine
 10
4656.631667064372
 20
4520.771568880464
 30
0.0
 11
4656.631667064372
 21
4396.271568880464
 31
0.0
  0
LINE
  5
4396
330
1F
100
AcDbEntity
  8
ﾏﾙｴｽｼﾝｸﾞﾙ
370
     5
100
AcDbLine
 10
4961.631667064372
 20
4520.771568880464
 30
0.0
 11
4961.631667064372
 21
4396.271568880464
 31
0.0
  0
LINE
  5
4397
330
1F
100
AcDbEntity
  8
ﾏﾙｴｽｼﾝｸﾞﾙ
370
     5
100
AcDbLine
 10
4956.631667064372
 20
4520.771568880464
 30
0.0
 11
4956.631667064372
 21
4396.271568880464
 31
0.0
  0
LINE
  5
4398
330
1F
100
AcDbEntity
  8
ﾏﾙｴｽｼﾝｸﾞﾙ
370
     5
100
AcDbLine
 10
4656.631667064372
 20
4396.271568880464
 30
0.0
 11
4956.631667064372
 21
4396.271568880464
 31
0.0
  0
LINE
  5
4399
330
1F
100
AcDbEntity
  8
ﾏﾙｴｽｼﾝｸﾞﾙ
370
     5
100
AcDbLine
 10
4961.631667064372
 20
4396.271568880464
 30
0.0
 11
5261.631667064372
 21
4396.271568880464
 31
0.0
  0
LINE
  5
439A
330
1F
100
AcDbEntity
  8
ﾏﾙｴｽｼﾝｸﾞﾙ
370
     5
100
AcDbLine
 10
5261.631667064372
 20
4396.271568880464
 30
0.0
 11
5261.631667064372
 21
4520.771568880464
 31
0.0
  0
ARC
  5
439B
330
1F
100
AcDbEntity
  8
ﾏﾙｴｽｼﾝｸﾞﾙ
  6
Continuous
370
     5
100
AcDbCircle
 10
4959.131667064372
 20
4520.771568880464
 30
0.0
 40
2.5
100
AcDbArc
 50
0.0
 51
180.0
  0
ARC
  5
439C
330
1F
100
AcDbEntity
  8
ﾏﾙｴｽｼﾝｸﾞﾙ
  6
Continuous
370
     5
100
AcDbCircle
 10
5264.131667064372
 20
4520.771568880464
 30
0.0
 40
2.5
100
AcDbArc
 50
90.0
 51
180.0
  0
ARC
  5
439D
330
1F
100
AcDbEntity
  8
ﾏﾙｴｽｼﾝｸﾞﾙ
370
     5
100
AcDbCircle
 10
4654.131667064372
 20
4520.771568880464
 30
0.0
 40
2.5
100
AcDbArc
 50
0.0
 51
90.0
  0
LINE
  5
439E
330
1F
100
AcDbEntity
  8
ﾏﾙｴｽｼﾝｸﾞﾙ
370
     5
100
AcDbLine
 10
2981.631667064372
 20
4560.271568880463
 30
0.0
 11
2981.631667064372
 21
4523.271568880463
 31
0.0
  0
LINE
  5
439F
330
1F
100
AcDbEntity
  8
ﾏﾙｴｽｼﾝｸﾞﾙ
370
     5
100
AcDbLine
 10
3286.631667064372
 20
4647.771568880464
 30
0.0
 11
3286.631667064372
 21
4523.271568880463
 31
0.0
  0
LINE
  5
43A0
330
1F
100
AcDbEntity
  8
ﾏﾙｴｽｼﾝｸﾞﾙ
370
     5
100
AcDbLine
 10
3281.631667064373
 20
4647.771568880464
 30
0.0
 11
3281.631667064373
 21
4523.271568880463
 31
0.0
  0
LINE
  5
43A1
330
1F
100
AcDbEntity
  8
ﾏﾙｴｽｼﾝｸﾞﾙ
370
     5
100
AcDbLine
 10
2981.631667064372
 20
4523.271568880463
 30
0.0
 11
3281.631667064373
 21
4523.271568880463
 31
0.0
  0
LINE
  5
43A2
330
1F
100
AcDbEntity
  8
ﾏﾙｴｽｼﾝｸﾞﾙ
370
     5
100
AcDbLine
 10
3286.631667064372
 20
4523.271568880463
 30
0.0
 11
3586.631667064372
 21
4523.271568880463
 31
0.0
  0
LINE
  5
43A3
330
1F
100
AcDbEntity
  8
ﾏﾙｴｽｼﾝｸﾞﾙ
370
     5
100
AcDbLine
 10
3591.631667064372
 20
4523.271568880463
 30
0.0
 11
3891.631667064372
 21
4523.271568880463
 31
0.0
  0
LINE
  5
43A4
330
1F
100
AcDbEntity
  8
ﾏﾙｴｽｼﾝｸﾞﾙ
370
     5
100
AcDbLine
 10
3891.631667064372
 20
4523.271568880463
 30
0.0
 11
3891.631667064372
 21
4560.271568880463
 31
0.0
  0
LINE
  5
43A5
330
1F
100
AcDbEntity
  8
ﾏﾙｴｽｼﾝｸﾞﾙ
370
     5
100
AcDbLine
 10
3586.631667064372
 20
4523.271568880463
 30
0.0
 11
3586.631667064372
 21
4647.771568880464
 31
0.0
  0
LINE
  5
43A6
330
1F
100
AcDbEntity
  8
ﾏﾙｴｽｼﾝｸﾞﾙ
370
     5
100
AcDbLine
 10
3591.631667064372
 20
4523.271568880463
 30
0.0
 11
3591.631667064372
 21
4647.771568880464
 31
0.0
  0
ARC
  5
43A7
330
1F
100
AcDbEntity
  8
ﾏﾙｴｽｼﾝｸﾞﾙ
  6
Continuous
370
     5
100
AcDbCircle
 10
3284.131667064372
 20
4647.771568880464
 30
0.0
 40
2.5
100
AcDbArc
 50
0.0
 51
180.0
  0
ARC
  5
43A8
330
1F
100
AcDbEntity
  8
ﾏﾙｴｽｼﾝｸﾞﾙ
  6
Continuous
370
     5
100
AcDbCircle
 10
3589.131667064372
 20
4647.771568880464
 30
0.0
 40
2.5
100
AcDbArc
 50
0.0
 51
180.0
  0
LINE
  5
43A9
330
1F
100
AcDbEntity
  8
ﾏﾙｴｽｼﾝｸﾞﾙ
370
     5
100
AcDbLine
 10
3896.631667064372
 20
4560.271568880463
 30
0.0
 11
3896.631667064372
 21
4523.271568880463
 31
0.0
  0
LINE
  5
43AA
330
1F
100
AcDbEntity
  8
ﾏﾙｴｽｼﾝｸﾞﾙ
370
     5
100
AcDbLine
 10
4201.631667064371
 20
4647.771568880464
 30
0.0
 11
4201.631667064371
 21
4523.271568880463
 31
0.0
  0
LINE
  5
43AB
330
1F
100
AcDbEntity
  8
ﾏﾙｴｽｼﾝｸﾞﾙ
370
     5
100
AcDbLine
 10
4196.631667064372
 20
4647.771568880464
 30
0.0
 11
4196.631667064372
 21
4523.271568880463
 31
0.0
  0
LINE
  5
43AC
330
1F
100
AcDbEntity
  8
ﾏﾙｴｽｼﾝｸﾞﾙ
370
     5
100
AcDbLine
 10
3896.631667064372
 20
4523.271568880463
 30
0.0
 11
4196.631667064372
 21
4523.271568880463
 31
0.0
  0
LINE
  5
43AD
330
1F
100
AcDbEntity
  8
ﾏﾙｴｽｼﾝｸﾞﾙ
370
     5
100
AcDbLine
 10
4201.631667064371
 20
4523.271568880463
 30
0.0
 11
4501.631667064372
 21
4523.271568880463
 31
0.0
  0
LINE
  5
43AE
330
1F
100
AcDbEntity
  8
ﾏﾙｴｽｼﾝｸﾞﾙ
370
     5
100
AcDbLine
 10
4506.631667064372
 20
4523.271568880463
 30
0.0
 11
4806.631667064372
 21
4523.271568880463
 31
0.0
  0
LINE
  5
43AF
330
1F
100
AcDbEntity
  8
ﾏﾙｴｽｼﾝｸﾞﾙ
370
     5
100
AcDbLine
 10
4806.631667064372
 20
4523.271568880463
 30
0.0
 11
4806.631667064372
 21
4560.271568880463
 31
0.0
  0
LINE
  5
43B0
330
1F
100
AcDbEntity
  8
ﾏﾙｴｽｼﾝｸﾞﾙ隠れ線
370
     5
100
AcDbLine
 10
4806.631667064372
 20
4560.271568880463
 30
0.0
 11
4806.631667064372
 21
4647.771568880464
 31
0.0
  0
LINE
  5
43B1
330
1F
100
AcDbEntity
  8
ﾏﾙｴｽｼﾝｸﾞﾙ
370
     5
100
AcDbLine
 10
4501.631667064372
 20
4523.271568880463
 30
0.0
 11
4501.631667064372
 21
4647.771568880464
 31
0.0
  0
LINE
  5
43B2
330
1F
100
AcDbEntity
  8
ﾏﾙｴｽｼﾝｸﾞﾙ
370
     5
100
AcDbLine
 10
4506.631667064372
 20
4523.271568880463
 30
0.0
 11
4506.631667064372
 21
4647.771568880464
 31
0.0
  0
ARC
  5
43B3
330
1F
100
AcDbEntity
  8
ﾏﾙｴｽｼﾝｸﾞﾙ
  6
Continuous
370
     5
100
AcDbCircle
 10
4199.131667064372
 20
4647.771568880464
 30
0.0
 40
2.5
100
AcDbArc
 50
0.0
 51
180.0
  0
ARC
  5
43B4
330
1F
100
AcDbEntity
  8
ﾏﾙｴｽｼﾝｸﾞﾙ
  6
Continuous
370
     5
100
AcDbCircle
 10
4504.131667064371
 20
4647.771568880464
 30
0.0
 40
2.5
100
AcDbArc
 50
0.0
 51
180.0
  0
ARC
  5
43B5
330
1F
100
AcDbEntity
  8
ﾏﾙｴｽｼﾝｸﾞﾙ隠れ線
370
     5
100
AcDbCircle
 10
4809.131667064372
 20
4647.771568880464
 30
0.0
 40
2.5
100
AcDbArc
 50
90.0
 51
180.0
  0
LINE
  5
43B6
330
1F
100
AcDbEntity
  8
ﾏﾙｴｽｼﾝｸﾞﾙ隠れ線
370
     5
100
AcDbLine
 10
4811.631667064371
 20
4647.771568880464
 30
0.0
 11
4811.631667064371
 21
4560.271568880463
 31
0.0
  0
LINE
  5
43B7
330
1F
100
AcDbEntity
  8
ﾏﾙｴｽｼﾝｸﾞﾙ
370
     5
100
AcDbLine
 10
4811.631667064371
 20
4560.271568880463
 30
0.0
 11
4811.631667064371
 21
4523.271568880463
 31
0.0
  0
LINE
  5
43B8
330
1F
100
AcDbEntity
  8
ﾏﾙｴｽｼﾝｸﾞﾙ
370
     5
100
AcDbLine
 10
5116.631667064371
 20
4647.771568880464
 30
0.0
 11
5116.631667064371
 21
4523.271568880463
 31
0.0
  0
LINE
  5
43B9
330
1F
100
AcDbEntity
  8
ﾏﾙｴｽｼﾝｸﾞﾙ
370
     5
100
AcDbLine
 10
5111.631667064372
 20
4647.771568880464
 30
0.0
 11
5111.631667064372
 21
4523.271568880463
 31
0.0
  0
LINE
  5
43BA
330
1F
100
AcDbEntity
  8
ﾏﾙｴｽｼﾝｸﾞﾙ
370
     5
100
AcDbLine
 10
4811.631667064371
 20
4523.271568880463
 30
0.0
 11
5111.631667064372
 21
4523.271568880463
 31
0.0
  0
LINE
  5
43BB
330
1F
100
AcDbEntity
  8
ﾏﾙｴｽｼﾝｸﾞﾙ
370
     5
100
AcDbLine
 10
5116.631667064371
 20
4523.271568880463
 30
0.0
 11
5264.131667064372
 21
4523.271568880463
 31
0.0
  0
ARC
  5
43BC
330
1F
100
AcDbEntity
  8
ﾏﾙｴｽｼﾝｸﾞﾙ
  6
Continuous
370
     5
100
AcDbCircle
 10
5114.131667064372
 20
4647.771568880464
 30
0.0
 40
2.5
100
AcDbArc
 50
0.0
 51
180.0
  0
ARC
  5
43BD
330
1F
100
AcDbEntity
  8
ﾏﾙｴｽｼﾝｸﾞﾙ隠れ線
370
     5
100
AcDbCircle
 10
4809.131667064372
 20
4647.771568880464
 30
0.0
 40
2.5
100
AcDbArc
 50
0.0
 51
90.0
  0
LINE
  5
43BE
330
1F
100
AcDbEntity
  8
ﾏﾙｴｽｼﾝｸﾞﾙ
370
     5
100
AcDbLine
 10
2829.131667064368
 20
4523.271568880463
 30
0.0
 11
2976.631667064372
 21
4523.271568880463
 31
0.0
  0
LINE
  5
43BF
330
1F
100
AcDbEntity
  8
ﾏﾙｴｽｼﾝｸﾞﾙ
370
     5
100
AcDbLine
 10
2976.631667064372
 20
4523.271568880463
 30
0.0
 11
2976.631667064372
 21
4560.271568880463
 31
0.0
  0
LINE
  5
43C0
330
1F
100
AcDbEntity
  8
ﾏﾙｴｽｼﾝｸﾞﾙ
370
     5
100
AcDbLine
 10
2829.131667064372
 20
4774.771568880463
 30
0.0
 11
2829.131667064372
 21
4650.271568880463
 31
0.0
  0
LINE
  5
43C1
330
1F
100
AcDbEntity
  8
ﾏﾙｴｽｼﾝｸﾞﾙ
370
     5
100
AcDbLine
 10
3134.131667064372
 20
4774.771568880463
 30
0.0
 11
3134.131667064372
 21
4650.271568880463
 31
0.0
  0
LINE
  5
43C2
330
1F
100
AcDbEntity
  8
ﾏﾙｴｽｼﾝｸﾞﾙ
370
     5
100
AcDbLine
 10
3129.131667064372
 20
4774.771568880463
 30
0.0
 11
3129.131667064372
 21
4650.271568880463
 31
0.0
  0
LINE
  5
43C3
330
1F
100
AcDbEntity
  8
ﾏﾙｴｽｼﾝｸﾞﾙ
370
     5
100
AcDbLine
 10
2829.131667064372
 20
4650.271568880463
 30
0.0
 11
3129.131667064372
 21
4650.271568880463
 31
0.0
  0
LINE
  5
43C4
330
1F
100
AcDbEntity
  8
ﾏﾙｴｽｼﾝｸﾞﾙ
370
     5
100
AcDbLine
 10
3134.131667064372
 20
4650.271568880463
 30
0.0
 11
3434.131667064372
 21
4650.271568880463
 31
0.0
  0
LINE
  5
43C5
330
1F
100
AcDbEntity
  8
ﾏﾙｴｽｼﾝｸﾞﾙ
370
     5
100
AcDbLine
 10
3439.131667064372
 20
4650.271568880463
 30
0.0
 11
3739.131667064372
 21
4650.271568880463
 31
0.0
  0
LINE
  5
43C6
330
1F
100
AcDbEntity
  8
ﾏﾙｴｽｼﾝｸﾞﾙ
370
     5
100
AcDbLine
 10
3739.131667064372
 20
4650.271568880463
 30
0.0
 11
3739.131667064372
 21
4774.771568880463
 31
0.0
  0
LINE
  5
43C7
330
1F
100
AcDbEntity
  8
ﾏﾙｴｽｼﾝｸﾞﾙ
370
     5
100
AcDbLine
 10
3434.131667064372
 20
4650.271568880463
 30
0.0
 11
3434.131667064372
 21
4687.271568880464
 31
0.0
  0
LINE
  5
43C8
330
1F
100
AcDbEntity
  8
ﾏﾙｴｽｼﾝｸﾞﾙ
370
     5
100
AcDbLine
 10
3439.131667064372
 20
4650.271568880463
 30
0.0
 11
3439.131667064372
 21
4687.271568880464
 31
0.0
  0
ARC
  5
43C9
330
1F
100
AcDbEntity
  8
ﾏﾙｴｽｼﾝｸﾞﾙ
  6
Continuous
370
     5
100
AcDbCircle
 10
3131.631667064372
 20
4774.771568880463
 30
0.0
 40
2.5
100
AcDbArc
 50
0.0
 51
180.0
  0
ARC
  5
43CA
330
1F
100
AcDbEntity
  8
ﾏﾙｴｽｼﾝｸﾞﾙ
370
     5
100
AcDbCircle
 10
2826.631667064372
 20
4774.771568880463
 30
0.0
 40
2.5
100
AcDbArc
 50
0.0
 51
90.0
  0
ARC
  5
43CB
330
1F
100
AcDbEntity
  8
ﾏﾙｴｽｼﾝｸﾞﾙ
370
     5
100
AcDbCircle
 10
3741.631667064372
 20
4774.771568880463
 30
0.0
 40
2.5
100
AcDbArc
 50
90.0
 51
180.0
  0
LINE
  5
43CC
330
1F
100
AcDbEntity
  8
ﾏﾙｴｽｼﾝｸﾞﾙ
370
     5
100
AcDbLine
 10
3744.131667064372
 20
4774.771568880463
 30
0.0
 11
3744.131667064372
 21
4650.271568880463
 31
0.0
  0
LINE
  5
43CD
330
1F
100
AcDbEntity
  8
ﾏﾙｴｽｼﾝｸﾞﾙ
370
     5
100
AcDbLine
 10
4049.131667064371
 20
4774.771568880463
 30
0.0
 11
4049.131667064371
 21
4650.271568880463
 31
0.0
  0
LINE
  5
43CE
330
1F
100
AcDbEntity
  8
ﾏﾙｴｽｼﾝｸﾞﾙ
370
     5
100
AcDbLine
 10
4044.131667064372
 20
4774.771568880463
 30
0.0
 11
4044.131667064372
 21
4650.271568880463
 31
0.0
  0
LINE
  5
43CF
330
1F
100
AcDbEntity
  8
ﾏﾙｴｽｼﾝｸﾞﾙ
370
     5
100
AcDbLine
 10
3744.131667064372
 20
4650.271568880463
 30
0.0
 11
4044.131667064372
 21
4650.271568880463
 31
0.0
  0
LINE
  5
43D0
330
1F
100
AcDbEntity
  8
ﾏﾙｴｽｼﾝｸﾞﾙ
370
     5
100
AcDbLine
 10
4049.131667064371
 20
4650.271568880463
 30
0.0
 11
4349.131667064372
 21
4650.271568880463
 31
0.0
  0
LINE
  5
43D1
330
1F
100
AcDbEntity
  8
ﾏﾙｴｽｼﾝｸﾞﾙ
370
     5
100
AcDbLine
 10
4354.131667064371
 20
4650.271568880463
 30
0.0
 11
4559.748601970215
 21
4650.271568880463
 31
0.0
  0
LINE
  5
43D2
330
1F
100
AcDbEntity
  8
ﾏﾙｴｽｼﾝｸﾞﾙ
370
     5
100
AcDbLine
 10
4349.131667064372
 20
4650.271568880463
 30
0.0
 11
4349.131667064372
 21
4687.271568880464
 31
0.0
  0
LINE
  5
43D3
330
1F
100
AcDbEntity
  8
ﾏﾙｴｽｼﾝｸﾞﾙ隠れ線
370
     5
100
AcDbLine
 10
4349.131667064372
 20
4687.271568880464
 30
0.0
 11
4349.131667064372
 21
4774.771568880463
 31
0.0
  0
LINE
  5
43D4
330
1F
100
AcDbEntity
  8
ﾏﾙｴｽｼﾝｸﾞﾙ
370
     5
100
AcDbLine
 10
4354.131667064371
 20
4650.271568880463
 30
0.0
 11
4354.131667064371
 21
4687.271568880464
 31
0.0
  0
LINE
  5
43D5
330
1F
100
AcDbEntity
  8
ﾏﾙｴｽｼﾝｸﾞﾙ隠れ線
370
     5
100
AcDbLine
 10
4354.131667064371
 20
4687.271568880464
 30
0.0
 11
4354.131667064371
 21
4774.771568880463
 31
0.0
  0
ARC
  5
43D6
330
1F
100
AcDbEntity
  8
ﾏﾙｴｽｼﾝｸﾞﾙ
  6
Continuous
370
     5
100
AcDbCircle
 10
4046.631667064372
 20
4774.771568880463
 30
0.0
 40
2.5
100
AcDbArc
 50
0.0
 51
180.0
  0
ARC
  5
43D7
330
1F
100
AcDbEntity
  8
ﾏﾙｴｽｼﾝｸﾞﾙ隠れ線
  6
Continuous
370
     5
100
AcDbCircle
 10
4351.631667064371
 20
4774.771568880463
 30
0.0
 40
2.5
100
AcDbArc
 50
0.0
 51
180.0
  0
ARC
  5
43D8
330
1F
100
AcDbEntity
  8
ﾏﾙｴｽｼﾝｸﾞﾙ
370
     5
100
AcDbCircle
 10
3741.631667064372
 20
4774.771568880463
 30
0.0
 40
2.5
100
AcDbArc
 50
0.0
 51
90.0
  0
ARC
  5
43D9
330
1F
100
AcDbEntity
  8
ﾏﾙｴｽｽﾃﾝ雪止め隠れ線
  6
ACAD_ISO03W100
370
     5
100
AcDbCircle
 10
2979.131667064372
 20
4901.771568880463
 30
0.0
 40
2.5
100
AcDbArc
 50
0.0
 51
90.0
  0
ARC
  5
43DA
330
1F
100
AcDbEntity
  8
ﾏﾙｴｽｽﾃﾝ雪止め隠れ線
  6
ACAD_ISO03W100
370
     5
100
AcDbCircle
 10
3894.131667064372
 20
4901.771568880463
 30
0.0
 40
2.5
100
AcDbArc
 50
90.0
 51
180.0
  0
LINE
  5
43DB
330
1F
100
AcDbEntity
  8
ﾏﾙｴｽｼﾝｸﾞﾙ
370
     5
100
AcDbLine
 10
2829.131667064368
 20
4777.271568880464
 30
0.0
 11
2976.631667064372
 21
4777.271568880464
 31
0.0
  0
LINE
  5
43DC
330
1F
100
AcDbEntity
  8
ﾏﾙｴｽｽﾃﾝ雪止め隠れ線
  6
ACAD_ISO03W100
370
     5
100
AcDbLine
 10
2976.631667064372
 20
4777.271568880464
 30
0.0
 11
2976.631667064372
 21
4901.771568880463
 31
0.0
  0
ARC
  5
43DD
330
1F
100
AcDbEntity
  8
ﾏﾙｴｽｽﾃﾝ雪止め隠れ線
  6
ACAD_ISO03W100
370
     5
100
AcDbCircle
 10
2979.131667064372
 20
4901.771568880463
 30
0.0
 40
2.5
100
AcDbArc
 50
90.0
 51
180.0
  0
LINE
  5
43DE
330
1F
100
AcDbEntity
  8
ﾏﾙｴｽｼﾝｸﾞﾙ
370
     5
100
AcDbLine
 10
3894.131667064372
 20
5082.271568880464
 30
0.0
 11
2979.131667064372
 21
5082.271568880464
 31
0.0
  0
LINE
  5
43DF
330
1F
100
AcDbEntity
  8
ﾏﾙｴｽｼﾝｸﾞﾙ
370
     5
100
AcDbLine
 10
2979.131667064372
 20
5082.271568880464
 30
0.0
 11
2979.131667064372
 21
4904.271568880464
 31
0.0
  0
LINE
  5
43E0
330
1F
100
AcDbEntity
  8
ﾏﾙｴｽｽﾃﾝ雪止め隠れ線
  6
ACAD_ISO03W100
370
     5
100
AcDbLine
 10
2981.631667064372
 20
4901.771568880463
 30
0.0
 11
2981.631667064372
 21
4777.271568880464
 31
0.0
  0
LINE
  5
43E1
330
1F
100
AcDbEntity
  8
ﾏﾙｴｽｼﾝｸﾞﾙ
370
     5
100
AcDbLine
 10
3286.631667064372
 20
4901.771568880463
 30
0.0
 11
3286.631667064372
 21
4777.271568880464
 31
0.0
  0
LINE
  5
43E2
330
1F
100
AcDbEntity
  8
ﾏﾙｴｽｼﾝｸﾞﾙ
370
     5
100
AcDbLine
 10
3281.631667064373
 20
4901.771568880463
 30
0.0
 11
3281.631667064373
 21
4777.271568880464
 31
0.0
  0
LINE
  5
43E3
330
1F
100
AcDbEntity
  8
ﾏﾙｴｽｼﾝｸﾞﾙ
370
     5
100
AcDbLine
 10
2981.631667064372
 20
4777.271568880464
 30
0.0
 11
3281.631667064373
 21
4777.271568880464
 31
0.0
  0
LINE
  5
43E4
330
1F
100
AcDbEntity
  8
ﾏﾙｴｽｼﾝｸﾞﾙ
370
     5
100
AcDbLine
 10
3286.631667064372
 20
4777.271568880464
 30
0.0
 11
3586.631667064372
 21
4777.271568880464
 31
0.0
  0
LINE
  5
43E5
330
1F
100
AcDbEntity
  8
ﾏﾙｴｽｼﾝｸﾞﾙ
370
     5
100
AcDbLine
 10
3591.631667064372
 20
4777.271568880464
 30
0.0
 11
3891.631667064372
 21
4777.271568880464
 31
0.0
  0
LINE
  5
43E6
330
1F
100
AcDbEntity
  8
ﾏﾙｴｽｼﾝｸﾞﾙ
370
     5
100
AcDbLine
 10
3894.131667064372
 20
4904.271568880464
 30
0.0
 11
3894.131667064372
 21
5082.271568880464
 31
0.0
  0
LINE
  5
43E7
330
1F
100
AcDbEntity
  8
ﾏﾙｴｽｼﾝｸﾞﾙ
370
     5
100
AcDbLine
 10
3891.631667064372
 20
4777.271568880464
 30
0.0
 11
3891.631667064372
 21
4901.771568880463
 31
0.0
  0
LINE
  5
43E8
330
1F
100
AcDbEntity
  8
ﾏﾙｴｽｼﾝｸﾞﾙ
370
     5
100
AcDbLine
 10
3586.631667064372
 20
4777.271568880464
 30
0.0
 11
3586.631667064372
 21
4901.771568880463
 31
0.0
  0
LINE
  5
43E9
330
1F
100
AcDbEntity
  8
ﾏﾙｴｽｼﾝｸﾞﾙ
370
     5
100
AcDbLine
 10
3591.631667064372
 20
4777.271568880464
 30
0.0
 11
3591.631667064372
 21
4901.771568880463
 31
0.0
  0
ARC
  5
43EA
330
1F
100
AcDbEntity
  8
ﾏﾙｴｽｼﾝｸﾞﾙ
  6
Continuous
370
     5
100
AcDbCircle
 10
3284.131667064372
 20
4901.771568880463
 30
0.0
 40
2.5
100
AcDbArc
 50
0.0
 51
180.0
  0
ARC
  5
43EB
330
1F
100
AcDbEntity
  8
ﾏﾙｴｽｼﾝｸﾞﾙ
  6
Continuous
370
     5
100
AcDbCircle
 10
3589.131667064372
 20
4901.771568880463
 30
0.0
 40
2.5
100
AcDbArc
 50
0.0
 51
180.0
  0
ARC
  5
43EC
330
1F
100
AcDbEntity
  8
ﾏﾙｴｽｽﾃﾝ雪止め隠れ線
  6
ACAD_ISO03W100
370
     5
100
AcDbCircle
 10
2979.131667064372
 20
4901.771568880463
 30
0.0
 40
2.5
100
AcDbArc
 50
0.0
 51
90.0
  0
ARC
  5
43ED
330
1F
100
AcDbEntity
  8
ﾏﾙｴｽｽﾃﾝ雪止め隠れ線
  6
ACAD_ISO03W100
370
     5
100
AcDbCircle
 10
3894.131667064372
 20
4901.771568880463
 30
0.0
 40
2.5
100
AcDbArc
 50
90.0
 51
180.0
  0
LINE
  5
43EE
330
1F
100
AcDbEntity
  8
ﾏﾙｴｽｼﾝｸﾞﾙ
370
     5
100
AcDbLine
 10
2979.131667064372
 20
5082.271568880464
 30
0.0
 11
2829.131667064372
 21
5082.271568880462
 31
0.0
  0
LINE
  5
43EF
330
1F
100
AcDbEntity
  8
ﾏﾙｴｽｼﾝｸﾞﾙ
370
     5
100
AcDbLine
 10
4655.381667064371
 20
4954.936632389925
 30
0.0
 11
3894.131667064372
 21
4954.936632389925
 31
0.0
  0
LINE
  5
43F0
330
1F
100
AcDbEntity
  8
ﾏﾙｴｽｼﾝｸﾞﾙ
370
     5
100
AcDbLine
 10
3740.381667064372
 20
4777.271568880464
 30
0.0
 11
3740.381667064372
 21
4776.936632389925
 31
0.0
  0
LINE
  5
43F1
330
1F
100
AcDbEntity
  8
ﾏﾙｴｽｼﾝｸﾞﾙ
370
     5
100
AcDbLine
 10
4651.761977064372
 20
4949.423571389925
 30
0.0
 11
4643.965712064371
 21
4935.835802389924
 31
0.0
  0
LINE
  5
43F2
330
1F
100
AcDbEntity
  8
ﾏﾙｴｽｼﾝｸﾞﾙ
370
     5
100
AcDbLine
 10
4643.965712064371
 20
4935.835802389924
 30
0.0
 11
4642.796279064373
 21
4925.422228389925
 31
0.0
  0
LINE
  5
43F3
330
1F
100
AcDbEntity
  8
ﾏﾙｴｽｼﾝｸﾞﾙ
370
     5
100
AcDbLine
 10
4642.796279064373
 20
4925.422228389925
 30
0.0
 11
4647.306960064372
 21
4921.357042389923
 31
0.0
  0
LINE
  5
43F4
330
1F
100
AcDbEntity
  8
ﾏﾙｴｽｼﾝｸﾞﾙ
370
     5
100
AcDbLine
 10
4647.306960064372
 20
4921.357042389923
 30
0.0
 11
4647.863844064374
 21
4915.120043389925
 31
0.0
  0
LINE
  5
43F5
330
1F
100
AcDbEntity
  8
ﾏﾙｴｽｼﾝｸﾞﾙ
370
     5
100
AcDbLine
 10
4647.863844064374
 20
4915.120043389925
 30
0.0
 11
4645.079482064371
 21
4907.936388389924
 31
0.0
  0
LINE
  5
43F6
330
1F
100
AcDbEntity
  8
ﾏﾙｴｽｼﾝｸﾞﾙ
370
     5
100
AcDbLine
 10
4645.079482064371
 20
4907.936388389924
 30
0.0
 11
4640.624465064371
 21
4901.253893389925
 31
0.0
  0
LINE
  5
43F7
330
1F
100
AcDbEntity
  8
ﾏﾙｴｽｼﾝｸﾞﾙ
370
     5
100
AcDbLine
 10
4640.624465064371
 20
4901.253893389925
 30
0.0
 11
4641.960982064371
 21
4900.641283389925
 31
0.0
  0
LINE
  5
43F8
330
1F
100
AcDbEntity
  8
ﾏﾙｴｽｼﾝｸﾞﾙ
370
     5
100
AcDbLine
 10
4641.960982064371
 20
4900.641283389925
 30
0.0
 11
4640.624465064371
 21
4890.116381389923
 31
0.0
  0
LINE
  5
43F9
330
1F
100
AcDbEntity
  8
ﾏﾙｴｽｼﾝｸﾞﾙ
370
     5
100
AcDbLine
 10
4640.624465064371
 20
4890.116381389923
 30
0.0
 11
4638.84248206437
 21
4883.545214389924
 31
0.0
  0
LINE
  5
43FA
330
1F
100
AcDbEntity
  8
ﾏﾙｴｽｼﾝｸﾞﾙ
370
     5
100
AcDbLine
 10
4638.84248206437
 20
4883.545214389924
 30
0.0
 11
4636.39222606437
 21
4875.470568389925
 31
0.0
  0
LINE
  5
43FB
330
1F
100
AcDbEntity
  8
ﾏﾙｴｽｼﾝｸﾞﾙ
370
     5
100
AcDbLine
 10
4636.39222606437
 20
4875.470568389925
 30
0.0
 11
4633.385085064372
 21
4866.337816389926
 31
0.0
  0
LINE
  5
43FC
330
1F
100
AcDbEntity
  8
ﾏﾙｴｽｼﾝｸﾞﾙ
370
     5
100
AcDbLine
 10
4633.385085064372
 20
4866.337816389926
 30
0.0
 11
4629.988173064371
 21
4856.536791389924
 31
0.0
  0
LINE
  5
43FD
330
1F
100
AcDbEntity
  8
ﾏﾙｴｽｼﾝｸﾞﾙ
370
     5
100
AcDbLine
 10
4629.988173064371
 20
4856.536791389924
 30
0.0
 11
4626.257094064371
 21
4846.568712389924
 31
0.0
  0
LINE
  5
43FE
330
1F
100
AcDbEntity
  8
ﾏﾙｴｽｼﾝｸﾞﾙ
370
     5
100
AcDbLine
 10
4626.257094064371
 20
4846.568712389924
 30
0.0
 11
4622.303298064372
 21
4836.767748389924
 31
0.0
  0
LINE
  5
43FF
330
1F
100
AcDbEntity
  8
ﾏﾙｴｽｼﾝｸﾞﾙ
370
     5
100
AcDbLine
 10
4622.303298064372
 20
4836.767748389924
 30
0.0
 11
4618.293776064372
 21
4827.579332389923
 31
0.0
  0
LINE
  5
4400
330
1F
100
AcDbEntity
  8
ﾏﾙｴｽｼﾝｸﾞﾙ
370
     5
100
AcDbLine
 10
4618.293776064372
 20
4827.579332389923
 30
0.0
 11
4613.616042064371
 21
4818.001024389925
 31
0.0
  0
LINE
  5
4401
330
1F
100
AcDbEntity
  8
ﾏﾙｴｽｼﾝｸﾞﾙ
370
     5
100
AcDbLine
 10
4613.616042064371
 20
4818.001024389925
 30
0.0
 11
4609.105361064371
 21
4809.425158389924
 31
0.0
  0
LINE
  5
4402
330
1F
100
AcDbEntity
  8
ﾏﾙｴｽｼﾝｸﾞﾙ
370
     5
100
AcDbLine
 10
4609.105361064371
 20
4809.425158389924
 30
0.0
 11
4604.761733064373
 21
4801.294787389925
 31
0.0
  0
LINE
  5
4403
330
1F
100
AcDbEntity
  8
ﾏﾙｴｽｼﾝｸﾞﾙ
370
     5
100
AcDbLine
 10
4604.761733064373
 20
4801.294787389925
 30
0.0
 11
4600.696547064373
 21
4793.164415389925
 31
0.0
  0
LINE
  5
4404
330
1F
100
AcDbEntity
  8
ﾏﾙｴｽｼﾝｸﾞﾙ
370
     5
100
AcDbLine
 10
4600.696547064373
 20
4793.164415389925
 30
0.0
 11
4596.965468064373
 21
4784.588549389924
 31
0.0
  0
LINE
  5
4405
330
1F
100
AcDbEntity
  8
ﾏﾙｴｽｼﾝｸﾞﾙ
370
     5
100
AcDbLine
 10
4596.965468064373
 20
4784.588549389924
 30
0.0
 11
4593.73561006437
 21
4775.121691389924
 31
0.0
  0
LINE
  5
4406
330
1F
100
AcDbEntity
  8
ﾏﾙｴｽｼﾝｸﾞﾙ
370
     5
100
AcDbLine
 10
4593.73561006437
 20
4775.121691389924
 30
0.0
 11
4591.341048064372
 21
4766.044603389924
 31
0.0
  0
LINE
  5
4407
330
1F
100
AcDbEntity
  8
ﾏﾙｴｽｼﾝｸﾞﾙ
370
     5
100
AcDbLine
 10
4591.341048064372
 20
4766.044603389924
 30
0.0
 11
4589.336287064372
 21
4756.410692389923
 31
0.0
  0
LINE
  5
4408
330
1F
100
AcDbEntity
  8
ﾏﾙｴｽｼﾝｸﾞﾙ
370
     5
100
AcDbLine
 10
4589.336287064372
 20
4756.410692389923
 30
0.0
 11
4587.554274064372
 21
4746.721056389924
 31
0.0
  0
LINE
  5
4409
330
1F
100
AcDbEntity
  8
ﾏﾙｴｽｼﾝｸﾞﾙ
370
     5
100
AcDbLine
 10
4587.554274064372
 20
4746.721056389924
 30
0.0
 11
4586.10639806437
 21
4737.365587389924
 31
0.0
  0
LINE
  5
440A
330
1F
100
AcDbEntity
  8
ﾏﾙｴｽｼﾝｸﾞﾙ
370
     5
100
AcDbLine
 10
4586.10639806437
 20
4737.365587389924
 30
0.0
 11
4584.769911064369
 21
4728.789660389923
 31
0.0
  0
LINE
  5
440B
330
1F
100
AcDbEntity
  8
ﾏﾙｴｽｼﾝｸﾞﾙ
370
     5
100
AcDbLine
 10
4584.769911064369
 20
4728.789660389923
 30
0.0
 11
4583.656172064369
 21
4721.550280389926
 31
0.0
  0
LINE
  5
440C
330
1F
100
AcDbEntity
  8
ﾏﾙｴｽｼﾝｸﾞﾙ
370
     5
100
AcDbLine
 10
4583.656172064369
 20
4721.550280389926
 30
0.0
 11
4582.598097064372
 21
4715.981554389924
 31
0.0
  0
LINE
  5
440D
330
1F
100
AcDbEntity
  8
ﾏﾙｴｽｼﾝｸﾞﾙ
370
     5
100
AcDbLine
 10
4582.598097064372
 20
4715.981554389924
 30
0.0
 11
4580.760420064373
 21
4710.468493389924
 31
0.0
  0
LINE
  5
440E
330
1F
100
AcDbEntity
  8
ﾏﾙｴｽｼﾝｸﾞﾙ
370
     5
100
AcDbLine
 10
4580.760420064373
 20
4710.468493389924
 30
0.0
 11
4578.310164064372
 21
4706.180529389923
 31
0.0
  0
LINE
  5
440F
330
1F
100
AcDbEntity
  8
ﾏﾙｴｽｼﾝｸﾞﾙ
370
     5
100
AcDbLine
 10
4578.310164064372
 20
4706.180529389923
 30
0.0
 11
4574.356337064371
 21
4697.548998389924
 31
0.0
  0
LINE
  5
4410
330
1F
100
AcDbEntity
  8
ﾏﾙｴｽｼﾝｸﾞﾙ
370
     5
100
AcDbLine
 10
4574.356337064371
 20
4697.548998389924
 30
0.0
 11
4568.063674064371
 21
4679.172106389923
 31
0.0
  0
LINE
  5
4411
330
1F
100
AcDbEntity
  8
ﾏﾙｴｽｼﾝｸﾞﾙ
370
     5
100
AcDbLine
 10
4568.063674064371
 20
4679.172106389923
 30
0.0
 11
4561.21409506437
 21
4655.616320389925
 31
0.0
  0
LINE
  5
4412
330
1F
100
AcDbEntity
  8
ﾏﾙｴｽｼﾝｸﾞﾙ
370
     5
100
AcDbLine
 10
4655.381667064371
 20
4954.936632389925
 30
0.0
 11
4651.761977064372
 21
4949.423571389925
 31
0.0
  0
LINE
  5
4413
330
1F
100
AcDbEntity
  8
ﾏﾙｴｽｼﾝｸﾞﾙ
370
     5
100
AcDbLine
 10
4559.748601970215
 20
4650.271568880463
 30
0.0
 11
4561.21409506437
 21
4655.616320389925
 31
0.0
  0
LINE
  5
4414
330
1F
100
AcDbEntity
  8
ﾏﾙｴｽｼﾝｸﾞﾙ
370
     5
100
AcDbLine
 10
4809.131667064372
 20
4828.271568880463
 30
0.0
 11
4618.59584526085
 21
4828.271568880463
 31
0.0
  0
LINE
  5
4415
330
1F
100
AcDbEntity
  8
ﾏﾙｴｽｼﾝｸﾞﾙ隠れ線
370
     5
100
AcDbLine
 10
4809.131667064372
 20
4650.271568880463
 30
0.0
 11
4809.131667064372
 21
4828.271568880463
 31
0.0
  0
LINE
  5
4416
330
1F
100
AcDbEntity
  8
ﾏﾙｴｽｼﾝｸﾞﾙ
370
     5
100
AcDbLine
 10
5264.131667064376
 20
4828.271568880463
 30
0.0
 11
4809.131667064372
 21
4828.271568880463
 31
0.0
  0
LINE
  5
4417
330
1F
100
AcDbEntity
  8
ﾏﾙｴｽｼﾝｸﾞﾙ隠れ線
370
     5
100
AcDbLine
 10
4809.131667064372
 20
4828.271568880463
 30
0.0
 11
4809.131667064372
 21
4650.271568880463
 31
0.0
  0
DIMENSION
  5
4418
102
{ACAD_XDICTIONARY
360
4419
102
}
330
1F
100
AcDbEntity
  8
寸法
  6
Continuous
370
     5
100
AcDbDimension
280
     0
  2
*D4
 10
5322.66446164411
 20
4269.271568880465
 30
0.0
 11
5311.623533949703
 21
4205.771568880463
 31
0.0
 70
    32
 71
     5
 42
127.0
 73
     0
 74
     0
 75
     0
  3
NS寸法
100
AcDbAlignedDimension
 13
5261.631667064372
 23
4142.271568880463
 33
0.0
 14
5264.131667064372
 24
4269.271568880464
 34
0.0
 50
90.0
100
AcDbRotatedDimension
1001
AcadAnnotative
1000
AnnotativeData
1002
{
1070
     1
1070
     1
1002
}
  0
DIMENSION
  5
441D
102
{ACAD_XDICTIONARY
360
441E
102
}
330
1F
100
AcDbEntity
  8
寸法
  6
Continuous
370
     5
100
AcDbDimension
280
     0
  2
*D5
 10
5322.66446164411
 20
4396.271568880465
 30
0.0
 11
5311.623533949703
 21
4332.771568880463
 31
0.0
 70
    32
 71
     5
 42
127.0
 73
     0
 74
     0
 75
     0
  3
NS寸法
100
AcDbAlignedDimension
 13
5264.131667064372
 23
4269.271568880464
 33
0.0
 14
5261.631667064372
 24
4396.271568880464
 34
0.0
 50
90.0
100
AcDbRotatedDimension
1001
AcadAnnotative
1000
AnnotativeData
1002
{
1070
     1
1070
     1
1002
}
  0
DIMENSION
  5
4422
102
{ACAD_XDICTIONARY
360
4423
102
}
330
1F
100
AcDbEntity
  8
寸法
  6
Continuous
370
     5
100
AcDbDimension
280
     0
  2
*D6
 10
5322.66446164411
 20
4523.271568880465
 30
0.0
 11
5311.623533949703
 21
4459.771568880464
 31
0.0
 70
    32
 71
     5
 42
127.0
 73
     0
 74
     0
 75
     0
  3
NS寸法
100
AcDbAlignedDimension
 13
5261.631667064372
 23
4396.271568880464
 33
0.0
 14
5264.131667064372
 24
4523.271568880463
 34
0.0
 50
90.0
100
AcDbRotatedDimension
1001
AcadAnnotative
1000
AnnotativeData
1002
{
1070
     1
1070
     1
1002
}
  0
LINE
  5
4427
330
1F
100
AcDbEntity
  8
桟木隠れ線
  6
ACAD_ISO03W100
370
     5
100
AcDbLine
 10
3894.131667064372
 20
5082.271568880464
 30
0.0
 11
4807.850984267698
 21
5082.271568880464
 31
0.0
  0
LINE
  5
4428
330
1F
100
AcDbEntity
  8
桟木隠れ線
  6
ACAD_ISO03W100
370
     5
100
AcDbLine
 10
3894.131667064372
 20
5016.191425826463
 30
0.0
 11
4807.850984267698
 21
5016.191425826463
 31
0.0
  0
LINE
  5
4429
330
1F
100
AcDbEntity
  8
ﾏﾙｴｽｽﾃﾝ雪止め隠れ線
  6
ACAD_ISO03W100
370
     5
100
AcDbLine
 10
3004.131667064372
 20
4920.271568880464
 30
0.0
 11
2954.131667064372
 21
4920.271568880464
 31
0.0
  0
LINE
  5
442A
330
1F
100
AcDbEntity
  8
ﾏﾙｴｽｽﾃﾝ雪止め隠れ線
  6
ACAD_ISO03W100
370
     5
100
AcDbLine
 10
3004.131667064372
 20
4850.271568880464
 30
0.0
 11
2954.131667064372
 21
4850.271568880464
 31
0.0
  0
LINE
  5
442B
330
1F
100
AcDbEntity
  8
ﾏﾙｴｽｽﾃﾝ雪止め
  6
Continuous
370
     5
100
AcDbLine
 10
3004.131667064372
 20
4650.271568880463
 30
0.0
 11
2954.131667064372
 21
4650.271568880463
 31
0.0
  0
LINE
  5
442C
330
1F
100
AcDbEntity
  8
ﾏﾙｴｽｽﾃﾝ雪止め
  6
Continuous
370
     5
100
AcDbLine
 10
3004.131667064372
 20
4620.271568880464
 30
0.0
 11
2954.131667064372
 21
4620.271568880464
 31
0.0
  0
LINE
  5
442D
330
1F
100
AcDbEntity
  8
ﾏﾙｴｽｽﾃﾝ雪止め隠れ線
  6
ACAD_ISO03W100
370
     5
100
AcDbLine
 10
3004.131667064372
 20
4920.271568880464
 30
0.0
 11
3004.131667064372
 21
4650.271568880463
 31
0.0
  0
LINE
  5
442E
330
1F
100
AcDbEntity
  8
ﾏﾙｴｽｽﾃﾝ雪止め
  6
Continuous
370
     5
100
AcDbLine
 10
3004.131667064372
 20
4650.271568880463
 30
0.0
 11
3004.131667064372
 21
4560.271568880463
 31
0.0
  0
LINE
  5
442F
330
1F
100
AcDbEntity
  8
ﾏﾙｴｽｽﾃﾝ雪止め
  6
Continuous
370
     5
100
AcDbLine
 10
3004.131667064372
 20
4560.271568880463
 30
0.0
 11
2954.131667064372
 21
4560.271568880463
 31
0.0
  0
LINE
  5
4430
330
1F
100
AcDbEntity
  8
ﾏﾙｴｽｽﾃﾝ雪止め隠れ線
  6
ACAD_ISO03W100
370
     5
100
AcDbLine
 10
2954.131667064372
 20
4920.271568880464
 30
0.0
 11
2954.131667064372
 21
4650.271568880463
 31
0.0
  0
LINE
  5
4431
330
1F
100
AcDbEntity
  8
ﾏﾙｴｽｽﾃﾝ雪止め
  6
Continuous
370
     5
100
AcDbLine
 10
2954.131667064372
 20
4650.271568880463
 30
0.0
 11
2954.131667064372
 21
4560.271568880463
 31
0.0
  0
LINE
  5
4432
330
1F
100
AcDbEntity
  8
ﾏﾙｴｽｽﾃﾝ雪止め隠れ線
  6
ACAD_ISO03W100
370
     5
100
AcDbLine
 10
3004.131667064372
 20
4920.271568880464
 30
0.0
 11
2954.131667064372
 21
4920.271568880464
 31
0.0
  0
LINE
  5
4433
330
1F
100
AcDbEntity
  8
ﾏﾙｴｽｽﾃﾝ雪止め隠れ線
  6
ACAD_ISO03W100
370
     5
100
AcDbLine
 10
3004.131667064372
 20
4715.271568880464
 30
0.0
 11
3004.131667064372
 21
4709.0193180971
 31
0.0
  0
CIRCLE
  5
4434
330
1F
100
AcDbEntity
  8
ﾏﾙｴｽｽﾃﾝ雪止め
  6
Continuous
370
     5
100
AcDbCircle
 10
2994.131667064372
 20
4640.271568880463
 30
0.0
 40
3.0
  0
CIRCLE
  5
4435
330
1F
100
AcDbEntity
  8
ﾏﾙｴｽｽﾃﾝ雪止め
  6
Continuous
370
     5
100
AcDbCircle
 10
2964.131667064372
 20
4640.271568880463
 30
0.0
 40
3.0
  0
LINE
  5
4436
330
1F
100
AcDbEntity
  8
ﾏﾙｴｽｽﾃﾝ雪止め隠れ線
  6
ACAD_ISO03W100
370
     5
100
AcDbLine
 10
3461.631667064372
 20
5047.271568880464
 30
0.0
 11
3411.631667064372
 21
5047.271568880464
 31
0.0
  0
LINE
  5
4437
330
1F
100
AcDbEntity
  8
ﾏﾙｴｽｽﾃﾝ雪止め隠れ線
  6
ACAD_ISO03W100
370
     5
100
AcDbLine
 10
3461.631667064372
 20
4977.271568880464
 30
0.0
 11
3411.631667064372
 21
4977.271568880464
 31
0.0
  0
LINE
  5
4438
330
1F
100
AcDbEntity
  8
ﾏﾙｴｽｽﾃﾝ雪止め
  6
Continuous
370
     5
100
AcDbLine
 10
3461.631667064372
 20
4777.271568880464
 30
0.0
 11
3411.631667064372
 21
4777.271568880464
 31
0.0
  0
LINE
  5
4439
330
1F
100
AcDbEntity
  8
ﾏﾙｴｽｽﾃﾝ雪止め
  6
Continuous
370
     5
100
AcDbLine
 10
3461.631667064372
 20
4747.271568880464
 30
0.0
 11
3411.631667064372
 21
4747.271568880464
 31
0.0
  0
LINE
  5
443A
330
1F
100
AcDbEntity
  8
ﾏﾙｴｽｽﾃﾝ雪止め隠れ線
  6
ACAD_ISO03W100
370
     5
100
AcDbLine
 10
3461.631667064372
 20
5047.271568880464
 30
0.0
 11
3461.631667064372
 21
4777.271568880464
 31
0.0
  0
LINE
  5
443B
330
1F
100
AcDbEntity
  8
ﾏﾙｴｽｽﾃﾝ雪止め
  6
Continuous
370
     5
100
AcDbLine
 10
3461.631667064372
 20
4777.271568880464
 30
0.0
 11
3461.631667064372
 21
4687.271568880464
 31
0.0
  0
LINE
  5
443C
330
1F
100
AcDbEntity
  8
ﾏﾙｴｽｽﾃﾝ雪止め
  6
Continuous
370
     5
100
AcDbLine
 10
3461.631667064372
 20
4687.271568880464
 30
0.0
 11
3411.631667064372
 21
4687.271568880464
 31
0.0
  0
LINE
  5
443D
330
1F
100
AcDbEntity
  8
ﾏﾙｴｽｽﾃﾝ雪止め隠れ線
  6
ACAD_ISO03W100
370
     5
100
AcDbLine
 10
3411.631667064372
 20
5047.271568880464
 30
0.0
 11
3411.631667064372
 21
4777.271568880464
 31
0.0
  0
LINE
  5
443E
330
1F
100
AcDbEntity
  8
ﾏﾙｴｽｽﾃﾝ雪止め
  6
Continuous
370
     5
100
AcDbLine
 10
3411.631667064372
 20
4777.271568880464
 30
0.0
 11
3411.631667064372
 21
4687.271568880464
 31
0.0
  0
LINE
  5
443F
330
1F
100
AcDbEntity
  8
ﾏﾙｴｽｽﾃﾝ雪止め隠れ線
  6
ACAD_ISO03W100
370
     5
100
AcDbLine
 10
3461.631667064372
 20
5047.271568880464
 30
0.0
 11
3411.631667064372
 21
5047.271568880464
 31
0.0
  0
LINE
  5
4440
330
1F
100
AcDbEntity
  8
ﾏﾙｴｽｽﾃﾝ雪止め隠れ線
  6
ACAD_ISO03W100
370
     5
100
AcDbLine
 10
3461.631667064372
 20
4842.271568880463
 30
0.0
 11
3461.631667064372
 21
4836.0193180971
 31
0.0
  0
CIRCLE
  5
4441
330
1F
100
AcDbEntity
  8
ﾏﾙｴｽｽﾃﾝ雪止め
  6
Continuous
370
     5
100
AcDbCircle
 10
3451.631667064372
 20
4767.271568880463
 30
0.0
 40
3.0
  0
CIRCLE
  5
4442
330
1F
100
AcDbEntity
  8
ﾏﾙｴｽｽﾃﾝ雪止め
  6
Continuous
370
     5
100
AcDbCircle
 10
3421.631667064372
 20
4767.271568880463
 30
0.0
 40
3.0
  0
LINE
  5
4443
330
1F
100
AcDbEntity
  8
ﾏﾙｴｽｽﾃﾝ雪止め隠れ線
  6
ACAD_ISO03W100
370
     5
100
AcDbLine
 10
3919.131667064372
 20
4920.271568880464
 30
0.0
 11
3869.131667064372
 21
4920.271568880464
 31
0.0
  0
LINE
  5
4444
330
1F
100
AcDbEntity
  8
ﾏﾙｴｽｽﾃﾝ雪止め隠れ線
  6
ACAD_ISO03W100
370
     5
100
AcDbLine
 10
3919.131667064372
 20
4850.271568880464
 30
0.0
 11
3869.131667064372
 21
4850.271568880464
 31
0.0
  0
LINE
  5
4445
330
1F
100
AcDbEntity
  8
ﾏﾙｴｽｽﾃﾝ雪止め
  6
Continuous
370
     5
100
AcDbLine
 10
3919.131667064372
 20
4650.271568880463
 30
0.0
 11
3869.131667064372
 21
4650.271568880463
 31
0.0
  0
LINE
  5
4446
330
1F
100
AcDbEntity
  8
ﾏﾙｴｽｽﾃﾝ雪止め
  6
Continuous
370
     5
100
AcDbLine
 10
3919.131667064372
 20
4620.271568880464
 30
0.0
 11
3869.131667064372
 21
4620.271568880464
 31
0.0
  0
LINE
  5
4447
330
1F
100
AcDbEntity
  8
ﾏﾙｴｽｽﾃﾝ雪止め隠れ線
  6
ACAD_ISO03W100
370
     5
100
AcDbLine
 10
3919.131667064372
 20
4920.271568880464
 30
0.0
 11
3919.131667064372
 21
4650.271568880463
 31
0.0
  0
LINE
  5
4448
330
1F
100
AcDbEntity
  8
ﾏﾙｴｽｽﾃﾝ雪止め
  6
Continuous
370
     5
100
AcDbLine
 10
3919.131667064372
 20
4650.271568880463
 30
0.0
 11
3919.131667064372
 21
4560.271568880463
 31
0.0
  0
LINE
  5
4449
330
1F
100
AcDbEntity
  8
ﾏﾙｴｽｽﾃﾝ雪止め
  6
Continuous
370
     5
100
AcDbLine
 10
3919.131667064372
 20
4560.271568880463
 30
0.0
 11
3869.131667064372
 21
4560.271568880463
 31
0.0
  0
LINE
  5
444A
330
1F
100
AcDbEntity
  8
ﾏﾙｴｽｽﾃﾝ雪止め隠れ線
  6
ACAD_ISO03W100
370
     5
100
AcDbLine
 10
3869.131667064372
 20
4920.271568880464
 30
0.0
 11
3869.131667064372
 21
4650.271568880463
 31
0.0
  0
LINE
  5
444B
330
1F
100
AcDbEntity
  8
ﾏﾙｴｽｽﾃﾝ雪止め
  6
Continuous
370
     5
100
AcDbLine
 10
3869.131667064372
 20
4650.271568880463
 30
0.0
 11
3869.131667064372
 21
4560.271568880463
 31
0.0
  0
LINE
  5
444C
330
1F
100
AcDbEntity
  8
ﾏﾙｴｽｽﾃﾝ雪止め隠れ線
  6
ACAD_ISO03W100
370
     5
100
AcDbLine
 10
3919.131667064372
 20
4920.271568880464
 30
0.0
 11
3869.131667064372
 21
4920.271568880464
 31
0.0
  0
LINE
  5
444D
330
1F
100
AcDbEntity
  8
ﾏﾙｴｽｽﾃﾝ雪止め隠れ線
  6
ACAD_ISO03W100
370
     5
100
AcDbLine
 10
3919.131667064372
 20
4715.271568880464
 30
0.0
 11
3919.131667064372
 21
4709.0193180971
 31
0.0
  0
CIRCLE
  5
444E
330
1F
100
AcDbEntity
  8
ﾏﾙｴｽｽﾃﾝ雪止め
  6
Continuous
370
     5
100
AcDbCircle
 10
3909.131667064372
 20
4640.271568880463
 30
0.0
 40
3.0
  0
CIRCLE
  5
444F
330
1F
100
AcDbEntity
  8
ﾏﾙｴｽｽﾃﾝ雪止め
  6
Continuous
370
     5
100
AcDbCircle
 10
3879.131667064372
 20
4640.271568880463
 30
0.0
 40
3.0
  0
LINE
  5
4450
330
1F
100
AcDbEntity
  8
ﾏﾙｴｽｽﾃﾝ雪止め
  6
Continuous
370
     5
100
AcDbLine
 10
4376.631667064372
 20
5047.271568880464
 30
0.0
 11
4326.631667064371
 21
5047.271568880464
 31
0.0
  0
LINE
  5
4451
330
1F
100
AcDbEntity
  8
ﾏﾙｴｽｽﾃﾝ雪止め
  6
Continuous
370
     5
100
AcDbLine
 10
4376.631667064372
 20
4977.271568880464
 30
0.0
 11
4326.631667064371
 21
4977.271568880464
 31
0.0
  0
LINE
  5
4452
330
1F
100
AcDbEntity
  8
ﾏﾙｴｽｽﾃﾝ雪止め
  6
Continuous
370
     5
100
AcDbLine
 10
4376.631667064372
 20
4777.271568880464
 30
0.0
 11
4326.631667064371
 21
4777.271568880464
 31
0.0
  0
LINE
  5
4453
330
1F
100
AcDbEntity
  8
ﾏﾙｴｽｽﾃﾝ雪止め
  6
Continuous
370
     5
100
AcDbLine
 10
4376.631667064372
 20
4747.271568880464
 30
0.0
 11
4326.631667064371
 21
4747.271568880464
 31
0.0
  0
LINE
  5
4454
330
1F
100
AcDbEntity
  8
ﾏﾙｴｽｽﾃﾝ雪止め
  6
Continuous
370
     5
100
AcDbLine
 10
4376.631667064372
 20
5047.271568880464
 30
0.0
 11
4376.631667064372
 21
4687.271568880464
 31
0.0
  0
LINE
  5
4455
330
1F
100
AcDbEntity
  8
ﾏﾙｴｽｽﾃﾝ雪止め
  6
Continuous
370
     5
100
AcDbLine
 10
4376.631667064372
 20
4687.271568880464
 30
0.0
 11
4326.631667064371
 21
4687.271568880464
 31
0.0
  0
LINE
  5
4456
330
1F
100
AcDbEntity
  8
ﾏﾙｴｽｽﾃﾝ雪止め
  6
Continuous
370
     5
100
AcDbLine
 10
4326.631667064371
 20
5047.271568880464
 30
0.0
 11
4326.631667064371
 21
4687.271568880464
 31
0.0
  0
LINE
  5
4457
330
1F
100
AcDbEntity
  8
ﾏﾙｴｽｽﾃﾝ雪止め
  6
Continuous
370
     5
100
AcDbLine
 10
4376.631667064372
 20
5047.271568880464
 30
0.0
 11
4326.631667064371
 21
5047.271568880464
 31
0.0
  0
CIRCLE
  5
4458
330
1F
100
AcDbEntity
  8
ﾏﾙｴｽｽﾃﾝ雪止め
  6
Continuous
370
     5
100
AcDbCircle
 10
4361.631667064371
 20
5040.271568880464
 30
0.0
 40
2.5
  0
CIRCLE
  5
4459
330
1F
100
AcDbEntity
  8
ﾏﾙｴｽｽﾃﾝ雪止め
  6
Continuous
370
     5
100
AcDbCircle
 10
4341.631667064372
 20
5040.271568880464
 30
0.0
 40
2.5
  0
CIRCLE
  5
445A
330
1F
100
AcDbEntity
  8
ﾏﾙｴｽｽﾃﾝ雪止め
  6
Continuous
370
     5
100
AcDbCircle
 10
4351.631667064371
 20
5017.271568880463
 30
0.0
 40
2.5
  0
LINE
  5
445B
330
1F
100
AcDbEntity
  8
ﾏﾙｴｽｽﾃﾝ雪止め
  6
Continuous
370
     5
100
AcDbLine
 10
4376.631667064372
 20
4842.271568880463
 30
0.0
 11
4376.631667064372
 21
4836.0193180971
 31
0.0
  0
CIRCLE
  5
445C
330
1F
100
AcDbEntity
  8
ﾏﾙｴｽｽﾃﾝ雪止め
  6
Continuous
370
     5
100
AcDbCircle
 10
4351.631667064371
 20
4839.791120377197
 30
0.0
 40
2.5
  0
CIRCLE
  5
445D
330
1F
100
AcDbEntity
  8
ﾏﾙｴｽｽﾃﾝ雪止め
  6
Continuous
370
     5
100
AcDbCircle
 10
4366.631667064371
 20
4767.271568880463
 30
0.0
 40
3.0
  0
CIRCLE
  5
445E
330
1F
100
AcDbEntity
  8
ﾏﾙｴｽｽﾃﾝ雪止め
  6
Continuous
370
     5
100
AcDbCircle
 10
4336.631667064372
 20
4767.271568880463
 30
0.0
 40
3.0
  0
LINE
  5
445F
330
1F
100
AcDbEntity
  8
ﾏﾙｴｽｽﾃﾝ雪止め
  6
Continuous
370
     5
100
AcDbLine
 10
4834.131667064372
 20
4920.271568880464
 30
0.0
 11
4784.131667064372
 21
4920.271568880464
 31
0.0
  0
LINE
  5
4460
330
1F
100
AcDbEntity
  8
ﾏﾙｴｽｽﾃﾝ雪止め
  6
Continuous
370
     5
100
AcDbLine
 10
4834.131667064372
 20
4850.271568880464
 30
0.0
 11
4784.131667064372
 21
4850.271568880464
 31
0.0
  0
LINE
  5
4461
330
1F
100
AcDbEntity
  8
ﾏﾙｴｽｽﾃﾝ雪止め
  6
Continuous
370
     5
100
AcDbLine
 10
4834.131667064372
 20
4650.271568880463
 30
0.0
 11
4784.131667064372
 21
4650.271568880463
 31
0.0
  0
LINE
  5
4462
330
1F
100
AcDbEntity
  8
ﾏﾙｴｽｽﾃﾝ雪止め
  6
Continuous
370
     5
100
AcDbLine
 10
4834.131667064372
 20
4620.271568880464
 30
0.0
 11
4784.131667064372
 21
4620.271568880464
 31
0.0
  0
LINE
  5
4463
330
1F
100
AcDbEntity
  8
ﾏﾙｴｽｽﾃﾝ雪止め
  6
Continuous
370
     5
100
AcDbLine
 10
4834.131667064372
 20
4920.271568880464
 30
0.0
 11
4834.131667064372
 21
4560.271568880463
 31
0.0
  0
LINE
  5
4464
330
1F
100
AcDbEntity
  8
ﾏﾙｴｽｽﾃﾝ雪止め
  6
Continuous
370
     5
100
AcDbLine
 10
4834.131667064372
 20
4560.271568880463
 30
0.0
 11
4784.131667064372
 21
4560.271568880463
 31
0.0
  0
LINE
  5
4465
330
1F
100
AcDbEntity
  8
ﾏﾙｴｽｽﾃﾝ雪止め
  6
Continuous
370
     5
100
AcDbLine
 10
4784.131667064372
 20
4920.271568880464
 30
0.0
 11
4784.131667064372
 21
4560.271568880463
 31
0.0
  0
LINE
  5
4466
330
1F
100
AcDbEntity
  8
ﾏﾙｴｽｽﾃﾝ雪止め
  6
Continuous
370
     5
100
AcDbLine
 10
4834.131667064372
 20
4920.271568880464
 30
0.0
 11
4784.131667064372
 21
4920.271568880464
 31
0.0
  0
CIRCLE
  5
4467
330
1F
100
AcDbEntity
  8
ﾏﾙｴｽｽﾃﾝ雪止め
  6
Continuous
370
     5
100
AcDbCircle
 10
4819.131667064372
 20
4913.271568880464
 30
0.0
 40
2.5
  0
CIRCLE
  5
4468
330
1F
100
AcDbEntity
  8
ﾏﾙｴｽｽﾃﾝ雪止め
  6
Continuous
370
     5
100
AcDbCircle
 10
4799.131667064371
 20
4913.271568880464
 30
0.0
 40
2.5
  0
CIRCLE
  5
4469
330
1F
100
AcDbEntity
  8
ﾏﾙｴｽｽﾃﾝ雪止め
  6
Continuous
370
     5
100
AcDbCircle
 10
4809.131667064372
 20
4890.271568880464
 30
0.0
 40
2.5
  0
LINE
  5
446A
330
1F
100
AcDbEntity
  8
ﾏﾙｴｽｽﾃﾝ雪止め
  6
Continuous
370
     5
100
AcDbLine
 10
4834.131667064372
 20
4715.271568880464
 30
0.0
 11
4834.131667064372
 21
4709.0193180971
 31
0.0
  0
CIRCLE
  5
446B
330
1F
100
AcDbEntity
  8
ﾏﾙｴｽｽﾃﾝ雪止め
  6
Continuous
370
     5
100
AcDbCircle
 10
4809.131667064372
 20
4712.791120377196
 30
0.0
 40
2.5
  0
CIRCLE
  5
446C
330
1F
100
AcDbEntity
  8
ﾏﾙｴｽｽﾃﾝ雪止め
  6
Continuous
370
     5
100
AcDbCircle
 10
4824.131667064372
 20
4640.271568880463
 30
0.0
 40
3.0
  0
CIRCLE
  5
446D
330
1F
100
AcDbEntity
  8
ﾏﾙｴｽｽﾃﾝ雪止め
  6
Continuous
370
     5
100
AcDbCircle
 10
4794.131667064372
 20
4640.271568880463
 30
0.0
 40
3.0
  0
LINE
  5
446E
330
1F
100
AcDbEntity
  8
補助線隠れ線
  6
ACAD_ISO03W100
370
     5
100
AcDbLine
 10
3436.631667064372
 20
4777.271568880464
 30
0.0
 11
3436.631667064372
 21
5082.271568880464
 31
0.0
  0
LINE
  5
446F
330
1F
100
AcDbEntity
  8
ﾏﾙｴｽｼﾝｸﾞﾙ隠れ線
  6
ACAD_ISO03W100
370
     5
100
AcDbLine
 10
4351.631667064371
 20
4777.271568880464
 30
0.0
 11
4351.631667064371
 21
4954.936632389925
 31
0.0
  0
DIMENSION
  5
4470
102
{ACAD_XDICTIONARY
360
4471
102
}
330
1F
100
AcDbEntity
  8
寸法
  6
Continuous
370
     5
100
AcDbDimension
280
     0
  2
*D7
 10
4351.631667064371
 20
5175.833518824082
 30
0.0
 11
4122.881667064372
 21
5188.811690720399
 31
0.0
 70
    32
 71
     5
 42
457.5
 73
     0
 74
     0
 75
     0
  3
NS寸法
100
AcDbAlignedDimension
 13
3894.131667064372
 23
5082.271568880464
 33
0.0
 14
4351.631667064371
 24
4954.936632389925
 34
0.0
100
AcDbRotatedDimension
1001
AcadAnnotative
1000
AnnotativeData
1002
{
1070
     1
1070
     1
1002
}
  0
DIMENSION
  5
4475
102
{ACAD_XDICTIONARY
360
4476
102
}
330
1F
100
AcDbEntity
  8
寸法
  6
Continuous
370
     5
100
AcDbDimension
280
     0
  2
*D8
 10
3436.631667064372
 20
5251.312277648874
 30
0.0
 11
3894.131667064372
 21
5262.523737403308
 31
0.0
 70
    32
 71
     5
 42
915.0
 73
     0
 74
     0
 75
     0
  3
NS寸法
100
AcDbAlignedDimension
 13
4351.631667064371
 23
4954.936632389925
 33
0.0
 14
3436.631667064372
 24
5082.271568880464
 34
0.0
100
AcDbRotatedDimension
1001
AcadAnnotative
1000
AnnotativeData
1002
{
1070
     1
1070
     1
1002
}
  0
TEXT
  5
447A
102
{ACAD_XDICTIONARY
360
447B
102
}
330
1F
100
AcDbEntity
  8
文字
370
     5
100
AcDbText
 10
4675.479965080914
 20
5155.626949193568
 30
0.0
 40
20.0
  1
桟木（断熱工法の場合）
  7
NS横文字
100
AcDbText
1001
AcadAnnotative
1000
AnnotativeData
1002
{
1070
     1
1070
     1
1002
}
  0
TEXT
  5
447F
102
{ACAD_XDICTIONARY
360
4480
102
}
330
1F
100
AcDbEntity
  8
文字
370
     5
100
AcDbText
 10
4894.701112219355
 20
4996.409529141573
 30
0.0
 40
20.0
  1
マルエスステン雪止め
  7
NS横文字
100
AcDbText
1001
AcadAnnotative
1000
AnnotativeData
1002
{
1070
     1
1070
     1
1002
}
  0
TEXT
  5
4484
102
{ACAD_XDICTIONARY
360
4485
102
}
330
1F
100
AcDbEntity
  8
文字
370
     5
100
AcDbText
 10
4908.530460834026
 20
4743.079143245255
 30
0.0
 40
20.0
  1
シングル接合部
  7
NS横文字
100
AcDbText
1001
AcadAnnotative
1000
AnnotativeData
1002
{
1070
     1
1070
     1
1002
}
  0
TEXT
  5
4489
102
{ACAD_XDICTIONARY
360
448A
102
}
330
1F
100
AcDbEntity
  8
文字
370
     5
100
AcDbText
 10
5210.016692982627
 20
4763.759010187306
 30
0.0
 40
20.0
  1
軒桁上
  7
NS横文字
100
AcDbText
1001
AcadAnnotative
1000
AnnotativeData
1002
{
1070
     1
1070
     1
1002
}
  0
LINE
  5
448E
330
1F
100
AcDbEntity
  8
文字
  6
Continuous
370
     5
100
AcDbLine
 10
4580.186205897338
 20
5082.271568880464
 30
0.0
 11
4628.247025764493
 21
5165.515350743786
 31
0.0
  0
LINE
  5
448F
330
1F
100
AcDbEntity
  8
文字
  6
Continuous
370
     5
100
AcDbLine
 10
4628.247025764493
 20
5165.515350743786
 30
0.0
 11
4658.247025764493
 21
5165.515350743786
 31
0.0
  0
LINE
  5
4490
330
1F
100
AcDbEntity
  8
文字
  6
Continuous
370
     5
100
AcDbLine
 10
4809.131667064372
 20
4920.271568880464
 30
0.0
 11
4857.192486931523
 21
5003.515350743786
 31
0.0
  0
LINE
  5
4491
330
1F
100
AcDbEntity
  8
文字
  6
Continuous
370
     5
100
AcDbLine
 10
4857.192486931523
 20
5003.515350743786
 30
0.0
 11
4887.192486931523
 21
5003.515350743786
 31
0.0
  0
LINE
  5
4492
330
1F
100
AcDbEntity
  8
文字
  6
Continuous
370
     5
100
AcDbLine
 10
4809.131667064372
 20
4650.271568880463
 30
0.0
 11
4869.599655588757
 21
4755.00519723619
 31
0.0
  0
LINE
  5
4493
330
1F
100
AcDbEntity
  8
文字
  6
Continuous
370
     5
100
AcDbLine
 10
4869.599655588757
 20
4755.00519723619
 30
0.0
 11
4899.599655588758
 21
4755.00519723619
 31
0.0
  0
LINE
  5
4494
330
1F
100
AcDbEntity
  8
文字
  6
Continuous
370
     5
100
AcDbLine
 10
5074.102779122193
 20
4608.273229735608
 30
0.0
 11
5170.224418856498
 21
4774.760793462255
 31
0.0
  0
LINE
  5
4495
330
1F
100
AcDbEntity
  8
文字
  6
Continuous
370
     5
100
AcDbLine
 10
5170.224418856498
 20
4774.760793462255
 30
0.0
 11
5200.224418856499
 21
4774.760793462255
 31
0.0
  0
LINE
  5
4496
330
1F
100
AcDbEntity
  8
文字
  6
Continuous
370
     5
100
AcDbLine
 10
4004.672487623978
 20
4126.026129616421
 30
0.0
 11
4052.733307491133
 21
4042.782347753099
 31
0.0
  0
LINE
  5
4497
330
1F
100
AcDbEntity
  8
文字
  6
Continuous
370
     5
100
AcDbLine
 10
4052.733307491133
 20
4042.782347753099
 30
0.0
 11
4082.733307491133
 21
4042.782347753099
 31
0.0
  0
TEXT
  5
4498
102
{ACAD_XDICTIONARY
360
4499
102
}
330
1F
100
AcDbEntity
  8
文字
370
     5
100
AcDbText
 10
4094.408695665501
 20
4033.497464244283
 30
0.0
 40
20.0
  1
軒先用アルミ水切り　ＮＣ－５０
  7
NS横文字
100
AcDbText
1001
AcadAnnotative
1000
AnnotativeData
1002
{
1070
     1
1070
     1
1002
}
  0
LINE
  5
449D
330
1F
100
AcDbEntity
  8
ﾏﾙｴｽｽﾃﾝ雪止め
  6
Continuous
370
     5
100
AcDbLine
 10
1583.216838629116
 20
4779.671673946104
 30
0.0
 11
1426.099292543724
 21
4732.536410120487
 31
0.0
  0
LINE
  5
449E
330
1F
100
AcDbEntity
  8
ﾏﾙｴｽｽﾃﾝ雪止め
  6
Continuous
370
     5
100
AcDbLine
 10
1422.986357116759
 20
4734.212606119625
 30
0.0
 11
1390.933211870972
 21
4724.596662545887
 31
0.0
  0
LINE
  5
449F
330
1F
100
AcDbEntity
  8
ﾏﾙｴｽｽﾃﾝ雪止め
  6
Continuous
370
     5
100
AcDbLine
 10
1390.933211870972
 20
4724.596662545887
 30
0.0
 11
1362.198423314337
 21
4715.976225978898
 31
0.0
  0
LINE
  5
44A0
330
1F
100
AcDbEntity
  8
ﾏﾙｴｽｽﾃﾝ雪止め
  6
Continuous
370
     5
100
AcDbLine
 10
1362.198423314337
 20
4715.976225978898
 30
0.0
 11
1304.728846201062
 21
4698.735352844916
 31
0.0
  0
LINE
  5
44A1
330
1F
100
AcDbEntity
  8
ﾏﾙｴｽｽﾃﾝ雪止め
370
     5
100
AcDbLine
 10
1422.986357116759
 20
4734.212606119623
 30
0.0
 11
1426.099292543724
 21
4732.536410120487
 31
0.0
  0
LINE
  5
44A2
330
1F
100
AcDbEntity
  8
ﾏﾙｴｽｼﾝｸﾞﾙ
370
     5
100
AcDbLine
 10
1544.356803459421
 20
4768.013663395195
 30
0.0
 11
1426.099292543731
 21
4732.536410120487
 31
0.0
  0
LINE
  5
44A3
330
1F
100
AcDbEntity
  8
ﾏﾙｴｽｼﾝｸﾞﾙ
370
     5
100
AcDbLine
 10
1426.099292543731
 20
4732.536410120487
 30
0.0
 11
1422.986357116759
 21
4734.212606119625
 31
0.0
  0
LINE
  5
44A4
330
1F
100
AcDbEntity
  8
ﾏﾙｴｽｼﾝｸﾞﾙ
370
     5
100
AcDbLine
 10
1373.232872377877
 20
4720.121785218672
 30
0.0
 11
1423.073874518493
 21
4735.074085860858
 31
0.0
  0
LINE
  5
44A5
330
1F
100
AcDbEntity
  8
ﾏﾙｴｽｼﾝｸﾞﾙ
370
     5
100
AcDbLine
 10
1426.186809945466
 20
4733.39788986172
 30
0.0
 11
1423.073874518493
 21
4735.074085860858
 31
0.0
  0
LINE
  5
44A6
330
1F
100
AcDbEntity
  8
ﾏﾙｴｽｼﾝｸﾞﾙ
370
     5
100
AcDbLine
 10
1423.073874518493
 20
4735.074085860858
 30
0.0
 11
1373.232872377877
 21
4720.121785218672
 31
0.0
  0
LINE
  5
44A7
330
1F
100
AcDbEntity
  8
ﾏﾙｴｽｼﾝｸﾞﾙ
370
     5
100
AcDbLine
 10
1544.444320861155
 20
4768.875143136429
 30
0.0
 11
1426.186809945466
 21
4733.39788986172
 31
0.0
  0
LINE
  5
44A8
330
1F
100
AcDbEntity
  8
ﾏﾙｴｽｼﾝｸﾞﾙ
370
     5
100
AcDbLine
 10
939.947040531806
 20
4589.30081114414
 30
0.0
 11
939.947040531806
 21
4584.080657889685
 31
0.0
  0
LINE
  5
44A9
330
1F
100
AcDbEntity
  8
ﾏﾙｴｽｼﾝｸﾞﾙ
370
     5
100
AcDbLine
 10
1057.781050567078
 20
4622.040937527492
 30
0.0
 11
1058.49942028099
 21
4619.646371814439
 31
0.0
  0
LINE
  5
44AA
330
1F
100
AcDbEntity
  8
ﾏﾙｴｽｼﾝｸﾞﾙ
370
     5
100
AcDbLine
 10
1058.49942028099
 20
4619.646371814439
 30
0.0
 11
939.947040531806
 21
4584.080657889685
 31
0.0
  0
LINE
  5
44AB
330
1F
100
AcDbEntity
  8
ﾏﾙｴｽｼﾝｸﾞﾙ
370
     5
100
AcDbLine
 10
1057.781050567078
 20
4622.040937527492
 30
0.0
 11
940.5154012457206
 21
4586.861242731087
 31
0.0
  0
LINE
  5
44AC
330
1F
100
AcDbEntity
  8
ﾏﾙｴｽｼﾝｸﾞﾙ
370
     5
100
AcDbLine
 10
1057.781050567078
 20
4622.040937527492
 30
0.0
 11
939.947040531806
 21
4586.690734516913
 31
0.0
  0
LINE
  5
44AD
330
1F
100
AcDbEntity
  8
ﾏﾙｴｽｼﾝｸﾞﾙ
370
     5
100
AcDbLine
 10
1058.054542447498
 20
4624.733061718847
 30
0.0
 11
939.947040531806
 21
4589.30081114414
 31
0.0
  0
LINE
  5
44AE
330
1F
100
AcDbEntity
  8
ﾏﾙｴｽｼﾝｸﾞﾙ
370
     5
100
AcDbLine
 10
1060.893985994044
 20
4620.364741528356
 30
0.0
 11
1057.781050567078
 21
4622.040937527492
 31
0.0
  0
LINE
  5
44AF
330
1F
100
AcDbEntity
  8
ﾏﾙｴｽｼﾝｸﾞﾙ
370
     5
100
AcDbLine
 10
1061.167477874471
 20
4623.056865719711
 30
0.0
 11
1058.054542447498
 21
4624.733061718847
 31
0.0
  0
LINE
  5
44B0
330
1F
100
AcDbEntity
  8
ﾏﾙｴｽｼﾝｸﾞﾙ
370
     5
100
AcDbLine
 10
1179.424988790167
 20
4658.53411899442
 30
0.0
 11
1180.143358504079
 21
4656.139553281366
 31
0.0
  0
LINE
  5
44B1
330
1F
100
AcDbEntity
  8
ﾏﾙｴｽｼﾝｸﾞﾙ
370
     5
100
AcDbLine
 10
1180.143358504079
 20
4656.139553281366
 30
0.0
 11
1060.893985994044
 21
4620.364741528356
 31
0.0
  0
LINE
  5
44B2
330
1F
100
AcDbEntity
  8
ﾏﾙｴｽｼﾝｸﾞﾙ
370
     5
100
AcDbLine
 10
1179.424988790167
 20
4658.53411899442
 30
0.0
 11
1061.167477874471
 21
4623.056865719711
 31
0.0
  0
LINE
  5
44B3
330
1F
100
AcDbEntity
  8
ﾏﾙｴｽｼﾝｸﾞﾙ
370
     5
100
AcDbLine
 10
1008.213540306882
 20
4609.780761076662
 30
0.0
 11
1058.054542447498
 21
4624.733061718847
 31
0.0
  0
LINE
  5
44B4
330
1F
100
AcDbEntity
  8
ﾏﾙｴｽｼﾝｸﾞﾙ
370
     5
100
AcDbLine
 10
1179.42498879016
 20
4658.53411899442
 30
0.0
 11
1061.167477874471
 21
4623.056865719711
 31
0.0
  0
LINE
  5
44B5
330
1F
100
AcDbEntity
  8
ﾏﾙｴｽｼﾝｸﾞﾙ
370
     5
100
AcDbLine
 10
1061.167477874471
 20
4623.056865719711
 30
0.0
 11
1058.054542447498
 21
4624.733061718847
 31
0.0
  0
LINE
  5
44B6
330
1F
100
AcDbEntity
  8
ﾏﾙｴｽｼﾝｸﾞﾙ
370
     5
100
AcDbLine
 10
1061.440969754898
 20
4625.748989911065
 30
0.0
 11
1058.328034327925
 21
4627.425185910202
 31
0.0
  0
LINE
  5
44B7
330
1F
100
AcDbEntity
  8
ﾏﾙｴｽｼﾝｸﾞﾙ
370
     5
100
AcDbLine
 10
1008.213540306882
 20
4609.780761076662
 30
0.0
 11
1007.49517059297
 21
4612.175326789714
 31
0.0
  0
LINE
  5
44B8
330
1F
100
AcDbEntity
  8
ﾏﾙｴｽｼﾝｸﾞﾙ
370
     5
100
AcDbLine
 10
1007.49517059297
 20
4612.175326789714
 30
0.0
 11
1058.328034327925
 21
4627.425185910202
 31
0.0
  0
LINE
  5
44B9
330
1F
100
AcDbEntity
  8
ﾏﾙｴｽｼﾝｸﾞﾙ
370
     5
100
AcDbLine
 10
1179.698480670587
 20
4661.226243185772
 30
0.0
 11
1061.440969754898
 21
4625.748989911065
 31
0.0
  0
LINE
  5
44BA
330
1F
100
AcDbEntity
  8
ﾏﾙｴｽｼﾝｸﾞﾙ
370
     5
100
AcDbLine
 10
1058.054542447498
 20
4624.733061718847
 30
0.0
 11
1008.213540306882
 21
4609.780761076662
 31
0.0
  0
LINE
  5
44BB
330
1F
100
AcDbEntity
  8
ﾏﾙｴｽｼﾝｸﾞﾙ
370
     5
100
AcDbLine
 10
1182.537924217133
 20
4656.857922995281
 30
0.0
 11
1179.42498879016
 21
4658.53411899442
 31
0.0
  0
LINE
  5
44BC
330
1F
100
AcDbEntity
  8
ﾏﾙｴｽｼﾝｸﾞﾙ
370
     5
100
AcDbLine
 10
1182.811416097553
 20
4659.550047186637
 30
0.0
 11
1179.698480670587
 21
4661.226243185772
 31
0.0
  0
LINE
  5
44BD
330
1F
100
AcDbEntity
  8
ﾏﾙｴｽｼﾝｸﾞﾙ
370
     5
100
AcDbLine
 10
1301.06892701325
 20
4695.027300461344
 30
0.0
 11
1301.787296727169
 21
4692.632734748291
 31
0.0
  0
LINE
  5
44BE
330
1F
100
AcDbEntity
  8
ﾏﾙｴｽｼﾝｸﾞﾙ
370
     5
100
AcDbLine
 10
1301.787296727169
 20
4692.632734748291
 30
0.0
 11
1182.537924217133
 21
4656.857922995281
 31
0.0
  0
LINE
  5
44BF
330
1F
100
AcDbEntity
  8
ﾏﾙｴｽｼﾝｸﾞﾙ
370
     5
100
AcDbLine
 10
1301.06892701325
 20
4695.027300461344
 30
0.0
 11
1182.811416097553
 21
4659.550047186637
 31
0.0
  0
LINE
  5
44C0
330
1F
100
AcDbEntity
  8
ﾏﾙｴｽｼﾝｸﾞﾙ
370
     5
100
AcDbLine
 10
1129.857478529971
 20
4646.273942543586
 30
0.0
 11
1179.698480670587
 21
4661.226243185772
 31
0.0
  0
LINE
  5
44C1
330
1F
100
AcDbEntity
  8
ﾏﾙｴｽｼﾝｸﾞﾙ
370
     5
100
AcDbLine
 10
1301.06892701325
 20
4695.027300461344
 30
0.0
 11
1182.811416097553
 21
4659.550047186637
 31
0.0
  0
LINE
  5
44C2
330
1F
100
AcDbEntity
  8
ﾏﾙｴｽｼﾝｸﾞﾙ
370
     5
100
AcDbLine
 10
1182.811416097553
 20
4659.550047186637
 30
0.0
 11
1179.698480670587
 21
4661.226243185772
 31
0.0
  0
LINE
  5
44C3
330
1F
100
AcDbEntity
  8
ﾏﾙｴｽｼﾝｸﾞﾙ
370
     5
100
AcDbLine
 10
1183.08490797798
 20
4662.242171377991
 30
0.0
 11
1179.971972551007
 21
4663.918367377127
 31
0.0
  0
LINE
  5
44C4
330
1F
100
AcDbEntity
  8
ﾏﾙｴｽｼﾝｸﾞﾙ
370
     5
100
AcDbLine
 10
1129.857478529971
 20
4646.273942543586
 30
0.0
 11
1129.139108816052
 21
4648.66850825664
 31
0.0
  0
LINE
  5
44C5
330
1F
100
AcDbEntity
  8
ﾏﾙｴｽｼﾝｸﾞﾙ
370
     5
100
AcDbLine
 10
1129.139108816052
 20
4648.66850825664
 30
0.0
 11
1179.971972551007
 21
4663.918367377127
 31
0.0
  0
LINE
  5
44C6
330
1F
100
AcDbEntity
  8
ﾏﾙｴｽｼﾝｸﾞﾙ
370
     5
100
AcDbLine
 10
1301.342418893677
 20
4697.719424652699
 30
0.0
 11
1183.08490797798
 21
4662.242171377991
 31
0.0
  0
LINE
  5
44C7
330
1F
100
AcDbEntity
  8
ﾏﾙｴｽｼﾝｸﾞﾙ
370
     5
100
AcDbLine
 10
1179.698480670587
 20
4661.226243185772
 30
0.0
 11
1129.857478529971
 21
4646.273942543586
 31
0.0
  0
LINE
  5
44C8
330
1F
100
AcDbEntity
  8
ﾏﾙｴｽｼﾝｸﾞﾙ
370
     5
100
AcDbLine
 10
1304.181862440215
 20
4693.351104462206
 30
0.0
 11
1301.06892701325
 21
4695.027300461344
 31
0.0
  0
LINE
  5
44C9
330
1F
100
AcDbEntity
  8
ﾏﾙｴｽｼﾝｸﾞﾙ
370
     5
100
AcDbLine
 10
1304.455354320642
 20
4696.043228653561
 30
0.0
 11
1301.342418893677
 21
4697.719424652699
 31
0.0
  0
LINE
  5
44CA
330
1F
100
AcDbEntity
  8
ﾏﾙｴｽｼﾝｸﾞﾙ
370
     5
100
AcDbLine
 10
1422.712865236332
 20
4731.52048192827
 30
0.0
 11
1423.43123495025
 21
4729.125916215216
 31
0.0
  0
LINE
  5
44CB
330
1F
100
AcDbEntity
  8
ﾏﾙｴｽｼﾝｸﾞﾙ
370
     5
100
AcDbLine
 10
1423.43123495025
 20
4729.125916215216
 30
0.0
 11
1304.181862440215
 21
4693.351104462206
 31
0.0
  0
LINE
  5
44CC
330
1F
100
AcDbEntity
  8
ﾏﾙｴｽｼﾝｸﾞﾙ
370
     5
100
AcDbLine
 10
1422.712865236332
 20
4731.52048192827
 30
0.0
 11
1304.455354320642
 21
4696.043228653561
 31
0.0
  0
LINE
  5
44CD
330
1F
100
AcDbEntity
  8
ﾏﾙｴｽｼﾝｸﾞﾙ
370
     5
100
AcDbLine
 10
1251.501416753053
 20
4682.767124010513
 30
0.0
 11
1301.342418893677
 21
4697.719424652699
 31
0.0
  0
LINE
  5
44CE
330
1F
100
AcDbEntity
  8
ﾏﾙｴｽｼﾝｸﾞﾙ
370
     5
100
AcDbLine
 10
1304.455354320642
 20
4696.043228653561
 30
0.0
 11
1301.342418893677
 21
4697.719424652699
 31
0.0
  0
LINE
  5
44CF
330
1F
100
AcDbEntity
  8
ﾏﾙｴｽｼﾝｸﾞﾙ
370
     5
100
AcDbLine
 10
1304.728846201062
 20
4698.735352844916
 30
0.0
 11
1301.615910774097
 21
4700.411548844054
 31
0.0
  0
LINE
  5
44D0
330
1F
100
AcDbEntity
  8
ﾏﾙｴｽｼﾝｸﾞﾙ
370
     5
100
AcDbLine
 10
1251.501416753053
 20
4682.767124010513
 30
0.0
 11
1250.783047039142
 21
4685.161689723567
 31
0.0
  0
LINE
  5
44D1
330
1F
100
AcDbEntity
  8
ﾏﾙｴｽｼﾝｸﾞﾙ
370
     5
100
AcDbLine
 10
1250.783047039142
 20
4685.161689723567
 30
0.0
 11
1301.615910774097
 21
4700.411548844053
 31
0.0
  0
LINE
  5
44D2
330
1F
100
AcDbEntity
  8
ﾏﾙｴｽｼﾝｸﾞﾙ
370
     5
100
AcDbLine
 10
1422.986357116759
 20
4734.212606119625
 30
0.0
 11
1305.805302803783
 21
4699.058289825733
 31
0.0
  0
LINE
  5
44D3
330
1F
100
AcDbEntity
  8
ﾏﾙｴｽｼﾝｸﾞﾙ
370
     5
100
AcDbLine
 10
1301.342418893677
 20
4697.719424652699
 30
0.0
 11
1251.501416753053
 21
4682.767124010513
 31
0.0
  0
LINE
  5
44D4
330
1F
100
AcDbEntity
  8
ﾏﾙｴｽｼﾝｸﾞﾙ
370
     5
100
AcDbLine
 10
1425.825800663304
 20
4729.844285929133
 30
0.0
 11
1422.712865236332
 21
4731.52048192827
 31
0.0
  0
LINE
  5
44D5
330
1F
100
AcDbEntity
  8
ﾏﾙｴｽｼﾝｸﾞﾙ
370
     5
100
AcDbLine
 10
1544.356803459421
 20
4768.013663395195
 30
0.0
 11
1545.07517317334
 21
4765.619097682142
 31
0.0
  0
LINE
  5
44D6
330
1F
100
AcDbEntity
  8
ﾏﾙｴｽｼﾝｸﾞﾙ
370
     5
100
AcDbLine
 10
1545.07517317334
 20
4765.619097682142
 30
0.0
 11
1425.825800663304
 21
4729.844285929133
 31
0.0
  0
LINE
  5
44D7
330
1F
100
AcDbEntity
  8
ﾏﾙｴｽｼﾝｸﾞﾙ
370
     5
100
AcDbLine
 10
1373.145354976142
 20
4719.260305477439
 30
0.0
 11
1422.986357116759
 21
4734.212606119625
 31
0.0
  0
LINE
  5
44D8
330
1F
100
AcDbEntity
  8
ﾏﾙｴｽｼﾝｸﾞﾙ
370
     5
100
AcDbLine
 10
1422.986357116759
 20
4734.212606119625
 30
0.0
 11
1373.145354976142
 21
4719.260305477439
 31
0.0
  0
LINE
  5
44D9
330
1F
100
AcDbEntity
  8
躯体
370
     5
100
AcDbLine
 10
1859.871116868486
 20
4858.491834814351
 30
0.0
 11
939.947040531806
 21
4582.514611913348
 31
0.0
  0
LINE
  5
44DA
330
1F
100
AcDbEntity
  8
躯体
370
     5
100
AcDbLine
 10
1859.871116868486
 20
4722.767850198511
 30
0.0
 11
939.947040531806
 21
4446.79062729751
 31
0.0
  0
LINE
  5
44DB
330
1F
100
AcDbEntity
  8
ﾏﾙｴｽｼﾝｸﾞﾙ
370
     5
100
AcDbLine
 10
1426.460301825886
 20
4736.090014053075
 30
0.0
 11
1423.34736639892
 21
4737.766210052213
 31
0.0
  0
LINE
  5
44DC
330
1F
100
AcDbEntity
  8
ﾏﾙｴｽｼﾝｸﾞﾙ
370
     5
100
AcDbLine
 10
1372.685598359232
 20
4720.792827533794
 30
0.0
 11
1372.197106953768
 21
4722.421132218669
 31
0.0
  0
LINE
  5
44DD
330
1F
100
AcDbEntity
  8
ﾏﾙｴｽｼﾝｸﾞﾙ
370
     5
100
AcDbLine
 10
1372.197106953768
 20
4722.421132218669
 30
0.0
 11
1378.818325795182
 21
4724.407497871093
 31
0.0
  0
LINE
  5
44DE
330
1F
100
AcDbEntity
  8
ﾏﾙｴｽｼﾝｸﾞﾙ
370
     5
100
AcDbLine
 10
1381.9950761976
 20
4725.360522991818
 30
0.0
 11
1423.34736639892
 21
4737.766210052213
 31
0.0
  0
LINE
  5
44DF
330
1F
100
AcDbEntity
  8
ﾏﾙｴｽｼﾝｸﾞﾙ
370
     5
100
AcDbLine
 10
1544.717812741582
 20
4771.567267327784
 30
0.0
 11
1426.460301825886
 21
4736.090014053075
 31
0.0
  0
LINE
  5
44E0
330
1F
100
AcDbEntity
  8
ﾏﾙｴｽｼﾝｸﾞﾙ
370
     5
100
AcDbLine
 10
1666.00074168251
 20
4804.506844862121
 30
0.0
 11
1666.719111396422
 21
4802.112279149069
 31
0.0
  0
LINE
  5
44E1
330
1F
100
AcDbEntity
  8
ﾏﾙｴｽｼﾝｸﾞﾙ
370
     5
100
AcDbLine
 10
1650.653109629245
 20
4801.050988962122
 30
0.0
 11
1586.562487220755
 21
4781.823802239578
 31
0.0
  0
LINE
  5
44E2
330
1F
100
AcDbEntity
  8
ﾏﾙｴｽｼﾝｸﾞﾙ
370
     5
100
AcDbLine
 10
1494.876810600959
 20
4756.614966685599
 30
0.0
 11
1544.717812741582
 21
4771.567267327784
 31
0.0
  0
LINE
  5
44E3
330
1F
100
AcDbEntity
  8
ﾏﾙｴｽｼﾝｸﾞﾙ
370
     5
100
AcDbLine
 10
1583.419037456224
 20
4783.177634742176
 30
0.0
 11
1494.876810600959
 21
4756.614966685599
 31
0.0
  0
LINE
  5
44E4
330
1F
100
AcDbEntity
  8
ﾏﾙｴｽｼﾝｸﾞﾙ
370
     5
100
AcDbLine
 10
1669.113677109475
 20
4802.830648862984
 30
0.0
 11
1666.00074168251
 21
4804.506844862121
 31
0.0
  0
LINE
  5
44E5
330
1F
100
AcDbEntity
  8
ﾏﾙｴｽｼﾝｸﾞﾙ
370
     5
100
AcDbLine
 10
1669.387168989902
 20
4805.522773054339
 30
0.0
 11
1666.274233562937
 21
4807.198969053477
 31
0.0
  0
LINE
  5
44E6
330
1F
100
AcDbEntity
  8
ﾏﾙｴｽｼﾝｸﾞﾙ
370
     5
100
AcDbLine
 10
1669.660660870322
 20
4808.214897245694
 30
0.0
 11
1666.547725443357
 21
4809.89109324483
 31
0.0
  0
LINE
  5
44E7
330
1F
100
AcDbEntity
  8
ﾏﾙｴｽｼﾝｸﾞﾙ
370
     5
100
AcDbLine
 10
1787.644679905592
 20
4841.000026329045
 30
0.0
 11
1788.363049619511
 21
4838.605460615994
 31
0.0
  0
LINE
  5
44E8
330
1F
100
AcDbEntity
  8
ﾏﾙｴｽｼﾝｸﾞﾙ
370
     5
100
AcDbLine
 10
1788.680445329693
 20
4838.70067932905
 30
0.0
 11
1669.431072819665
 21
4802.925867576041
 31
0.0
  0
LINE
  5
44E9
330
1F
100
AcDbEntity
  8
ﾏﾙｴｽｼﾝｸﾞﾙ
370
     5
100
AcDbLine
 10
1787.644679905592
 20
4841.000026329048
 30
0.0
 11
1669.704564700092
 21
4805.617991767395
 31
0.0
  0
LINE
  5
44EA
330
1F
100
AcDbEntity
  8
ﾏﾙｴｽｼﾝｸﾞﾙ
370
     5
100
AcDbLine
 10
1650.653109629245
 20
4801.050988962122
 30
0.0
 11
1652.022801217114
 21
4800.313462722503
 31
0.0
  0
LINE
  5
44EB
330
1F
100
AcDbEntity
  8
ﾏﾙｴｽｼﾝｸﾞﾙ
370
     5
100
AcDbLine
 10
1650.926601509673
 20
4803.743113153478
 30
0.0
 11
1652.296293097541
 21
4803.005586913858
 31
0.0
  0
LINE
  5
44EC
330
1F
100
AcDbEntity
  8
ﾏﾙｴｽｼﾝｸﾞﾙ
370
     5
100
AcDbLine
 10
1651.2000933901
 20
4806.435237344833
 30
0.0
 11
1652.569784977961
 21
4805.697711105213
 31
0.0
  0
LINE
  5
44ED
330
1F
100
AcDbEntity
  8
ﾏﾙｴｽｼﾝｸﾞﾙ
370
     5
100
AcDbLine
 10
1667.036507106612
 20
4802.207497862124
 30
0.0
 11
1651.749309336686
 21
4797.621338531147
 31
0.0
  0
LINE
  5
44EE
330
1F
100
AcDbEntity
  8
ﾏﾙｴｽｼﾝｸﾞﾙ
370
     5
100
AcDbLine
 10
1666.00074168251
 20
4804.506844862121
 30
0.0
 11
1652.022801217114
 21
4800.313462722503
 31
0.0
  0
LINE
  5
44EF
330
1F
100
AcDbEntity
  8
ﾏﾙｴｽｼﾝｸﾞﾙ
370
     5
100
AcDbLine
 10
1666.274233562937
 20
4807.198969053476
 30
0.0
 11
1652.296293097541
 21
4803.005586913858
 31
0.0
  0
LINE
  5
44F0
330
1F
100
AcDbEntity
  8
ﾏﾙｴｽｼﾝｸﾞﾙ
370
     5
100
AcDbLine
 10
1652.296293097541
 20
4803.005586913858
 30
0.0
 11
1666.274233562937
 21
4807.198969053476
 31
0.0
  0
LINE
  5
44F1
330
1F
100
AcDbEntity
  8
ﾏﾙｴｽｼﾝｸﾞﾙ
370
     5
100
AcDbLine
 10
1787.644679905592
 20
4841.000026329045
 30
0.0
 11
1669.387168989902
 21
4805.522773054339
 31
0.0
  0
LINE
  5
44F2
330
1F
100
AcDbEntity
  8
ﾏﾙｴｽｼﾝｸﾞﾙ
370
     5
100
AcDbLine
 10
1616.520748824048
 20
4793.108148152523
 30
0.0
 11
1615.802379110129
 21
4795.502713865577
 31
0.0
  0
LINE
  5
44F3
330
1F
100
AcDbEntity
  8
ﾏﾙｴｽｼﾝｸﾞﾙ
370
     5
100
AcDbLine
 10
1652.569784977961
 20
4805.697711105215
 30
0.0
 11
1666.547725443357
 21
4809.89109324483
 31
0.0
  0
LINE
  5
44F4
330
1F
100
AcDbEntity
  8
ﾏﾙｴｽｼﾝｸﾞﾙ
370
     5
100
AcDbLine
 10
1787.918171786019
 20
4843.692150520403
 30
0.0
 11
1669.660660870329
 21
4808.214897245694
 31
0.0
  0
LINE
  5
44F5
330
1F
100
AcDbEntity
  8
ﾏﾙｴｽｼﾝｸﾞﾙ
370
     5
100
AcDbLine
 10
1666.274233562937
 20
4807.198969053476
 30
0.0
 11
1652.296293097541
 21
4803.005586913858
 31
0.0
  0
LINE
  5
44F6
330
1F
100
AcDbEntity
  8
ﾏﾙｴｽｼﾝｸﾞﾙ
370
     5
100
AcDbLine
 10
1790.757615332564
 20
4839.323830329911
 30
0.0
 11
1787.644679905592
 21
4841.000026329048
 31
0.0
  0
LINE
  5
44F7
330
1F
100
AcDbEntity
  8
ﾏﾙｴｽｼﾝｸﾞﾙ
370
     5
100
AcDbLine
 10
1791.031107212992
 20
4842.015954521266
 30
0.0
 11
1787.918171786019
 21
4843.692150520403
 31
0.0
  0
LINE
  5
44F8
330
1F
100
AcDbEntity
  8
ﾏﾙｴｽｼﾝｸﾞﾙ
370
     5
100
AcDbLine
 10
1791.304599093411
 20
4844.70807871262
 30
0.0
 11
1788.191663666439
 21
4846.384274711758
 31
0.0
  0
LINE
  5
44F9
330
1F
100
AcDbEntity
  8
ﾏﾙｴｽｼﾝｸﾞﾙ
370
     5
100
AcDbLine
 10
1859.721107868485
 20
4860.012878090687
 30
0.0
 11
1791.075011042754
 21
4839.419049042966
 31
0.0
  0
LINE
  5
44FA
330
1F
100
AcDbEntity
  8
ﾏﾙｴｽｼﾝｸﾞﾙ
370
     5
100
AcDbLine
 10
1859.721107868485
 20
4862.622954717916
 30
0.0
 11
1791.348502923174
 21
4842.111173234322
 31
0.0
  0
LINE
  5
44FB
330
1F
100
AcDbEntity
  8
ﾏﾙｴｽｼﾝｸﾞﾙ
370
     5
100
AcDbLine
 10
1738.394565355585
 20
4828.835068591271
 30
0.0
 11
1787.918171786019
 21
4843.692150520403
 31
0.0
  0
LINE
  5
44FC
330
1F
100
AcDbEntity
  8
ﾏﾙｴｽｼﾝｸﾞﾙ
370
     5
100
AcDbLine
 10
1859.871116868486
 20
4862.667957417914
 30
0.0
 11
1791.031107212984
 21
4842.015954521266
 31
0.0
  0
LINE
  5
44FD
330
1F
100
AcDbEntity
  8
ﾏﾙｴｽｼﾝｸﾞﾙ
370
     5
100
AcDbLine
 10
1738.077169645403
 20
4828.739849878217
 30
0.0
 11
1737.358799931484
 21
4831.134415591268
 31
0.0
  0
LINE
  5
44FE
330
1F
100
AcDbEntity
  8
ﾏﾙｴｽｼﾝｸﾞﾙ
370
     5
100
AcDbLine
 10
1737.358799931484
 20
4831.134415591268
 30
0.0
 11
1788.191663666439
 21
4846.384274711758
 31
0.0
  0
LINE
  5
44FF
330
1F
100
AcDbEntity
  8
ﾏﾙｴｽｼﾝｸﾞﾙ
370
     5
100
AcDbLine
 10
1859.871116868486
 20
4865.27803404514
 30
0.0
 11
1791.304599093411
 21
4844.70807871262
 31
0.0
  0
LINE
  5
4500
330
1F
100
AcDbEntity
  8
ﾏﾙｴｽｼﾝｸﾞﾙ
370
     5
100
AcDbLine
 10
1787.918171786019
 20
4843.692150520403
 30
0.0
 11
1738.394565355585
 21
4828.835068591271
 31
0.0
  0
LINE
  5
4501
330
1F
100
AcDbEntity
  8
ﾏﾙｴｽｱﾙﾐﾊﾞｰ
  6
Continuous
370
     5
100
AcDbLine
 10
1624.040392002403
 20
4777.66409878707
 30
0.0
 11
1622.141501391954
 21
4778.686578346543
 31
0.0
  0
ARC
  5
4502
330
1F
100
AcDbEntity
  8
ﾏﾙｴｽｱﾙﾐﾊﾞｰ
  6
Continuous
370
     5
100
AcDbCircle
 10
1624.52838438037
 20
4776.145236291369
 30
0.0
 40
1.564461
100
AcDbArc
 50
182.8527140787008
 51
285.5649454516674
  0
LINE
  5
4503
330
1F
100
AcDbEntity
  8
ﾏﾙｴｽｱﾙﾐﾊﾞｰ
  6
Continuous
370
     5
100
AcDbLine
 10
1622.965862105557
 20
4776.067375124925
 30
0.0
 11
1624.391134578487
 21
4776.494956866801
 31
0.0
  0
LINE
  5
4504
330
1F
100
AcDbEntity
  8
ﾏﾙｴｽｱﾙﾐﾊﾞｰ
  6
Continuous
370
     5
100
AcDbLine
 10
1625.004914509671
 20
4771.35966217436
 30
0.0
 11
1617.888250784599
 21
4775.191703941383
 31
0.0
  0
LINE
  5
4505
330
1F
100
AcDbEntity
  8
ﾏﾙｴｽｱﾙﾐﾊﾞｰ
  6
Continuous
370
     5
100
AcDbLine
 10
1622.141501391954
 20
4778.686578346543
 30
0.0
 11
1619.805802724564
 21
4786.472240571174
 31
0.0
  0
LINE
  5
4506
330
1F
100
AcDbEntity
  8
ﾏﾙｴｽｱﾙﾐﾊﾞｰ
  6
Continuous
370
     5
100
AcDbLine
 10
1623.886051834896
 20
4770.383353216129
 30
0.0
 11
1617.888250784599
 21
4775.191703941383
 31
0.0
  0
LINE
  5
4507
330
1F
100
AcDbEntity
  8
ﾏﾙｴｽｱﾙﾐﾊﾞｰ
  6
Continuous
370
     5
100
AcDbLine
 10
1627.888459103284
 20
4780.41066565994
 30
0.0
 11
1625.552760435894
 21
4788.196327884572
 31
0.0
  0
LINE
  5
4508
330
1F
100
AcDbEntity
  8
ﾏﾙｴｽｱﾙﾐﾊﾞｰ
  6
Continuous
370
     5
100
AcDbLine
 10
1631.001247025
 20
4772.514174313673
 30
0.0
 11
1633.363112548679
 21
4779.834162470608
 31
0.0
  0
LINE
  5
4509
330
1F
100
AcDbEntity
  8
ﾏﾙｴｽｱﾙﾐﾊﾞｰ
  6
Continuous
370
     5
100
AcDbLine
 10
1629.482792563299
 20
4772.627853926334
 30
0.0
 11
1633.363112548679
 21
4779.834162470608
 31
0.0
  0
ARC
  5
450A
330
1F
100
AcDbEntity
  8
ﾏﾙｴｽｱﾙﾐﾊﾞｰ
  6
Continuous
370
     5
100
AcDbCircle
 10
1627.294634583406
 20
4776.975111352277
 30
0.0
 40
1.564461
100
AcDbArc
 50
289.5632342338716
 51
30.54554323392268
  0
LINE
  5
450B
330
1F
100
AcDbEntity
  8
ﾏﾙｴｽｱﾙﾐﾊﾞｰ
  6
Continuous
370
     5
100
AcDbLine
 10
1628.590066857207
 20
4772.764817338163
 30
0.0
 11
1627.773291986399
 21
4775.487400240852
 31
0.0
  0
LINE
  5
450C
330
1F
100
AcDbEntity
  8
ﾏﾙｴｽｱﾙﾐﾊﾞｰ
  6
Continuous
370
     5
100
AcDbLine
 10
1629.230174501004
 20
4770.631125192152
 30
0.0
 11
1629.230198446661
 21
4770.631184577381
 31
0.0
  0
ARC
  5
450D
330
1F
100
AcDbEntity
  8
ﾏﾙｴｽｱﾙﾐﾊﾞｰ
  6
Continuous
370
     5
100
AcDbCircle
 10
1629.068970421555
 20
4772.908488407467
 30
0.0
 40
0.4999999
100
AcDbArc
 50
196.6992442339137
 51
325.8567942338587
  0
LINE
  5
450E
330
1F
100
AcDbEntity
  8
ﾏﾙｴｽｱﾙﾐﾊﾞｰ
  6
Continuous
370
     5
100
AcDbLine
 10
1627.773291986399
 20
4775.487400240852
 30
0.0
 11
1627.818491808794
 21
4775.500960187572
 31
0.0
  0
LINE
  5
450F
330
1F
100
AcDbEntity
  8
ﾏﾙｴｽｱﾙﾐﾊﾞｰ
  6
Continuous
370
     5
100
AcDbLine
 10
1625.764479315803
 20
4771.917141075742
 30
0.0
 11
1624.948176968362
 21
4774.63814890054
 31
0.0
  0
LINE
  5
4510
330
1F
100
AcDbEntity
  8
ﾏﾙｴｽｱﾙﾐﾊﾞｰ
  6
Continuous
370
     5
100
AcDbLine
 10
1626.404586959601
 20
4769.783448929731
 30
0.0
 11
1626.404543857425
 21
4769.78348820061
 31
0.0
  0
ARC
  5
4511
330
1F
100
AcDbEntity
  8
ﾏﾙｴｽｱﾙﾐﾊﾞｰ
  6
Continuous
370
     5
100
AcDbCircle
 10
1625.285566173188
 20
4771.77346713296
 30
0.0
 40
0.4999999
100
AcDbArc
 50
235.8540127348415
 51
16.69924423391376
  0
LINE
  5
4512
330
1F
100
AcDbEntity
  8
ﾏﾙｴｽｱﾙﾐﾊﾞｰ
  6
Continuous
370
     5
100
AcDbLine
 10
1624.947704444996
 20
4774.63972397843
 30
0.0
 11
1624.902504622594
 21
4774.626164031711
 31
0.0
  0
LINE
  5
4513
330
1F
100
AcDbEntity
  8
ﾏﾙｴｽｱﾙﾐﾊﾞｰ
  6
Continuous
370
     5
100
AcDbLine
 10
1626.865979543807
 20
4778.51177504949
 30
0.0
 11
1627.888459103284
 21
4780.41066565994
 31
0.0
  0
LINE
  5
4514
330
1F
100
AcDbEntity
  8
ﾏﾙｴｽｱﾙﾐﾊﾞｰ
  6
Continuous
370
     5
100
AcDbLine
 10
1625.059479899006
 20
4781.053338362537
 30
0.0
 11
1624.149535349781
 21
4780.780354997768
 31
0.0
  0
LINE
  5
4515
330
1F
100
AcDbEntity
  8
ﾏﾙｴｽｱﾙﾐﾊﾞｰ
  6
Continuous
370
     5
100
AcDbLine
 10
1628.641977210558
 20
4777.770209656424
 30
0.0
 11
1627.216722119883
 21
4777.342633129225
 31
0.0
  0
LINE
  5
4516
330
1F
100
AcDbEntity
  8
ﾏﾙｴｽｱﾙﾐﾊﾞｰ
  6
Continuous
370
     5
100
AcDbLine
 10
1627.216722119883
 20
4777.342633129225
 30
0.0
 11
1626.865979543807
 21
4778.51177504949
 31
0.0
  0
LINE
  5
4517
330
1F
100
AcDbEntity
  8
ﾏﾙｴｽｱﾙﾐﾊﾞｰ
  6
Continuous
370
     5
100
AcDbLine
 10
1624.391134578487
 20
4776.494956866801
 30
0.0
 11
1624.040392002403
 21
4777.66409878707
 31
0.0
  0
ARC
  5
4518
330
1F
100
AcDbEntity
  8
ﾏﾙｴｽｱﾙﾐﾊﾞｰ
  6
Continuous
370
     5
100
AcDbCircle
 10
1629.866061962195
 20
4768.554549185355
 30
0.0
 40
1.564461
100
AcDbArc
 50
289.5632342338716
 51
31.48852123387555
  0
ARC
  5
4519
330
1F
100
AcDbEntity
  8
ﾏﾙｴｽｱﾙﾐﾊﾞｰ
  6
Continuous
370
     5
100
AcDbCircle
 10
1627.016768220237
 20
4767.699761062767
 30
0.0
 40
1.564461
100
AcDbArc
 50
181.9100369779603
 51
283.8357187399272
  0
LINE
  5
451A
330
1F
100
AcDbEntity
  8
ﾏﾙｴｽｱﾙﾐﾊﾞｰ
  6
Continuous
370
     5
100
AcDbLine
 10
1629.609154753802
 20
4757.36150519759
 30
0.0
 11
1627.751971731115
 21
4759.985010549336
 31
0.0
  0
LINE
  5
451B
330
1F
100
AcDbEntity
  8
ﾏﾙｴｽｱﾙﾐﾊﾞｰ
  6
Continuous
370
     5
100
AcDbLine
 10
1627.751971731115
 20
4759.985010549336
 30
0.0
 11
1629.212656816075
 21
4760.423216074825
 31
0.0
  0
LINE
  5
451C
330
1F
100
AcDbEntity
  8
ﾏﾙｴｽｱﾙﾐﾊﾞｰ
  6
Continuous
370
     5
100
AcDbLine
 10
1626.602567988702
 20
4763.816312030177
 30
0.0
 11
1628.063265273813
 21
4764.254521215709
 31
0.0
  0
ARC
  5
451D
330
1F
100
AcDbEntity
  8
ﾏﾙｴｽｱﾙﾐﾊﾞｰ
  6
Continuous
370
     5
100
AcDbCircle
 10
1628.166159762499
 20
4763.868455921883
 30
0.0
 40
1.564461
100
AcDbArc
 50
181.9100369779603
 51
287.1526458551505
  0
ARC
  5
451E
330
1F
100
AcDbEntity
  8
ﾏﾙｴｽｱﾙﾐﾊﾞｰ
  6
Continuous
370
     5
100
AcDbCircle
 10
1631.380487806542
 20
4766.943481542308
 30
0.0
 40
0.9999998999999998
100
AcDbArc
 50
172.1306742339163
 51
196.6992442339137
  0
ARC
  5
451F
330
1F
100
AcDbEntity
  8
ﾏﾙｴｽｱﾙﾐﾊﾞｰ
  6
Continuous
370
     5
100
AcDbCircle
 10
1626.639257272967
 20
4765.521112382233
 30
0.0
 40
0.9999998999999998
100
AcDbArc
 50
16.69924423391376
 51
41.2678472928244
  0
LINE
  5
4520
330
1F
100
AcDbEntity
  8
ﾏﾙｴｽｱﾙﾐﾊﾞｰ
  6
Continuous
370
     5
100
AcDbLine
 10
1632.038244357478
 20
4761.270892337244
 30
0.0
 11
1631.45277591412
 21
4763.222453815122
 31
0.0
  0
LINE
  5
4521
330
1F
100
AcDbEntity
  8
ﾏﾙｴｽｱﾙﾐﾊﾞｰ
  6
Continuous
370
     5
100
AcDbLine
 10
1633.39255900216
 20
4758.496526472099
 30
0.0
 11
1633.498929442445
 21
4761.709097862734
 31
0.0
  0
LINE
  5
4522
330
1F
100
AcDbEntity
  8
ﾏﾙｴｽｱﾙﾐﾊﾞｰ
  6
Continuous
370
     5
100
AcDbLine
 10
1633.39255900216
 20
4758.496526472099
 30
0.0
 11
1631.95582915259
 21
4758.065507517227
 31
0.0
  0
LINE
  5
4523
330
1F
100
AcDbEntity
  8
ﾏﾙｴｽｱﾙﾐﾊﾞｰ
  6
Continuous
370
     5
100
AcDbLine
 10
1633.498929442445
 20
4761.709097862734
 30
0.0
 11
1632.038244357478
 21
4761.270892337244
 31
0.0
  0
LINE
  5
4524
330
1F
100
AcDbEntity
  8
ﾏﾙｴｽｱﾙﾐﾊﾞｰ
  6
Continuous
370
     5
100
AcDbLine
 10
1632.349537900176
 20
4765.540403003618
 30
0.0
 11
1630.888852815217
 21
4765.102197478131
 31
0.0
  0
ARC
  5
4525
330
1F
100
AcDbEntity
  8
ﾏﾙｴｽｱﾙﾐﾊﾞｰ
  6
Continuous
370
     5
100
AcDbCircle
 10
1631.015453504464
 20
4764.723244044471
 30
0.0
 40
1.564461
100
AcDbArc
 50
286.246304233937
 51
31.48852123387555
  0
LINE
  5
4526
330
1F
100
AcDbEntity
  8
ﾏﾙｴｽｱﾙﾐﾊﾞｰ
  6
Continuous
370
     5
100
AcDbLine
 10
1629.212656816075
 20
4760.423216074825
 30
0.0
 11
1628.627548136894
 21
4762.373578338767
 31
0.0
  0
LINE
  5
4527
330
1F
100
AcDbEntity
  8
ﾏﾙｴｽｱﾙﾐﾊﾞｰ
  6
Continuous
370
     5
100
AcDbLine
 10
1629.609154753802
 20
4757.36150519759
 30
0.0
 11
1631.045884603372
 21
4757.792524152461
 31
0.0
  0
LINE
  5
4528
330
1F
100
AcDbEntity
  8
ﾏﾙｴｽｱﾙﾐﾊﾞｰ
  6
Continuous
370
     5
100
AcDbLine
 10
1628.063265273813
 20
4764.254521215709
 30
0.0
 11
1627.597083558183
 21
4765.808460267803
 31
0.0
  0
LINE
  5
4529
330
1F
100
AcDbEntity
  8
ﾏﾙｴｽｱﾙﾐﾊﾞｰ
  6
Continuous
370
     5
100
AcDbLine
 10
1630.888852815217
 20
4765.102197478131
 30
0.0
 11
1630.422671099586
 21
4766.656136530222
 31
0.0
  0
LINE
  5
452A
330
1F
100
AcDbEntity
  8
ﾏﾙｴｽｱﾙﾐﾊﾞｰ
  6
Continuous
370
     5
100
AcDbLine
 10
1625.453176446441
 20
4767.647617171063
 30
0.0
 11
1626.913873731544
 21
4768.085826356593
 31
0.0
  0
LINE
  5
452B
330
1F
100
AcDbEntity
  8
ﾏﾙｴｽｱﾙﾐﾊﾞｰ
  6
Continuous
370
     5
100
AcDbLine
 10
1631.200146357907
 20
4769.371708144505
 30
0.0
 11
1629.739461272947
 21
4768.933502619016
 31
0.0
  0
LINE
  5
452C
330
1F
100
AcDbEntity
  8
ﾏﾙｴｽｱﾙﾐﾊﾞｰ
  6
Continuous
370
     5
100
AcDbLine
 10
1631.045884603372
 20
4757.792524152461
 30
0.0
 11
1624.149535349781
 21
4780.780354997768
 31
0.0
  0
LINE
  5
452D
330
1F
100
AcDbEntity
  8
ﾏﾙｴｽｱﾙﾐﾊﾞｰ
  6
Continuous
370
     5
100
AcDbLine
 10
1631.95582915259
 20
4758.065507517227
 30
0.0
 11
1625.059479899006
 21
4781.053338362537
 31
0.0
  0
ARC
  5
452E
330
1F
100
AcDbEntity
  8
ﾏﾙｴｽｱﾙﾐﾊﾞｰ
  6
Continuous
370
     5
100
AcDbCircle
 10
1625.641017423288
 20
4772.164454696065
 30
0.0
 40
2.500445299999999
100
AcDbArc
 50
225.4234786789709
 51
287.7806309633976
  0
ARC
  5
452F
330
1F
100
AcDbEntity
  8
ﾏﾙｴｽｱﾙﾐﾊﾞｰ
  6
Continuous
370
     5
100
AcDbCircle
 10
1628.557004609494
 20
4773.039250851925
 30
0.0
 40
2.500445299999999
100
AcDbArc
 50
285.6178142340036
 51
347.8758842339892
  0
LINE
  5
4530
330
1F
100
AcDbEntity
  8
ﾏﾙｴｽｱﾙﾐﾊﾞｰ
  6
Continuous
370
     5
100
AcDbLine
 10
1629.739461272947
 20
4768.933502619016
 30
0.0
 11
1629.230174501004
 21
4770.631125192152
 31
0.0
  0
LINE
  5
4531
330
1F
100
AcDbEntity
  8
ﾏﾙｴｽｱﾙﾐﾊﾞｰ
  6
Continuous
370
     5
100
AcDbLine
 10
1626.913873731544
 20
4768.085826356593
 30
0.0
 11
1626.404586948236
 21
4769.783448967628
 31
0.0
  0
LINE
  5
4532
330
1F
100
AcDbEntity
  8
ﾏﾙｴｽｱﾙﾐﾊﾞｰ
370
     5
100
AcDbLine
 10
1625.552760435894
 20
4788.196327884572
 30
0.0
 11
1619.805802724564
 21
4786.472240571174
 31
0.0
  0
ELLIPSE
  5
4533
330
1F
100
AcDbEntity
  8
ﾏﾙｴｽｱﾙﾐﾊﾞｰ
370
     5
100
AcDbEllipse
 10
1621.932177077753
 20
4789.824632569449
 30
0.0
 11
-3.44817462679614
 21
-1.034452388038841
 31
0.0
210
0.0
220
0.0
230
1.0
 40
0.4166666666666753
 41
3.141592653589793
 42
6.283185307179586
  0
LINE
  5
4534
330
1F
100
AcDbEntity
  8
ﾏﾙｴｽｱﾙﾐﾊﾞｰ
370
     5
100
AcDbLine
 10
1618.484002450961
 20
4788.790180181409
 30
0.0
 11
1625.380351704552
 21
4790.859084957486
 31
0.0
  0
TEXT
  5
4535
102
{ACAD_XDICTIONARY
360
4536
102
}
330
1F
100
AcDbEntity
  8
文字
370
     5
100
AcDbText
 10
1534.737269375269
 20
4845.603023394541
 30
0.0
 40
20.0
  1
カスタムベース
  7
NS横文字
100
AcDbText
1001
AcadAnnotative
1000
AnnotativeData
1002
{
1070
     1
1070
     1
1002
}
  0
TEXT
  5
453A
102
{ACAD_XDICTIONARY
360
453B
102
}
330
1F
100
AcDbEntity
  8
文字
370
     5
100
AcDbText
 10
1549.745870929488
 20
4874.013908461114
 30
0.0
 40
20.0
  1
マルエスシングル
  7
NS横文字
100
AcDbText
1001
AcadAnnotative
1000
AnnotativeData
1002
{
1070
     1
1070
     1
1002
}
  0
LINE
  5
453F
330
1F
100
AcDbEntity
  8
ｶｽﾀﾑﾍﾞｰｽ
370
     5
100
AcDbLine
 10
1859.871116868486
 20
4860.057880790686
 30
0.0
 11
939.947040531806
 21
4584.080657889685
 31
0.0
  0
LINE
  5
4540
330
1F
100
AcDbEntity
  8
ｶｽﾀﾑﾍﾞｰｽ
370
     5
100
AcDbLine
 10
939.947040531806
 20
4584.080657889685
 30
0.0
 11
939.947040531806
 21
4582.514611913348
 31
0.0
  0
LINE
  5
4541
330
1F
100
AcDbEntity
  8
文字
370
     5
100
AcDbLine
 10
1429.481890162555
 20
4730.017093844468
 30
0.0
 11
1517.578538433758
 21
4882.604964626722
 31
0.0
  0
LINE
  5
4542
330
1F
100
AcDbEntity
  8
文字
370
     5
100
AcDbLine
 10
1517.578538433758
 20
4882.604964626722
 30
0.0
 11
1547.578538433758
 21
4882.604964626722
 31
0.0
  0
LINE
  5
4543
330
1F
100
AcDbEntity
  8
文字
370
     5
100
AcDbLine
 10
1502.578538433757
 20
4856.624202513188
 30
0.0
 11
1532.578538433758
 21
4856.624202513188
 31
0.0
  0
LINE
  5
4544
330
1F
100
AcDbEntity
  8
ﾏﾙｴｽｽﾃﾝ雪止め
  6
Continuous
370
     5
100
AcDbLine
 10
1650.896843942842
 20
4797.678808108261
 30
0.0
 11
1650.666965634387
 21
4798.445069136437
 31
0.0
  0
LINE
  5
4545
330
1F
100
AcDbEntity
  8
ﾏﾙｴｽｽﾃﾝ雪止め
  6
Continuous
370
     5
100
AcDbLine
 10
1650.666965634387
 20
4798.445069136437
 30
0.0
 11
1586.409306291127
 21
4779.167771333459
 31
0.0
  0
LINE
  5
4546
330
1F
100
AcDbEntity
  8
ﾏﾙｴｽｽﾃﾝ雪止め
  6
Continuous
370
     5
100
AcDbLine
 10
1650.896843942842
 20
4797.678808108261
 30
0.0
 11
1586.360288393647
 21
4778.317841443502
 31
0.0
  0
LINE
  5
4547
330
1F
100
AcDbEntity
  8
ﾏﾙｴｽｽﾃﾝ雪止め
  6
Continuous
370
     5
100
AcDbLine
 10
1583.265856526596
 20
4780.521603836061
 30
0.0
 11
1426.186809945466
 21
4733.39788986172
 31
0.0
  0
LINE
  5
4548
330
1F
100
AcDbEntity
  8
ﾏﾙｴｽｽﾃﾝ雪止め
  6
Continuous
370
     5
100
AcDbLine
 10
1423.073874518493
 20
4735.074085860858
 30
0.0
 11
1390.703333562516
 21
4725.362923574064
 31
0.0
  0
LINE
  5
4549
330
1F
100
AcDbEntity
  8
ﾏﾙｴｽｽﾃﾝ雪止め
  6
Continuous
370
     5
100
AcDbLine
 10
1390.473455254061
 20
4726.129184602242
 30
0.0
 11
1361.738666697427
 21
4717.508748035252
 31
0.0
  0
LINE
  5
454A
330
1F
100
AcDbEntity
  8
ﾏﾙｴｽｽﾃﾝ雪止め
  6
Continuous
370
     5
100
AcDbLine
 10
1390.703333562516
 20
4725.362923574064
 30
0.0
 11
1361.202283977705
 21
4716.512608698621
 31
0.0
  0
LINE
  5
454B
330
1F
100
AcDbEntity
  8
ﾏﾙｴｽｽﾃﾝ雪止め
  6
Continuous
370
     5
100
AcDbLine
 10
1583.216838629116
 20
4779.671673946104
 30
0.0
 11
1586.360288393647
 21
4778.317841443502
 31
0.0
  0
LINE
  5
454C
330
1F
100
AcDbEntity
  8
ﾏﾙｴｽｽﾃﾝ雪止め
  6
Continuous
370
     5
100
AcDbLine
 10
1583.265856526596
 20
4780.521603836061
 30
0.0
 11
1586.409306291127
 21
4779.167771333459
 31
0.0
  0
LINE
  5
454D
330
1F
100
AcDbEntity
  8
ﾏﾙｴｽｼﾝｸﾞﾙ
370
     5
100
AcDbLine
 10
1583.419037456224
 20
4783.177634742176
 30
0.0
 11
1586.562487220755
 21
4781.823802239578
 31
0.0
  0
LINE
  5
454E
330
1F
100
AcDbEntity
  8
ﾏﾙｴｽｼﾝｸﾞﾙ
370
     5
100
AcDbLine
 10
1583.572218385859
 20
4785.833665648293
 30
0.0
 11
1586.715668150391
 21
4784.479833145693
 31
0.0
  0
LINE
  5
454F
330
1F
100
AcDbEntity
  8
ﾏﾙｴｽｽﾃﾝ雪止め
  6
Continuous
370
     5
100
AcDbLine
 10
1390.473455254061
 20
4726.129184602242
 30
0.0
 11
1390.703333562516
 21
4725.362923574064
 31
0.0
  0
LINE
  5
4550
330
1F
100
AcDbEntity
  8
ﾏﾙｴｽｽﾃﾝ雪止め
  6
Continuous
370
     5
100
AcDbLine
 10
1361.202283977705
 20
4716.512608698621
 30
0.0
 11
1305.575424495328
 21
4699.824550853909
 31
0.0
  0
LINE
  5
4551
330
1F
100
AcDbEntity
  8
ﾏﾙｴｽｽﾃﾝ雪止め
  6
Continuous
370
     5
100
AcDbLine
 10
1361.202283977705
 20
4716.512608698621
 30
0.0
 11
1344.288711837791
 21
4772.891182498326
 31
0.0
  0
LINE
  5
4552
330
1F
100
AcDbEntity
  8
ﾏﾙｴｽｽﾃﾝ雪止め
  6
Continuous
370
     5
100
AcDbLine
 10
1344.7276718719
 20
4774.212064120344
 30
0.0
 11
1361.738666697427
 21
4717.508748035252
 31
0.0
  0
LINE
  5
4553
330
1F
100
AcDbEntity
  8
ﾏﾙｴｽｽﾃﾝ雪止め
  6
Continuous
370
     5
100
AcDbLine
 10
1343.961410843723
 20
4773.98218581189
 30
0.0
 11
1304.498967892614
 21
4699.501613873093
 31
0.0
  0
LINE
  5
4554
330
1F
100
AcDbEntity
  8
ﾏﾙｴｽｽﾃﾝ雪止め
  6
Continuous
370
     5
100
AcDbLine
 10
1344.288711837791
 20
4772.891182498326
 30
0.0
 11
1305.575424495328
 21
4699.824550853909
 31
0.0
  0
LINE
  5
4555
330
1F
100
AcDbEntity
  8
ﾏﾙｴｽｽﾃﾝ雪止め
  6
Continuous
370
     5
100
AcDbLine
 10
1304.498967892614
 20
4699.501613873093
 30
0.0
 11
1304.728846201062
 21
4698.735352844916
 31
0.0
  0
ARC
  5
4556
330
1F
100
AcDbEntity
  8
ﾏﾙｴｽｽﾃﾝ雪止め
  6
Continuous
370
     5
100
AcDbCircle
 10
1381.083274654222
 20
4722.628764905343
 30
0.0
 40
3.145454545454803
100
AcDbArc
 50
214.1915687590392
 51
359.2069197088881
  0
ARC
  5
4557
330
1F
100
AcDbEntity
  8
ﾏﾙｴｽｽﾃﾝ雪止め
  6
Continuous
370
     5
100
AcDbCircle
 10
1381.16686676639
 20
4722.35012453146
 30
0.0
 40
3.145454545454803
100
AcDbArc
 50
34.19156875903919
 51
179.206919708888
  0
LINE
  5
4558
330
1F
100
AcDbEntity
  8
ﾏﾙｴｽｽﾃﾝ雪止め
370
     5
100
AcDbLine
 10
1423.073874518493
 20
4735.074085860858
 30
0.0
 11
1426.186809945466
 21
4733.39788986172
 31
0.0
  0
LINE
  5
4559
330
1F
100
AcDbEntity
  8
ﾏﾙｴｽｼﾝｸﾞﾙ
370
     5
100
AcDbLine
 10
1586.715668150391
 20
4784.479833145693
 30
0.0
 11
1650.926601509673
 21
4803.743113153478
 31
0.0
  0
LINE
  5
455A
330
1F
100
AcDbEntity
  8
ﾏﾙｴｽｼﾝｸﾞﾙ
370
     5
100
AcDbLine
 10
1615.716174744462
 20
4795.790061751143
 30
0.0
 11
1651.2000933901
 21
4806.435237344833
 31
0.0
  0
LINE
  5
455B
330
1F
100
AcDbEntity
  8
ﾏﾙｴｽｼﾝｸﾞﾙ
370
     5
100
AcDbLine
 10
1494.559414890777
 20
4756.519747972541
 30
0.0
 11
1493.841045176858
 21
4758.914313685594
 31
0.0
  0
LINE
  5
455C
330
1F
100
AcDbEntity
  8
ﾏﾙｴｽｼﾝｸﾞﾙ
370
     5
100
AcDbLine
 10
1493.841045176858
 20
4758.914313685594
 30
0.0
 11
1583.572218385859
 21
4785.833665648293
 31
0.0
  0
LINE
  5
455D
330
1F
100
AcDbEntity
  8
ﾊｯﾁ
370
     5
100
AcDbLine
 10
1305.943455966306
 20
4556.58955192786
 30
0.0
 11
1499.834862560354
 21
4750.480958521912
 31
0.0
  0
LINE
  5
455E
330
1F
100
AcDbEntity
  8
ﾊｯﾁ
370
     5
100
AcDbLine
 10
1316.044981411833
 20
4559.620009561516
 30
0.0
 11
1509.936388005881
 21
4753.511416155568
 31
0.0
  0
LINE
  5
455F
330
1F
100
AcDbEntity
  8
ﾊｯﾁ
370
     5
100
AcDbLine
 10
1326.146506857352
 20
4562.650467195173
 30
0.0
 11
1520.0379134514
 21
4756.541873789225
 31
0.0
  0
LINE
  5
4560
330
1F
100
AcDbEntity
  8
ﾊｯﾁ
370
     5
100
AcDbLine
 10
939.947040531806
 20
4490.593136493358
 30
0.0
 11
1071.263433988933
 21
4621.909529950484
 31
0.0
  0
LINE
  5
4561
330
1F
100
AcDbEntity
  8
ﾊｯﾁ
370
     5
100
AcDbLine
 10
939.947040531806
 20
4483.522068681495
 30
0.0
 11
1081.364959434453
 21
4624.939987584141
 31
0.0
  0
LINE
  5
4562
330
1F
100
AcDbEntity
  8
ﾊｯﾁ
370
     5
100
AcDbLine
 10
939.947040531806
 20
4476.451000869629
 30
0.0
 11
1091.466484879973
 21
4627.970445217797
 31
0.0
  0
LINE
  5
4563
330
1F
100
AcDbEntity
  8
ﾊｯﾁ
370
     5
100
AcDbLine
 10
1734.514884537733
 20
4685.160980499287
 30
0.0
 11
1859.871116868486
 21
4810.517212830037
 31
0.0
  0
LINE
  5
4564
330
1F
100
AcDbEntity
  8
ﾊｯﾁ
370
     5
100
AcDbLine
 10
1744.616409983253
 20
4688.191438132941
 30
0.0
 11
1859.871116868486
 21
4803.446145018181
 31
0.0
  0
LINE
  5
4565
330
1F
100
AcDbEntity
  8
ﾊｯﾁ
370
     5
100
AcDbLine
 10
1754.717935428773
 20
4691.221895766597
 30
0.0
 11
1859.871116868486
 21
4796.375077206316
 31
0.0
  0
LWPOLYLINE
  5
4566
330
1F
100
AcDbEntity
  8
文字
370
     5
100
AcDbPolyline
 90
        2
 70
     1
 43
0.75
 10
1008.376534081915
 20
4603.988523245802
 42
1.0
 10
1009.126534081915
 20
4603.988523245802
 42
1.0
  0
LWPOLYLINE
  5
4567
330
1F
100
AcDbEntity
  8
文字
370
     5
100
AcDbPolyline
 90
        2
 70
     1
 43
0.75
 10
1012.071876647169
 20
4610.389044320192
 42
1.0
 10
1012.821876647169
 20
4610.389044320192
 42
1.0
  0
LINE
  5
4568
330
1F
100
AcDbEntity
  8
枠
  6
ByBlock
370
     5
100
AcDbLine
 10
7122.994584139451
 20
281.3895781099418
 30
0.0
 11
7122.994584139451
 21
-0.0000000000145519
 31
0.0
  0
MTEXT
  5
4569
102
{ACAD_XDICTIONARY
360
456A
102
}
330
1F
100
AcDbEntity
  8
枠
  6
ByBlock
370
     5
100
AcDbMText
 10
7163.634840644597
 20
259.1220996506818
 30
0.0
 40
38.8888888875
 41
924.2786064256533
 46
0.0
 71
     1
 72
     5
  1
{\fMS Gothic|b0|i0|c128|p49;マルエスシングル}
  7
NS横文字
 73
     1
 44
1.0
1001
ACAD
1000
ACAD_MTEXT_DEFINED_HEIGHT_BEGIN
1070
    46
1040
0.0
1000
ACAD_MTEXT_DEFINED_HEIGHT_END
1001
AcadAnnotative
1000
AnnotativeData
1002
{
1070
     1
1070
     1
1002
}
  0
MTEXT
  5
456E
102
{ACAD_XDICTIONARY
360
456F
102
}
330
1F
100
AcDbEntity
  8
枠
  6
ByBlock
370
     5
100
AcDbMText
 10
7165.262345725685
 20
59.55819335062551
 30
0.0
 40
34.99999999875
 41
500.339827638183
 46
38.67701394456526
 71
     1
 72
     5
  1
{\fMS Gothic|b0|i0|c128|p49;令和３年１月}
  7
NS横文字
 73
     1
 44
1.0
1001
ACAD
1000
ACAD_MTEXT_DEFINED_HEIGHT_BEGIN
1070
    46
1040
0.0
1000
ACAD_MTEXT_DEFINED_HEIGHT_END
1001
AcadAnnotative
1000
AnnotativeData
1002
{
1070
     1
1070
     1
1002
}
  0
MTEXT
  5
4573
102
{ACAD_XDICTIONARY
360
4574
102
}
330
1F
100
AcDbEntity
  8
枠
  6
ByBlock
370
     5
100
AcDbMText
 10
7138.627338478858
 20
83.76198182395455
 30
0.0
 40
17.499999999375
 41
259.9272729281938
 46
0.0
 71
     1
 72
     5
  1
{\fMS Gothic|b0|i0|c128|p49;更新日}
  7
NS横文字
 73
     1
 44
1.0
1001
ACAD
1000
ACAD_MTEXT_DEFINED_HEIGHT_BEGIN
1070
    46
1040
0.0
1000
ACAD_MTEXT_DEFINED_HEIGHT_END
1001
AcadAnnotative
1000
AnnotativeData
1002
{
1070
     1
1070
     1
1002
}
  0
MTEXT
  5
4578
102
{ACAD_XDICTIONARY
360
4579
102
}
330
1F
100
AcDbEntity
  8
枠
  6
ByBlock
370
     5
100
AcDbMText
 10
7163.634840644597
 20
165.3255736139908
 30
0.0
 40
38.8888888875
 41
334.1826274792684
 46
0.0
 71
     1
 72
     5
  1
雪止め
  7
NS横文字
 73
     1
 44
1.0
1001
ACAD
1000
ACAD_MTEXT_DEFINED_HEIGHT_BEGIN
1070
    46
1040
0.0
1000
ACAD_MTEXT_DEFINED_HEIGHT_END
1001
AcadAnnotative
1000
AnnotativeData
1002
{
1070
     1
1070
     1
1002
}
  0
VIEWPORT
  5
34A6
102
{ACAD_XDICTIONARY
360
34A7
102
}
330
349F
100
AcDbEntity
 67
     1
  8
0
100
AcDbViewport
 10
148.500000691507
 20
107.1528970781966
 30
0.0
 40
365.2068021793691
 41
207.649481621922
 68
     1
 69
     1
 12
148.500000691507
 22
107.1528970781966
 13
0.0
 23
0.0
 14
10.0
 24
10.0
 15
10.0
 25
10.0
 16
0.0
 26
0.0
 36
1.0
 17
0.0
 27
0.0
 37
0.0
 42
50.0
 43
0.0
 44
0.0
 45
207.649481621922
 50
0.0
 51
0.0
 72
  1000
 90
   557088
  1

281
     0
 71
     1
 74
     0
110
0.0
120
0.0
130
0.0
111
1.0
121
0.0
131
0.0
112
0.0
122
1.0
132
0.0
 79
     0
146
0.0
170
     0
 61
     5
348
F5
292
     1
282
     1
141
0.0
142
0.0
 63
   250
421
  3355443
  0
VIEWPORT
  5
4018
102
{ACAD_XDICTIONARY
360
4019
102
}
330
349F
100
AcDbEntity
 67
     1
  8
0
100
AcDbViewport
 10
148.5
 20
105.0
 30
0.0
 40
297.0
 41
210.0
 68
     2
 69
     2
 12
4050.000056581334
 22
2820.000039397342
 13
0.0
 23
0.0
 14
10.0
 24
10.0
 15
10.0
 25
10.0
 16
0.0
 26
0.0
 36
1.0
 17
0.0
 27
0.0
 37
0.0
 42
50.0
 43
0.0
 44
0.0
 45
5761.670371291859
 50
0.0
 51
0.0
 72
  1000
 90
   819296
  1

281
     0
 71
     1
 74
     0
110
0.0
120
0.0
130
0.0
111
1.0
121
0.0
131
0.0
112
0.0
122
1.0
132
0.0
 79
     0
146
0.0
170
     0
 61
     5
348
F5
292
     1
282
     1
141
0.0
142
0.0
 63
   250
421
  3355443
  0
ENDSEC
  0
SECTION
  2
OBJECTS
  0
DICTIONARY
  5
C
330
0
100
AcDbDictionary
281
     1
  3
ACAD_CIP_PREVIOUS_PRODUCT_INFO
350
216
  3
ACAD_COLOR
350
6B
  3
ACAD_DETAILVIEWSTYLE
350
21B
  3
ACAD_GROUP
350
D
  3
ACAD_LAYOUT
350
1A
  3
ACAD_MATERIAL
350
6A
  3
ACAD_MLEADERSTYLE
350
12D
  3
ACAD_MLINESTYLE
350
17
  3
ACAD_PLOTSETTINGS
350
19
  3
ACAD_PLOTSTYLENAME
350
E
  3
ACAD_SCALELIST
350
10C
  3
ACAD_SECTIONVIEWSTYLE
350
219
  3
ACAD_TABLESTYLE
350
7E
  3
ACAD_VISUALSTYLE
350
EF
  3
ACDB_RECOMPOSE_DATA
350
4764
  3
AcDbVariableDictionary
350
5E
  0
DICTIONARY
  5
1FF
330
2
100
AcDbDictionary
280
     1
281
     1
  3
ACAD_LAYERSTATES
360
200
  0
DICTIONARY
  5
13C
330
10
100
AcDbDictionary
280
     1
281
     1
  0
DICTIONARY
  5
45A
330
459
100
AcDbDictionary
280
     1
281
     1
  0
DICTIONARY
  5
45E
330
45D
100
AcDbDictionary
280
     1
281
     1
  0
DICTIONARY
  5
460
330
45F
100
AcDbDictionary
280
     1
281
     1
  0
DICTIONARY
  5
472
330
471
100
AcDbDictionary
280
     1
281
     1
  0
DICTIONARY
  5
1855
330
1854
100
AcDbDictionary
280
     1
281
     1
  0
DICTIONARY
  5
1CE
330
1F
100
AcDbDictionary
280
     1
281
     1
  3
ACAD_SORTENTS
360
30F
  0
DICTIONARY
  5
3FE3
330
3FE2
100
AcDbDictionary
280
     1
281
     1
  3
ASDK_XREC_ANNOTATION_SCALE_INFO
360
3FE4
  0
DICTIONARY
  5
4024
330
4023
100
AcDbDictionary
280
     1
281
     1
  3
ASDK_XREC_ANNOTATION_SCALE_INFO
360
4025
  0
DICTIONARY
  5
4316
330
4315
100
AcDbDictionary
280
     1
281
     1
  3
AcDbContextDataManager
360
4317
  0
DICTIONARY
  5
4329
330
4328
100
AcDbDictionary
280
     1
281
     1
  3
AcDbContextDataManager
360
432A
  0
DICTIONARY
  5
432E
330
432D
100
AcDbDictionary
280
     1
281
     1
  3
AcDbContextDataManager
360
432F
  0
DICTIONARY
  5
4419
330
4418
100
AcDbDictionary
280
     1
281
     1
  3
AcDbContextDataManager
360
441A
  0
DICTIONARY
  5
441E
330
441D
100
AcDbDictionary
280
     1
281
     1
  3
AcDbContextDataManager
360
441F
  0
DICTIONARY
  5
4423
330
4422
100
AcDbDictionary
280
     1
281
     1
  3
AcDbContextDataManager
360
4424
  0
DICTIONARY
  5
4471
330
4470
100
AcDbDictionary
280
     1
281
     1
  3
AcDbContextDataManager
360
4472
  0
DICTIONARY
  5
4476
330
4475
100
AcDbDictionary
280
     1
281
     1
  3
AcDbContextDataManager
360
4477
  0
DICTIONARY
  5
447B
330
447A
100
AcDbDictionary
280
     1
281
     1
  3
AcDbContextDataManager
360
447C
  0
DICTIONARY
  5
4480
330
447F
100
AcDbDictionary
280
     1
281
     1
  3
AcDbContextDataManager
360
4481
  0
DICTIONARY
  5
4485
330
4484
100
AcDbDictionary
280
     1
281
     1
  3
AcDbContextDataManager
360
4486
  0
DICTIONARY
  5
448A
330
4489
100
AcDbDictionary
280
     1
281
     1
  3
AcDbContextDataManager
360
448B
  0
DICTIONARY
  5
4499
330
4498
100
AcDbDictionary
280
     1
281
     1
  3
AcDbContextDataManager
360
449A
  0
DICTIONARY
  5
4536
330
4535
100
AcDbDictionary
280
     1
281
     1
  3
AcDbContextDataManager
360
4537
  0
DICTIONARY
  5
453B
330
453A
100
AcDbDictionary
280
     1
281
     1
  3
AcDbContextDataManager
360
453C
  0
DICTIONARY
  5
456A
330
4569
100
AcDbDictionary
280
     1
281
     1
  3
AcDbContextDataManager
360
456B
  0
DICTIONARY
  5
456F
330
456E
100
AcDbDictionary
280
     1
281
     1
  3
AcDbContextDataManager
360
4570
  0
DICTIONARY
  5
4574
330
4573
100
AcDbDictionary
280
     1
281
     1
  3
AcDbContextDataManager
360
4575
  0
DICTIONARY
  5
4579
330
4578
100
AcDbDictionary
280
     1
281
     1
  3
AcDbContextDataManager
360
457A
  0
DICTIONARY
  5
34A7
330
34A6
100
AcDbDictionary
280
     1
281
     1
  3
ASDK_XREC_ANNOTATION_SCALE_INFO
360
34A8
  0
DICTIONARY
  5
4019
330
4018
100
AcDbDictionary
280
     1
281
     1
  3
ASDK_XREC_ANNOTATION_SCALE_INFO
360
401A
  0
XRECORD
  5
216
102
{ACAD_REACTORS
330
C
102
}
330
C
100
AcDbXrecord
280
     1
300
ACDLT
300
2021
300

  0
DICTIONARY
  5
6B
102
{ACAD_REACTORS
330
C
102
}
330
C
100
AcDbDictionary
281
     1
  0
DICTIONARY
  5
21B
102
{ACAD_REACTORS
330
C
102
}
330
C
100
AcDbDictionary
281
     1
  3
Imperial24
350
483
  3
Metric50
350
21C
  0
DICTIONARY
  5
D
102
{ACAD_REACTORS
330
C
102
}
330
C
100
AcDbDictionary
281
     1
  0
DICTIONARY
  5
1A
102
{ACAD_REACTORS
330
C
102
}
330
C
100
AcDbDictionary
281
     1
  3
A4　縦
350
3FD5
  3
A4横
350
34A0
  3
Model
350
22
  0
DICTIONARY
  5
6A
102
{ACAD_REACTORS
330
C
102
}
330
C
100
AcDbDictionary
281
     1
  3
ByBlock
350
ED
  3
ByLayer
350
EC
  3
Global
350
EE
  0
DICTIONARY
  5
12D
102
{ACAD_REACTORS
330
C
102
}
330
C
100
AcDbDictionary
281
     1
  3
Annotative
350
13B
  3
NSマルチ引出線
350
371
  3
Standard
350
12E
  3
style1
350
1860
  3
style2
350
481
  0
DICTIONARY
  5
17
102
{ACAD_REACTORS
330
C
102
}
330
C
100
AcDbDictionary
281
     1
  3
Standard
350
18
  0
DICTIONARY
  5
19
102
{ACAD_REACTORS
330
C
102
}
330
C
100
AcDbDictionary
281
     1
  3
A4 縦　モノクロ
350
3FF1
  3
A4　横　モノクロ
350
34EA
  0
ACDBDICTIONARYWDFLT
  5
E
102
{ACAD_REACTORS
330
C
102
}
330
C
100
AcDbDictionary
281
     1
  3
Normal
350
F
100
AcDbDictionaryWithDefault
340
F
  0
DICTIONARY
  5
10C
102
{ACAD_REACTORS
330
C
102
}
330
C
100
AcDbDictionary
281
     1
  3
A0
350
10D
  3
A1
350
1BE
  3
A2
350
1BF
  3
A3
350
1C0
  3
A4
350
1C1
  3
A5
350
1C2
  3
A6
350
1C3
  3
A7
350
1C4
  3
A8
350
1C5
  3
A9
350
1C6
  3
B0
350
1C7
  3
B1
350
1C8
  3
B2
350
1C9
  3
B3
350
1CA
  3
B4
350
1CB
  3
B5
350
1CC
  3
B6
350
1CD
  0
DICTIONARY
  5
219
102
{ACAD_REACTORS
330
C
102
}
330
C
100
AcDbDictionary
281
     1
  3
Imperial24
350
482
  3
Metric50
350
21A
  0
DICTIONARY
  5
7E
102
{ACAD_REACTORS
330
C
102
}
330
C
100
AcDbDictionary
281
     1
  3
Standard
350
7F
  0
DICTIONARY
  5
EF
102
{ACAD_REACTORS
330
C
102
}
330
C
100
AcDbDictionary
281
     1
  3
2dWireframe
350
F5
  3
Basic
350
F4
  3
Brighten
350
FB
  3
ColorChange
350
FF
  3
Conceptual
350
F8
  3
Dim
350
FA
  3
EdgeColorOff
350
1E6
  3
Facepattern
350
FE
  3
Flat
350
F0
  3
FlatWithEdges
350
F1
  3
Gouraud
350
F2
  3
GouraudWithEdges
350
F3
  3
Hidden
350
F7
  3
JitterOff
350
1E4
  3
Linepattern
350
FD
  3
OverhangOff
350
1E5
  3
Realistic
350
F9
  3
Shaded
350
1F3
  3
Shaded with edges
350
1F2
  3
Shades of Gray
350
1EF
  3
Sketchy
350
1F0
  3
Thicken
350
FC
  3
Wireframe
350
F6
  3
X-Ray
350
1F1
  0
XRECORD
  5
4764
102
{ACAD_REACTORS
330
C
102
}
330
C
100
AcDbXrecord
280
     1
 90
        1
330
7F
  0
DICTIONARY
  5
5E
102
{ACAD_REACTORS
330
C
102
}
330
C
100
AcDbDictionary
281
     1
  3
CANNOSCALE
350
146
  3
CENTEREXE
350
259
  3
CENTERLTYPEFILE
350
25A
  3
CMLEADERSTYLE
350
145
  3
CTABLESTYLE
350
84
  3
CVIEWDETAILSTYLE
350
227
  3
CVIEWSECTIONSTYLE
350
228
  3
DIMASSOC
350
5F
  3
HIDETEXT
350
63
  3
HPCOLOR
350
14E9
  3
HPLAYER
350
2804
  3
HPTRANSPARENCY
350
14E8
  3
LAYEREVAL
350
1AE
  3
LAYERNOTIFY
350
1AF
  3
TEXTJUSTIFY
350
308
  0
DICTIONARY
  5
200
102
{ACAD_REACTORS
330
1FF
102
}
330
1FF
100
AcDbDictionary
281
     1
  3
_LAYISO_STATE
350
345F
1001
AcLayerTools
1000
22
1000
0
  0
SORTENTSTABLE
  5
30F
102
{ACAD_REACTORS
330
1CE
102
}
330
1CE
100
AcDbSortentsTable
330
1F
331
1A98
  5
1ABA
  0
XRECORD
  5
3FE4
102
{ACAD_REACTORS
330
3FE3
102
}
330
3FE3
100
AcDbXrecord
280
     1
 90
        1
340
10D
  0
XRECORD
  5
4025
102
{ACAD_REACTORS
330
4024
102
}
330
4024
100
AcDbXrecord
280
     1
 90
        1
340
10D
  0
DICTIONARY
  5
4317
102
{ACAD_REACTORS
330
4316
102
}
330
4316
100
AcDbDictionary
281
     1
  3
ACDB_ANNOTATIONSCALES
350
4318
  0
DICTIONARY
  5
432A
102
{ACAD_REACTORS
330
4329
102
}
330
4329
100
AcDbDictionary
281
     1
  3
ACDB_ANNOTATIONSCALES
350
432B
  0
DICTIONARY
  5
432F
102
{ACAD_REACTORS
330
432E
102
}
330
432E
100
AcDbDictionary
281
     1
  3
ACDB_ANNOTATIONSCALES
350
4330
  0
DICTIONARY
  5
441A
102
{ACAD_REACTORS
330
4419
102
}
330
4419
100
AcDbDictionary
281
     1
  3
ACDB_ANNOTATIONSCALES
350
441B
  0
DICTIONARY
  5
441F
102
{ACAD_REACTORS
330
441E
102
}
330
441E
100
AcDbDictionary
281
     1
  3
ACDB_ANNOTATIONSCALES
350
4420
  0
DICTIONARY
  5
4424
102
{ACAD_REACTORS
330
4423
102
}
330
4423
100
AcDbDictionary
281
     1
  3
ACDB_ANNOTATIONSCALES
350
4425
  0
DICTIONARY
  5
4472
102
{ACAD_REACTORS
330
4471
102
}
330
4471
100
AcDbDictionary
281
     1
  3
ACDB_ANNOTATIONSCALES
350
4473
  0
DICTIONARY
  5
4477
102
{ACAD_REACTORS
330
4476
102
}
330
4476
100
AcDbDictionary
281
     1
  3
ACDB_ANNOTATIONSCALES
350
4478
  0
DICTIONARY
  5
447C
102
{ACAD_REACTORS
330
447B
102
}
330
447B
100
AcDbDictionary
281
     1
  3
ACDB_ANNOTATIONSCALES
350
447D
  0
DICTIONARY
  5
4481
102
{ACAD_REACTORS
330
4480
102
}
330
4480
100
AcDbDictionary
281
     1
  3
ACDB_ANNOTATIONSCALES
350
4482
  0
DICTIONARY
  5
4486
102
{ACAD_REACTORS
330
4485
102
}
330
4485
100
AcDbDictionary
281
     1
  3
ACDB_ANNOTATIONSCALES
350
4487
  0
DICTIONARY
  5
448B
102
{ACAD_REACTORS
330
448A
102
}
330
448A
100
AcDbDictionary
281
     1
  3
ACDB_ANNOTATIONSCALES
350
448C
  0
DICTIONARY
  5
449A
102
{ACAD_REACTORS
330
4499
102
}
330
4499
100
AcDbDictionary
281
     1
  3
ACDB_ANNOTATIONSCALES
350
449B
  0
DICTIONARY
  5
4537
102
{ACAD_REACTORS
330
4536
102
}
330
4536
100
AcDbDictionary
281
     1
  3
ACDB_ANNOTATIONSCALES
350
4538
  0
DICTIONARY
  5
453C
102
{ACAD_REACTORS
330
453B
102
}
330
453B
100
AcDbDictionary
281
     1
  3
ACDB_ANNOTATIONSCALES
350
453D
  0
DICTIONARY
  5
456B
102
{ACAD_REACTORS
330
456A
102
}
330
456A
100
AcDbDictionary
281
     1
  3
ACDB_ANNOTATIONSCALES
350
456C
  0
DICTIONARY
  5
4570
102
{ACAD_REACTORS
330
456F
102
}
330
456F
100
AcDbDictionary
281
     1
  3
ACDB_ANNOTATIONSCALES
350
4571
  0
DICTIONARY
  5
4575
102
{ACAD_REACTORS
330
4574
102
}
330
4574
100
AcDbDictionary
281
     1
  3
ACDB_ANNOTATIONSCALES
350
4576
  0
DICTIONARY
  5
457A
102
{ACAD_REACTORS
330
4579
102
}
330
4579
100
AcDbDictionary
281
     1
  3
ACDB_ANNOTATIONSCALES
350
457B
  0
XRECORD
  5
34A8
102
{ACAD_REACTORS
330
34A7
102
}
330
34A7
100
AcDbXrecord
280
     1
 90
        1
340
10D
  0
XRECORD
  5
401A
102
{ACAD_REACTORS
330
4019
102
}
330
4019
100
AcDbXrecord
280
     1
 90
        1
340
10D
  0
ACDBDETAILVIEWSTYLE
  5
483
102
{ACAD_REACTORS
330
21B
102
}
330
21B
100
AcDbModelDocViewStyle
 70
     0
  3
Imperial24
290
     0
300
Imperial24
 90
        0
100
AcDbDetailViewStyle
 70
     0
 71
     0
 90
        3
 71
     1
340
11
 62
   256
 40
0.24
340
0
 62
   256
 40
0.24
300

 40
0.36
280
     3
 71
     2
340
16
 90
       25
 62
   256
 71
     3
340
11
 62
   256
 40
0.24
 90
        1
 40
0.75
 90
        1
300
%<\AcVar ViewType \f "%tc1">% %<\AcVar ViewDetailId>%\PSCALE %<\AcVar ViewScale \f "%sn">%
 71
     4
340
16
 90
       25
 62
   256
340
16
 90
       25
 62
   256
280
     0
  0
ACDBDETAILVIEWSTYLE
  5
21C
102
{ACAD_REACTORS
330
21B
102
}
330
21B
100
AcDbModelDocViewStyle
 70
     0
  3
Metric50
290
     0
300
Metric50
 90
        0
100
AcDbDetailViewStyle
 70
     0
 71
     0
 90
        3
 71
     1
340
11
 62
   256
 40
5.0
340
0
 62
   256
 40
5.0
300

 40
0.0
280
     1
 71
     2
340
16
 90
       25
 62
   256
 71
     3
340
11
 62
   256
 40
5.0
 90
        0
 40
15.0
 90
        1
300
%<\AcVar ViewDetailId>% (%<\AcVar ViewScale \f "%sn">%)
 71
     4
340
16
 90
       25
 62
   256
340
16
 90
       25
 62
   256
280
     0
  0
LAYOUT
  5
3FD5
102
{ACAD_REACTORS
330
1A
102
}
330
1A
100
AcDbPlotSettings
  1
A4 縦　モノクロ
  2
AutoCAD PDF (Web and Mobile).pc3
  4
ISO_full_bleed_A4_(210.00_x_297.00_MM)
  6

 40
0.0
 41
0.0
 42
0.0
 43
0.0
 44
210.0
 45
297.0
 46
0.0
 47
0.0
 48
0.0
 49
0.0
140
0.0
141
0.0
142
1.0
143
1.0
 70
   688
 72
     1
 73
     0
 74
     5
  7
monochrome.ctb
 75
    16
147
1.0
 76
     0
 77
     2
 78
   300
148
0.0
149
0.0
100
AcDbLayout
  1
A4　縦
 70
     1
 71
     2
 10
0.0
 20
0.0
 11
210.0
 21
297.0
 12
0.0
 22
0.0
 32
0.0
 14
-0.0079494894836216
 24
-0.0090630292066862
 34
-0.0015258207003583
 15
210.0137120234343
 25
297.0090644122207
 35
0.0000000349246037
146
0.0
 13
0.0
 23
0.0
 33
0.0
 16
1.0
 26
0.0
 36
0.0
 17
0.0
 27
1.0
 37
0.0
 76
     0
330
3FD4
331
3FE2
1001
ACAD_PSEXT
1000
AutoCAD PDF (Web and Mobile).pc3
1000
DWG To PDF
1000
ファイル
1000

1070
     0
  0
LAYOUT
  5
34A0
102
{ACAD_REACTORS
330
1A
102
}
330
1A
100
AcDbPlotSettings
  1
A4　横　モノクロ
  2
AutoCAD PDF (Web and Mobile).pc3
  4
ISO_full_bleed_A4_(297.00_x_210.00_MM)
  6

 40
0.0
 41
0.0
 42
0.0
 43
0.0
 44
297.0
 45
210.0
 46
0.0
 47
0.0
 48
0.0
 49
0.0
140
0.0
141
0.0
142
1.0
143
1.0
 70
   168
 72
     1
 73
     0
 74
     5
  7
monochrome.ctb
 75
    16
147
0.9999999999999998
 76
     2
 77
     2
 78
   300
148
0.0
149
0.0
100
AcDbLayout
  1
A4横
 70
     1
 71
     1
 10
0.0
 20
0.0
 11
297.0
 21
210.0
 12
0.0
 22
0.0
 32
0.0
 14
0.0
 24
0.0
 34
0.0
 15
297.0
 25
210.0
 35
0.0
146
0.0
 13
0.0
 23
0.0
 33
0.0
 16
1.0
 26
0.0
 36
0.0
 17
0.0
 27
1.0
 37
0.0
 76
     0
330
349F
331
34A6
1001
ACAD_PSEXT
1000
AutoCAD PDF (Web and Mobile).pc3
1000
DWG To PDF
1000
ファイル
1000

1070
     0
  0
LAYOUT
  5
22
102
{ACAD_XDICTIONARY
360
205
102
}
102
{ACAD_REACTORS
330
1A
102
}
330
1A
100
AcDbPlotSettings
  1

  2
none_device
  4
ISO_A4_(210.00_x_297.00_MM)
  6

 40
7.5
 41
20.0
 42
7.5
 43
20.0
 44
210.0
 45
297.0
 46
11.54999923706054
 47
-13.65000009536743
 48
0.0
 49
0.0
140
0.0
141
0.0
142
1.0
143
8.704084754739808
 70
 11952
 72
     1
 73
     0
 74
     0
  7

 75
     0
147
0.1148885871608098
 76
     0
 77
     2
 78
   300
148
0.0
149
0.0
100
AcDbLayout
  1
Model
 70
     1
 71
     0
 10
0.0
 20
0.0
 11
12.0
 21
9.0
 12
0.0
 22
0.0
 32
0.0
 14
0.0
 24
0.0
 34
0.0
 15
0.0
 25
0.0
 35
0.0
146
0.0
 13
0.0
 23
0.0
 33
0.0
 16
1.0
 26
0.0
 36
0.0
 17
0.0
 27
1.0
 37
0.0
 76
     0
330
1F
331
EA
1001
ACAD_PSEXT
1000
None
1000
None
1000
Not applicable
1000
The layout will not be plotted unless a new plotter configuration name is selected.
1070
     0
  0
MATERIAL
  5
ED
102
{ACAD_XDICTIONARY
360
1F9
102
}
102
{ACAD_REACTORS
330
6A
102
}
330
6A
100
AcDbMaterial
  1
ByBlock
 94
       63
  0
MATERIAL
  5
EC
102
{ACAD_XDICTIONARY
360
1F7
102
}
102
{ACAD_REACTORS
330
6A
102
}
330
6A
100
AcDbMaterial
  1
ByLayer
 94
       63
  0
MATERIAL
  5
EE
102
{ACAD_XDICTIONARY
360
173
102
}
102
{ACAD_REACTORS
330
6A
102
}
330
6A
100
AcDbMaterial
  1
Global
 43
0.0007999999797903
 43
0.0
 43
0.0
 43
0.0
 43
0.0
 43
0.0007999999797903
 43
0.0
 43
0.0
 43
0.0
 43
0.0
 43
1.0
 43
0.0
 43
0.0
 43
0.0
 43
0.0
 43
1.0
 49
0.0007999999797903
 49
0.0
 49
0.0
 49
0.0
 49
0.0
 49
0.0007999999797903
 49
0.0
 49
0.0
 49
0.0
 49
0.0
 49
1.0
 49
0.0
 49
0.0
 49
0.0
 49
0.0
 49
1.0
142
0.0007999999797903
142
0.0
142
0.0
142
0.0
142
0.0
142
0.0007999999797903
142
0.0
142
0.0
142
0.0
142
0.0
142
1.0
142
0.0
142
0.0
142
0.0
142
0.0
142
1.0
144
0.0007999999797903
144
0.0
144
0.0
144
0.0
144
0.0
144
0.0007999999797903
144
0.0
144
0.0
144
0.0
144
0.0
144
1.0
144
0.0
144
0.0
144
0.0
144
0.0
144
1.0
 94
       63
1001
ACAD
1070
    -1
1070
     3
1070
     0
1000

1071
        0
1070
     0
  0
MLEADERSTYLE
  5
13B
102
{ACAD_REACTORS
330
12D
102
}
330
12D
100
AcDbMLeaderStyle
179
     2
170
     2
171
     1
172
     0
 90
        2
 40
0.0
 41
0.0
173
     1
 91
-1056964608
340
14
 92
       -2
290
     1
 42
2.0
291
     1
 43
8.0
  3
Standard
 44
4.0
300

342
11
174
     1
178
     1
175
     1
176
     0
 93
-1056964608
 45
4.0
292
     0
297
     0
 46
4.0
 94
-1056964608
 47
1.0
 49
1.0
140
1.0
293
     1
141
0.0
294
     1
177
     0
142
1.0
295
     0
296
     1
143
3.75
271
     0
272
     9
273
     9
298
     0
  0
MLEADERSTYLE
  5
371
102
{ACAD_REACTORS
330
12D
102
}
330
12D
100
AcDbMLeaderStyle
179
     2
170
     2
171
     1
172
     0
 90
        2
 40
0.0
 41
0.0
173
     1
 91
-1056964608
340
14
 92
       -2
290
     1
 42
2.0
291
     1
 43
8.0
  3
Standard
341
29F
 44
10.0
300

342
298
174
     1
178
     1
175
     1
176
     0
 93
-1056964608
 45
20.0
292
     0
297
     0
 46
4.0
 94
-1056964608
 47
1.0
 49
1.0
140
1.0
293
     1
141
0.0
294
     1
177
     0
142
1.0
295
     0
296
     1
143
3.75
271
     0
272
     9
273
     9
298
     0
  0
MLEADERSTYLE
  5
12E
102
{ACAD_REACTORS
330
12D
102
}
330
12D
100
AcDbMLeaderStyle
179
     2
170
     2
171
     1
172
     0
 90
        2
 40
0.0
 41
0.0
173
     1
 91
-1056964608
340
14
 92
       -2
290
     1
 42
2.0
291
     1
 43
8.0
  3
Standard
 44
4.0
300

342
11
174
     1
178
     1
175
     1
176
     0
 93
-1056964608
 45
4.0
292
     0
297
     0
 46
4.0
 94
-1056964608
 47
1.0
 49
1.0
140
1.0
293
     1
141
0.0
294
     1
177
     0
142
1.0
295
     0
296
     0
143
3.75
271
     0
272
     9
273
     9
298
     0
  0
MLEADERSTYLE
  5
1860
102
{ACAD_REACTORS
330
12D
102
}
330
12D
100
AcDbMLeaderStyle
179
     2
170
     2
171
     1
172
     0
 90
        2
 40
1.047197551196597
 41
1.570796326794896
173
     1
 91
-1056964608
340
14
 92
       -2
290
     1
 42
0.09
291
     1
 43
20.0
  3
Standard
341
3AA
 44
5.0
300

342
479
174
     1
178
     6
175
     1
176
     0
 93
-1056964608
 45
20.0
292
     0
297
     0
 46
0.18
 94
-1056964608
 47
1.0
 49
1.0
140
1.0
293
     1
141
0.0
294
     1
177
     0
142
1.0
295
     0
296
     0
143
0.125
271
     0
272
     9
273
     9
298
     0
  0
MLEADERSTYLE
  5
481
102
{ACAD_REACTORS
330
12D
102
}
330
12D
100
AcDbMLeaderStyle
179
     2
170
     2
171
     1
172
     0
 90
        2
 40
1.047197551196597
 41
1.570796326794896
173
     1
 91
-1056964608
340
14
 92
       -2
290
     1
 42
0.09
291
     1
 43
20.0
  3
Standard
341
453
 44
5.0
300

342
479
174
     1
178
     6
175
     1
176
     0
 93
-1056964608
 45
20.0
292
     0
297
     0
 46
0.18
 94
-1056964608
 47
1.0
 49
1.0
140
1.0
293
     1
141
0.0
294
     1
177
     0
142
1.0
295
     0
296
     0
143
0.125
271
     0
272
     9
273
     9
298
     0
  0
MLINESTYLE
  5
18
102
{ACAD_REACTORS
330
17
102
}
330
17
100
AcDbMlineStyle
  2
STANDARD
 70
     0
  3

 62
   256
 51
90.0
 52
90.0
 71
     2
 49
0.5
 62
   256
  6
BYLAYER
 49
-0.5
 62
   256
  6
BYLAYER
  0
PLOTSETTINGS
  5
3FF1
102
{ACAD_REACTORS
330
19
102
}
330
19
100
AcDbPlotSettings
  1
A4 縦　モノクロ
  2
AutoCAD PDF (Web and Mobile).pc3
  4
ISO_full_bleed_A4_(210.00_x_297.00_MM)
  6

 40
0.0
 41
0.0
 42
0.0
 43
0.0
 44
210.0
 45
297.0
 46
0.0
 47
0.0
 48
0.0
 49
0.0
140
0.0
141
0.0
142
1.0
143
1.0
 70
  2736
 72
     1
 73
     0
 74
     5
  7
monochrome.ctb
 75
    16
147
1.0
 76
     0
 77
     2
 78
   300
148
0.0
149
0.0
1001
ACAD_PSEXT
1000
AutoCAD PDF (Web and Mobile).pc3
1000
DWG To PDF
1000
ファイル
1000

1070
     0
  0
PLOTSETTINGS
  5
34EA
102
{ACAD_REACTORS
330
19
102
}
330
19
100
AcDbPlotSettings
  1
A4　横　モノクロ
  2
AutoCAD PDF (Web and Mobile).pc3
  4
ISO_full_bleed_A4_(297.00_x_210.00_MM)
  6

 40
0.0
 41
0.0
 42
0.0
 43
0.0
 44
297.0
 45
210.0
 46
0.0
 47
0.0
 48
0.0
 49
0.0
140
0.0
141
0.0
142
1.0
143
1.0
 70
 14504
 72
     1
 73
     0
 74
     5
  7
monochrome.ctb
 75
    16
147
0.9999999999999998
 76
     2
 77
     2
 78
   300
148
0.0
149
0.0
1001
ACAD_PSEXT
1000
AutoCAD PDF (Web and Mobile).pc3
1000
DWG To PDF
1000
ファイル
1000

1070
     0
  0
ACDBPLACEHOLDER
  5
F
102
{ACAD_REACTORS
330
E
102
}
330
E
  0
SCALE
  5
10D
102
{ACAD_REACTORS
330
10C
102
}
330
10C
100
AcDbScale
 70
     0
300
1:1
140
1.0
141
1.0
290
     1
  0
SCALE
  5
1BE
102
{ACAD_REACTORS
330
10C
102
}
330
10C
100
AcDbScale
 70
     0
300
1:2
140
1.0
141
2.0
290
     0
  0
SCALE
  5
1BF
102
{ACAD_REACTORS
330
10C
102
}
330
10C
100
AcDbScale
 70
     0
300
1:4
140
1.0
141
4.0
290
     0
  0
SCALE
  5
1C0
102
{ACAD_REACTORS
330
10C
102
}
330
10C
100
AcDbScale
 70
     0
300
1:5
140
1.0
141
5.0
290
     0
  0
SCALE
  5
1C1
102
{ACAD_REACTORS
330
10C
102
}
330
10C
100
AcDbScale
 70
     0
300
1:8
140
1.0
141
8.0
290
     0
  0
SCALE
  5
1C2
102
{ACAD_REACTORS
330
10C
102
}
330
10C
100
AcDbScale
 70
     0
300
1:10
140
1.0
141
10.0
290
     0
  0
SCALE
  5
1C3
102
{ACAD_REACTORS
330
10C
102
}
330
10C
100
AcDbScale
 70
     0
300
1:16
140
1.0
141
16.0
290
     0
  0
SCALE
  5
1C4
102
{ACAD_REACTORS
330
10C
102
}
330
10C
100
AcDbScale
 70
     0
300
1:20
140
1.0
141
20.0
290
     0
  0
SCALE
  5
1C5
102
{ACAD_REACTORS
330
10C
102
}
330
10C
100
AcDbScale
 70
     0
300
1:30
140
1.0
141
30.0
290
     0
  0
SCALE
  5
1C6
102
{ACAD_REACTORS
330
10C
102
}
330
10C
100
AcDbScale
 70
     0
300
1:40
140
1.0
141
40.0
290
     0
  0
SCALE
  5
1C7
102
{ACAD_REACTORS
330
10C
102
}
330
10C
100
AcDbScale
 70
     0
300
1:50
140
1.0
141
50.0
290
     0
  0
SCALE
  5
1C8
102
{ACAD_REACTORS
330
10C
102
}
330
10C
100
AcDbScale
 70
     0
300
1:100
140
1.0
141
100.0
290
     0
  0
SCALE
  5
1C9
102
{ACAD_REACTORS
330
10C
102
}
330
10C
100
AcDbScale
 70
     0
300
2:1
140
2.0
141
1.0
290
     0
  0
SCALE
  5
1CA
102
{ACAD_REACTORS
330
10C
102
}
330
10C
100
AcDbScale
 70
     0
300
4:1
140
4.0
141
1.0
290
     0
  0
SCALE
  5
1CB
102
{ACAD_REACTORS
330
10C
102
}
330
10C
100
AcDbScale
 70
     0
300
8:1
140
8.0
141
1.0
290
     0
  0
SCALE
  5
1CC
102
{ACAD_REACTORS
330
10C
102
}
330
10C
100
AcDbScale
 70
     0
300
10:1
140
10.0
141
1.0
290
     0
  0
SCALE
  5
1CD
102
{ACAD_REACTORS
330
10C
102
}
330
10C
100
AcDbScale
 70
     0
300
100:1
140
100.0
141
1.0
290
     0
  0
ACDBSECTIONVIEWSTYLE
  5
482
102
{ACAD_REACTORS
330
219
102
}
330
219
100
AcDbModelDocViewStyle
 70
     0
  3
Imperial24
290
     0
300
Imperial24
 90
        0
100
AcDbSectionViewStyle
 70
     0
 71
     0
 90
       78
 71
     1
340
11
 62
   256
 40
0.24
340
0
340
0
 62
   256
 40
0.24
300
I, O, Q, S, X, Z
 40
0.48
 90
        3
 40
0.18
 90
        1
 71
     2
340
16
 90
       25
 62
   256
340
16
 90
       50
 62
   256
 40
0.24
 40
0.0
 40
0.24
 71
     3
340
11
 62
   256
 40
0.24
 90
        1
 40
0.75
 90
        1
300
%<\AcVar ViewType \f "%tc1">% %<\AcVar ViewSectionStartId>%-%<\AcVar ViewSectionEndId>%\PSCALE %<\AcVar ViewScale \f "%sn">%
 71
     4
 62
   256
 62
   257
300
ANSI31
 40
1.0
 90
        0
290
     0
290
     0
 90
        6
 40
0.0
 40
1.570796326794896
 40
0.2617993877991494
 40
1.308996938995747
 40
-0.2617993877991494
 40
1.832595714594046
  0
ACDBSECTIONVIEWSTYLE
  5
21A
102
{ACAD_REACTORS
330
219
102
}
330
219
100
AcDbModelDocViewStyle
 70
     0
  3
Metric50
290
     0
300
Metric50
 90
        0
100
AcDbSectionViewStyle
 70
     0
 71
     0
 90
      102
 71
     1
340
11
 62
   256
 40
5.0
340
0
340
0
 62
   256
 40
5.0
300
I, O, Q, S, X, Z
 40
10.0
 90
        0
 40
2.5
 90
        0
 71
     2
340
16
 90
       25
 62
   256
340
16
 90
       50
 62
   256
 40
5.0
 40
2.5
 40
5.0
 71
     3
340
11
 62
   256
 40
5.0
 90
        0
 40
15.0
 90
        1
300
%<\AcVar ViewSectionStartId>%-%<\AcVar ViewSectionEndId>% (%<\AcVar ViewScale \f "%sn">%)
 71
     4
 62
   256
 62
   257
300
ANSI31
 40
1.0
 90
        0
290
     0
290
     0
 90
        6
 40
0.0
 40
1.570796326794896
 40
0.2617993877991494
 40
1.308996938995747
 40
-0.2617993877991494
 40
1.832595714594046
  0
TABLESTYLE
  5
7F
102
{ACAD_XDICTIONARY
360
162
102
}
102
{ACAD_REACTORS
330
7E
102
}
330
7E
100
AcDbTableStyle
280
     0
  3
Standard
 70
     0
 71
     0
 40
1.5
 41
1.5
280
     0
281
     0
  7
Standard
140
4.5
170
     2
 62
     0
 63
     7
283
     0
 90
      512
 91
        0
  1

274
    -2
284
     1
 64
     0
275
    -2
285
     1
 65
     0
276
    -2
286
     1
 66
     0
277
    -2
287
     1
 67
     0
278
    -2
288
     1
 68
     0
279
    -2
289
     1
 69
     0
  7
Standard
140
6.0
170
     5
 62
     0
 63
     7
283
     0
 90
      512
 91
        0
  1

274
    -2
284
     1
 64
     0
275
    -2
285
     1
 65
     0
276
    -2
286
     1
 66
     0
277
    -2
287
     1
 67
     0
278
    -2
288
     1
 68
     0
279
    -2
289
     1
 69
     0
  7
Standard
140
4.5
170
     5
 62
     0
 63
     7
283
     0
 90
      512
 91
        0
  1

274
    -2
284
     1
 64
     0
275
    -2
285
     1
 65
     0
276
    -2
286
     1
 66
     0
277
    -2
287
     1
 67
     0
278
    -2
288
     1
 68
     0
279
    -2
289
     1
 69
     0
  0
VISUALSTYLE
  5
F5
102
{ACAD_REACTORS
330
EF
102
}
330
EF
100
AcDbVisualStyle
  2
2dWireframe
 70
     4
177
     3
291
     0
 70
    58
 90
        0
176
     1
 90
        2
176
     1
 90
        1
176
     1
 90
        0
176
     1
 40
0.6
176
     1
 40
30.0
176
     1
 62
     7
420
 16777215
176
     1
 90
        1
176
     1
 90
        4
176
     1
 62
     7
176
     1
 62
   257
176
     1
 90
        1
176
     1
 90
        1
176
     1
 40
1.0
176
     1
 90
        0
176
     1
 62
   257
176
     1
 40
1.0
176
     1
 90
        1
176
     1
 90
        6
176
     1
 90
        2
176
     1
 62
     7
176
     1
 90
        5
176
     1
 90
        0
176
     1
 90
        0
176
     1
290
     0
176
     1
 90
        1
176
     1
 40
0.0
176
     1
 90
        0
176
     1
290
     1
176
     1
290
     1
176
     1
290
     0
176
     1
290
     0
176
     1
290
     0
176
     1
290
     0
176
     1
290
     0
176
     1
290
     0
176
     1
290
     0
176
     1
 90
       50
176
     1
 40
0.0
176
     1
 40
1.0
176
     1
 90
        0
176
     1
 62
    18
420
        0
176
     1
 90
       50
176
     1
 90
        3
176
     1
 62
     5
420
      255
176
     1
290
     0
176
     1
 90
       50
176
     1
 90
       50
176
     1
 90
       50
176
     1
290
     0
176
     1
 90
       50
176
     1
 62
   256
176
     0
 40
1.0
176
     0
 90
        2
176
     1
  1
strokes_ogs.tif
176
     1
290
     0
176
     1
 40
1.0
176
     1
 40
1.0
176
     1
  0
VISUALSTYLE
  5
F4
102
{ACAD_REACTORS
330
EF
102
}
330
EF
100
AcDbVisualStyle
  2
Basic
 70
     7
177
     3
291
     1
 70
    58
 90
        1
176
     1
 90
        0
176
     1
 90
        1
176
     1
 90
        0
176
     1
 40
0.6
176
     1
 40
30.0
176
     1
 62
     7
420
 16777215
176
     1
 90
        0
176
     1
 90
        4
176
     1
 62
     7
176
     1
 62
   257
176
     1
 90
        1
176
     1
 90
        1
176
     1
 40
1.0
176
     1
 90
        8
176
     1
 62
     7
176
     1
 40
1.0
176
     1
 90
        1
176
     1
 90
        6
176
     1
 90
        2
176
     1
 62
     7
176
     1
 90
        5
176
     1
 90
        0
176
     1
 90
        0
176
     1
290
     0
176
     1
 90
        1
176
     1
 40
0.0
176
     1
 90
        0
176
     1
290
     0
176
     1
290
     1
176
     1
290
     1
176
     1
290
     0
176
     1
290
     0
176
     1
290
     0
176
     1
290
     0
176
     1
290
     0
176
     1
290
     0
176
     1
 90
       50
176
     1
 40
0.0
176
     1
 40
1.0
176
     1
 90
        0
176
     1
 62
    18
420
        0
176
     1
 90
       50
176
     1
 90
        3
176
     1
 62
     5
420
      255
176
     1
290
     0
176
     1
 90
       50
176
     1
 90
       50
176
     1
 90
       50
176
     1
290
     0
176
     1
 90
       50
176
     1
 62
   256
176
     0
 40
1.0
176
     0
 90
        2
176
     1
  1
strokes_ogs.tif
176
     1
290
     0
176
     1
 40
1.0
176
     1
 40
1.0
176
     1
  0
VISUALSTYLE
  5
FB
102
{ACAD_REACTORS
330
EF
102
}
330
EF
100
AcDbVisualStyle
  2
Brighten
 70
    12
177
     3
291
     1
 70
    58
 90
        2
176
     1
 90
        2
176
     1
 90
        1
176
     1
 90
        0
176
     1
 40
0.6
176
     1
 40
30.0
176
     1
 62
     7
420
 16777215
176
     1
 90
        1
176
     1
 90
        4
176
     1
 62
     7
176
     1
 62
   257
176
     1
 90
        1
176
     1
 90
        1
176
     1
 40
1.0
176
     1
 90
        8
176
     1
 62
     7
176
     1
 40
1.0
176
     1
 90
        1
176
     1
 90
        6
176
     1
 90
        2
176
     1
 62
     7
176
     1
 90
        5
176
     1
 90
        0
176
     1
 90
        0
176
     1
290
     0
176
     1
 90
        1
176
     1
 40
50.0
176
     1
 90
        0
176
     1
290
     0
176
     1
290
     1
176
     1
290
     1
176
     1
290
     0
176
     1
290
     0
176
     1
290
     0
176
     1
290
     0
176
     1
290
     0
176
     1
290
     0
176
     1
 90
       50
176
     1
 40
0.0
176
     1
 40
1.0
176
     1
 90
        0
176
     1
 62
    18
420
        0
176
     1
 90
       50
176
     1
 90
        3
176
     1
 62
     5
420
      255
176
     1
290
     0
176
     1
 90
       50
176
     1
 90
       50
176
     1
 90
       50
176
     1
290
     0
176
     1
 90
       50
176
     1
 62
   256
176
     0
 40
1.0
176
     0
 90
        2
176
     1
  1
strokes_ogs.tif
176
     1
290
     0
176
     1
 40
1.0
176
     1
 40
1.0
176
     1
  0
VISUALSTYLE
  5
FF
102
{ACAD_REACTORS
330
EF
102
}
330
EF
100
AcDbVisualStyle
  2
ColorChange
 70
    16
177
     3
291
     1
 70
    58
 90
        2
176
     1
 90
        2
176
     1
 90
        3
176
     1
 90
        0
176
     1
 40
0.6
176
     1
 40
30.0
176
     1
 62
     8
420
  8421504
176
     1
 90
        1
176
     1
 90
        4
176
     1
 62
     7
176
     1
 62
   257
176
     1
 90
        1
176
     1
 90
        1
176
     1
 40
1.0
176
     1
 90
        8
176
     1
 62
     8
420
  8421504
176
     1
 40
1.0
176
     1
 90
        1
176
     1
 90
        6
176
     1
 90
        2
176
     1
 62
     7
176
     1
 90
        5
176
     1
 90
        0
176
     1
 90
        0
176
     1
290
     0
176
     1
 90
        1
176
     1
 40
0.0
176
     1
 90
        0
176
     1
290
     0
176
     1
290
     1
176
     1
290
     1
176
     1
290
     0
176
     1
290
     0
176
     1
290
     0
176
     1
290
     0
176
     1
290
     0
176
     1
290
     0
176
     1
 90
       50
176
     1
 40
0.0
176
     1
 40
1.0
176
     1
 90
        0
176
     1
 62
    18
420
        0
176
     1
 90
       50
176
     1
 90
        3
176
     1
 62
     5
420
      255
176
     1
290
     0
176
     1
 90
       50
176
     1
 90
       50
176
     1
 90
       50
176
     1
290
     0
176
     1
 90
       50
176
     1
 62
   256
176
     0
 40
1.0
176
     0
 90
        2
176
     1
  1
strokes_ogs.tif
176
     1
290
     0
176
     1
 40
1.0
176
     1
 40
1.0
176
     1
  0
VISUALSTYLE
  5
F8
102
{ACAD_REACTORS
330
EF
102
}
330
EF
100
AcDbVisualStyle
  2
Conceptual
 70
     9
177
     3
291
     0
 70
    58
 90
        3
176
     1
 90
        2
176
     1
 90
        1
176
     1
 90
        0
176
     1
 40
0.6
176
     1
 40
30.0
176
     1
 62
     7
420
 16777215
176
     1
 90
        2
176
     1
 90
        2
176
     1
 62
     7
176
     1
 62
   257
176
     1
 90
        1
176
     1
 90
        1
176
     1
 40
40.0
176
     1
 90
        8
176
     1
 62
     7
176
     1
 40
1.0
176
     1
 90
        1
176
     1
 90
        6
176
     1
 90
        2
176
     1
 62
     7
176
     1
 90
        3
176
     1
 90
        0
176
     1
 90
        0
176
     1
290
     0
176
     1
 90
        1
176
     1
 40
0.0
176
     1
 90
        0
176
     1
290
     0
176
     1
290
     1
176
     1
290
     1
176
     1
290
     0
176
     1
290
     0
176
     1
290
     0
176
     1
290
     0
176
     1
290
     0
176
     1
290
     0
176
     1
 90
       50
176
     1
 40
0.0
176
     1
 40
1.0
176
     1
 90
        0
176
     1
 62
    18
420
        0
176
     1
 90
       50
176
     1
 90
        3
176
     1
 62
     5
420
      255
176
     1
290
     0
176
     1
 90
       50
176
     1
 90
       50
176
     1
 90
       50
176
     1
290
     0
176
     1
 90
       50
176
     1
 62
   256
176
     0
 40
1.0
176
     0
 90
        2
176
     1
  1
strokes_ogs.tif
176
     1
290
     0
176
     1
 40
1.0
176
     1
 40
1.0
176
     1
  0
VISUALSTYLE
  5
FA
102
{ACAD_REACTORS
330
EF
102
}
330
EF
100
AcDbVisualStyle
  2
Dim
 70
    11
177
     3
291
     1
 70
    58
 90
        2
176
     1
 90
        2
176
     1
 90
        1
176
     1
 90
        0
176
     1
 40
0.6
176
     1
 40
30.0
176
     1
 62
     7
420
 16777215
176
     1
 90
        1
176
     1
 90
        4
176
     1
 62
     7
176
     1
 62
   257
176
     1
 90
        1
176
     1
 90
        1
176
     1
 40
1.0
176
     1
 90
        8
176
     1
 62
     7
176
     1
 40
1.0
176
     1
 90
        1
176
     1
 90
        6
176
     1
 90
        2
176
     1
 62
     7
176
     1
 90
        5
176
     1
 90
        0
176
     1
 90
        0
176
     1
290
     0
176
     1
 90
        1
176
     1
 40
-50.0
176
     1
 90
        0
176
     1
290
     0
176
     1
290
     1
176
     1
290
     1
176
     1
290
     0
176
     1
290
     0
176
     1
290
     0
176
     1
290
     0
176
     1
290
     0
176
     1
290
     0
176
     1
 90
       50
176
     1
 40
0.0
176
     1
 40
1.0
176
     1
 90
        0
176
     1
 62
    18
420
        0
176
     1
 90
       50
176
     1
 90
        3
176
     1
 62
     5
420
      255
176
     1
290
     0
176
     1
 90
       50
176
     1
 90
       50
176
     1
 90
       50
176
     1
290
     0
176
     1
 90
       50
176
     1
 62
   256
176
     0
 40
1.0
176
     0
 90
        2
176
     1
  1
strokes_ogs.tif
176
     1
290
     0
176
     1
 40
1.0
176
     1
 40
1.0
176
     1
  0
VISUALSTYLE
  5
1E6
102
{ACAD_REACTORS
330
EF
102
}
330
EF
100
AcDbVisualStyle
  2
EdgeColorOff
 70
    22
177
     3
291
     1
 70
    58
 90
        2
176
     0
 90
        2
176
     0
 90
        0
176
     0
 90
        0
176
     0
 40
0.6
176
     0
 40
30.0
176
     0
 62
     7
420
 16777215
176
     0
 90
        1
176
     0
 90
        4
176
     0
 62
     7
176
     0
 62
   257
176
     0
 90
        1
176
     0
 90
        1
176
     0
 40
1.0
176
     0
 90
        8
176
     2
 62
     7
176
     0
 40
1.0
176
     0
 90
        1
176
     0
 90
        6
176
     0
 90
        2
176
     0
 62
     7
176
     0
 90
        5
176
     0
 90
        0
176
     0
 90
        0
176
     0
290
     0
176
     0
 90
        1
176
     0
 40
0.0
176
     0
 90
        0
176
     0
290
     0
176
     1
290
     1
176
     1
290
     1
176
     1
290
     0
176
     1
290
     0
176
     1
290
     0
176
     1
290
     0
176
     1
290
     0
176
     1
290
     0
176
     1
 90
       50
176
     1
 40
0.0
176
     1
 40
1.0
176
     1
 90
        0
176
     1
 62
    18
420
        0
176
     1
 90
       50
176
     1
 90
        3
176
     1
 62
     5
420
      255
176
     1
290
     0
176
     1
 90
       50
176
     1
 90
       50
176
     1
 90
       50
176
     1
290
     0
176
     1
 90
       50
176
     1
 62
   256
176
     0
 40
1.0
176
     0
 90
        2
176
     1
  1
strokes_ogs.tif
176
     1
290
     0
176
     1
 40
1.0
176
     1
 40
1.0
176
     1
  0
VISUALSTYLE
  5
FE
102
{ACAD_REACTORS
330
EF
102
}
330
EF
100
AcDbVisualStyle
  2
Facepattern
 70
    15
177
     3
291
     1
 70
    58
 90
        2
176
     1
 90
        2
176
     1
 90
        1
176
     1
 90
        0
176
     1
 40
0.6
176
     1
 40
30.0
176
     1
 62
     7
420
 16777215
176
     1
 90
        1
176
     1
 90
        4
176
     1
 62
     7
176
     1
 62
   257
176
     1
 90
        1
176
     1
 90
        1
176
     1
 40
1.0
176
     1
 90
        8
176
     1
 62
     7
176
     1
 40
1.0
176
     1
 90
        1
176
     1
 90
        6
176
     1
 90
        2
176
     1
 62
     7
176
     1
 90
        5
176
     1
 90
        0
176
     1
 90
        0
176
     1
290
     0
176
     1
 90
        1
176
     1
 40
0.0
176
     1
 90
        0
176
     1
290
     0
176
     1
290
     1
176
     1
290
     1
176
     1
290
     0
176
     1
290
     0
176
     1
290
     0
176
     1
290
     0
176
     1
290
     0
176
     1
290
     0
176
     1
 90
       50
176
     1
 40
0.0
176
     1
 40
1.0
176
     1
 90
        0
176
     1
 62
    18
420
        0
176
     1
 90
       50
176
     1
 90
        3
176
     1
 62
     5
420
      255
176
     1
290
     0
176
     1
 90
       50
176
     1
 90
       50
176
     1
 90
       50
176
     1
290
     0
176
     1
 90
       50
176
     1
 62
   256
176
     0
 40
1.0
176
     0
 90
        2
176
     1
  1
strokes_ogs.tif
176
     1
290
     0
176
     1
 40
1.0
176
     1
 40
1.0
176
     1
  0
VISUALSTYLE
  5
F0
102
{ACAD_REACTORS
330
EF
102
}
330
EF
100
AcDbVisualStyle
  2
Flat
 70
     0
177
     3
291
     1
 70
    58
 90
        2
176
     1
 90
        1
176
     1
 90
        1
176
     1
 90
        2
176
     1
 40
0.6
176
     1
 40
30.0
176
     1
 62
     7
420
 16777215
176
     1
 90
        0
176
     1
 90
        0
176
     1
 62
     7
176
     1
 62
   257
176
     1
 90
        1
176
     1
 90
        1
176
     1
 40
1.0
176
     1
 90
        8
176
     1
 62
     7
176
     1
 40
1.0
176
     1
 90
        1
176
     1
 90
        6
176
     1
 90
        2
176
     1
 62
     7
176
     1
 90
        5
176
     1
 90
        0
176
     1
 90
        0
176
     1
290
     0
176
     1
 90
       13
176
     1
 40
0.0
176
     1
 90
        0
176
     1
290
     0
176
     1
290
     1
176
     1
290
     1
176
     1
290
     0
176
     1
290
     0
176
     1
290
     0
176
     1
290
     0
176
     1
290
     0
176
     1
290
     0
176
     1
 90
       50
176
     1
 40
0.0
176
     1
 40
1.0
176
     1
 90
        0
176
     1
 62
    18
420
        0
176
     1
 90
       50
176
     1
 90
        3
176
     1
 62
     5
420
      255
176
     1
290
     0
176
     1
 90
       50
176
     1
 90
       50
176
     1
 90
       50
176
     1
290
     0
176
     1
 90
       50
176
     1
 62
   256
176
     0
 40
1.0
176
     0
 90
        2
176
     1
  1
strokes_ogs.tif
176
     1
290
     0
176
     1
 40
1.0
176
     1
 40
1.0
176
     1
  0
VISUALSTYLE
  5
F1
102
{ACAD_REACTORS
330
EF
102
}
330
EF
100
AcDbVisualStyle
  2
FlatWithEdges
 70
     1
177
     3
291
     1
 70
    58
 90
        2
176
     1
 90
        1
176
     1
 90
        1
176
     1
 90
        2
176
     1
 40
0.6
176
     1
 40
30.0
176
     1
 62
     7
420
 16777215
176
     1
 90
        1
176
     1
 90
        0
176
     1
 62
     7
176
     1
 62
   257
176
     1
 90
        1
176
     1
 90
        1
176
     1
 40
1.0
176
     1
 90
        0
176
     1
 62
   257
176
     1
 40
1.0
176
     1
 90
        1
176
     1
 90
        6
176
     1
 90
        2
176
     1
 62
     7
176
     1
 90
        5
176
     1
 90
        0
176
     1
 90
        0
176
     1
290
     0
176
     1
 90
       13
176
     1
 40
0.0
176
     1
 90
        0
176
     1
290
     0
176
     1
290
     1
176
     1
290
     1
176
     1
290
     0
176
     1
290
     0
176
     1
290
     0
176
     1
290
     0
176
     1
290
     0
176
     1
290
     0
176
     1
 90
       50
176
     1
 40
0.0
176
     1
 40
1.0
176
     1
 90
        0
176
     1
 62
    18
420
        0
176
     1
 90
       50
176
     1
 90
        3
176
     1
 62
     5
420
      255
176
     1
290
     0
176
     1
 90
       50
176
     1
 90
       50
176
     1
 90
       50
176
     1
290
     0
176
     1
 90
       50
176
     1
 62
   256
176
     0
 40
1.0
176
     0
 90
        2
176
     1
  1
strokes_ogs.tif
176
     1
290
     0
176
     1
 40
1.0
176
     1
 40
1.0
176
     1
  0
VISUALSTYLE
  5
F2
102
{ACAD_REACTORS
330
EF
102
}
330
EF
100
AcDbVisualStyle
  2
Gouraud
 70
     2
177
     3
291
     1
 70
    58
 90
        2
176
     1
 90
        2
176
     1
 90
        1
176
     1
 90
        2
176
     1
 40
0.6
176
     1
 40
30.0
176
     1
 62
     7
420
 16777215
176
     1
 90
        0
176
     1
 90
        0
176
     1
 62
     7
176
     1
 62
   257
176
     1
 90
        1
176
     1
 90
        1
176
     1
 40
1.0
176
     1
 90
        0
176
     1
 62
     7
176
     1
 40
1.0
176
     1
 90
        1
176
     1
 90
        6
176
     1
 90
        2
176
     1
 62
     7
176
     1
 90
        5
176
     1
 90
        0
176
     1
 90
        0
176
     1
290
     0
176
     1
 90
       13
176
     1
 40
0.0
176
     1
 90
        0
176
     1
290
     0
176
     1
290
     1
176
     1
290
     1
176
     1
290
     0
176
     1
290
     0
176
     1
290
     0
176
     1
290
     0
176
     1
290
     0
176
     1
290
     0
176
     1
 90
       50
176
     1
 40
0.0
176
     1
 40
1.0
176
     1
 90
        0
176
     1
 62
    18
420
        0
176
     1
 90
       50
176
     1
 90
        3
176
     1
 62
     5
420
      255
176
     1
290
     0
176
     1
 90
       50
176
     1
 90
       50
176
     1
 90
       50
176
     1
290
     0
176
     1
 90
       50
176
     1
 62
   256
176
     0
 40
1.0
176
     0
 90
        2
176
     1
  1
strokes_ogs.tif
176
     1
290
     0
176
     1
 40
1.0
176
     1
 40
1.0
176
     1
  0
VISUALSTYLE
  5
F3
102
{ACAD_REACTORS
330
EF
102
}
330
EF
100
AcDbVisualStyle
  2
GouraudWithEdges
 70
     3
177
     3
291
     1
 70
    58
 90
        2
176
     1
 90
        2
176
     1
 90
        1
176
     1
 90
        2
176
     1
 40
0.6
176
     1
 40
30.0
176
     1
 62
     7
420
 16777215
176
     1
 90
        1
176
     1
 90
        0
176
     1
 62
     7
176
     1
 62
   257
176
     1
 90
        1
176
     1
 90
        1
176
     1
 40
1.0
176
     1
 90
        0
176
     1
 62
   257
176
     1
 40
1.0
176
     1
 90
        1
176
     1
 90
        6
176
     1
 90
        2
176
     1
 62
     7
176
     1
 90
        5
176
     1
 90
        0
176
     1
 90
        0
176
     1
290
     0
176
     1
 90
       13
176
     1
 40
0.0
176
     1
 90
        0
176
     1
290
     0
176
     1
290
     1
176
     1
290
     1
176
     1
290
     0
176
     1
290
     0
176
     1
290
     0
176
     1
290
     0
176
     1
290
     0
176
     1
290
     0
176
     1
 90
       50
176
     1
 40
0.0
176
     1
 40
1.0
176
     1
 90
        0
176
     1
 62
    18
420
        0
176
     1
 90
       50
176
     1
 90
        3
176
     1
 62
     5
420
      255
176
     1
290
     0
176
     1
 90
       50
176
     1
 90
       50
176
     1
 90
       50
176
     1
290
     0
176
     1
 90
       50
176
     1
 62
   256
176
     0
 40
1.0
176
     0
 90
        2
176
     1
  1
strokes_ogs.tif
176
     1
290
     0
176
     1
 40
1.0
176
     1
 40
1.0
176
     1
  0
VISUALSTYLE
  5
F7
102
{ACAD_REACTORS
330
EF
102
}
330
EF
100
AcDbVisualStyle
  2
Hidden
 70
     6
177
     3
291
     0
 70
    58
 90
        1
176
     1
 90
        2
176
     1
 90
        2
176
     1
 90
        0
176
     1
 40
0.6
176
     1
 40
30.0
176
     1
 62
     7
420
 16777215
176
     1
 90
        2
176
     1
 90
        2
176
     1
 62
     7
176
     1
 62
   257
176
     1
 90
        2
176
     1
 90
        1
176
     1
 40
40.0
176
     1
 90
        0
176
     1
 62
   257
176
     1
 40
1.0
176
     1
 90
        1
176
     1
 90
        6
176
     1
 90
        2
176
     1
 62
     7
176
     1
 90
        3
176
     1
 90
        0
176
     1
 90
        0
176
     1
290
     0
176
     1
 90
        1
176
     1
 40
0.0
176
     1
 90
        0
176
     1
290
     0
176
     1
290
     1
176
     1
290
     1
176
     1
290
     0
176
     1
290
     0
176
     1
290
     0
176
     1
290
     0
176
     1
290
     0
176
     1
290
     0
176
     1
 90
       50
176
     1
 40
0.0
176
     1
 40
1.0
176
     1
 90
        0
176
     1
 62
    18
420
        0
176
     1
 90
       50
176
     1
 90
        3
176
     1
 62
     5
420
      255
176
     1
290
     0
176
     1
 90
       50
176
     1
 90
       50
176
     1
 90
       50
176
     1
290
     0
176
     1
 90
       50
176
     1
 62
   256
176
     0
 40
1.0
176
     0
 90
        2
176
     1
  1
strokes_ogs.tif
176
     1
290
     0
176
     1
 40
1.0
176
     1
 40
1.0
176
     1
  0
VISUALSTYLE
  5
1E4
102
{ACAD_REACTORS
330
EF
102
}
330
EF
100
AcDbVisualStyle
  2
JitterOff
 70
    20
177
     3
291
     1
 70
    58
 90
        2
176
     0
 90
        2
176
     0
 90
        0
176
     0
 90
        0
176
     0
 40
0.6
176
     0
 40
30.0
176
     0
 62
     7
420
 16777215
176
     0
 90
        1
176
     0
 90
        4
176
     0
 62
     7
176
     0
 62
   257
176
     0
 90
        1
176
     0
 90
        1
176
     0
 40
1.0
176
     0
 90
       10
176
     2
 62
     7
176
     0
 40
1.0
176
     0
 90
        1
176
     0
 90
        6
176
     0
 90
        2
176
     0
 62
     7
176
     0
 90
        5
176
     0
 90
        0
176
     0
 90
        0
176
     0
290
     0
176
     0
 90
        1
176
     0
 40
0.0
176
     0
 90
        0
176
     0
290
     0
176
     1
290
     1
176
     1
290
     1
176
     1
290
     0
176
     1
290
     0
176
     1
290
     0
176
     1
290
     0
176
     1
290
     0
176
     1
290
     0
176
     1
 90
       50
176
     1
 40
0.0
176
     1
 40
1.0
176
     1
 90
        0
176
     1
 62
    18
420
        0
176
     1
 90
       50
176
     1
 90
        3
176
     1
 62
     5
420
      255
176
     1
290
     0
176
     1
 90
       50
176
     1
 90
       50
176
     1
 90
       50
176
     1
290
     0
176
     1
 90
       50
176
     1
 62
   256
176
     0
 40
1.0
176
     0
 90
        2
176
     1
  1
strokes_ogs.tif
176
     1
290
     0
176
     1
 40
1.0
176
     1
 40
1.0
176
     1
  0
VISUALSTYLE
  5
FD
102
{ACAD_REACTORS
330
EF
102
}
330
EF
100
AcDbVisualStyle
  2
Linepattern
 70
    14
177
     3
291
     1
 70
    58
 90
        2
176
     1
 90
        2
176
     1
 90
        1
176
     1
 90
        0
176
     1
 40
0.6
176
     1
 40
30.0
176
     1
 62
     7
420
 16777215
176
     1
 90
        1
176
     1
 90
        4
176
     1
 62
     7
176
     1
 62
   257
176
     1
 90
        7
176
     1
 90
        7
176
     1
 40
1.0
176
     1
 90
        8
176
     1
 62
     7
176
     1
 40
1.0
176
     1
 90
        1
176
     1
 90
        6
176
     1
 90
        2
176
     1
 62
     7
176
     1
 90
        5
176
     1
 90
        0
176
     1
 90
        0
176
     1
290
     0
176
     1
 90
        1
176
     1
 40
0.0
176
     1
 90
        0
176
     1
290
     0
176
     1
290
     1
176
     1
290
     1
176
     1
290
     0
176
     1
290
     0
176
     1
290
     0
176
     1
290
     0
176
     1
290
     0
176
     1
290
     0
176
     1
 90
       50
176
     1
 40
0.0
176
     1
 40
1.0
176
     1
 90
        0
176
     1
 62
    18
420
        0
176
     1
 90
       50
176
     1
 90
        3
176
     1
 62
     5
420
      255
176
     1
290
     0
176
     1
 90
       50
176
     1
 90
       50
176
     1
 90
       50
176
     1
290
     0
176
     1
 90
       50
176
     1
 62
   256
176
     0
 40
1.0
176
     0
 90
        2
176
     1
  1
strokes_ogs.tif
176
     1
290
     0
176
     1
 40
1.0
176
     1
 40
1.0
176
     1
  0
VISUALSTYLE
  5
1E5
102
{ACAD_REACTORS
330
EF
102
}
330
EF
100
AcDbVisualStyle
  2
OverhangOff
 70
    21
177
     3
291
     1
 70
    58
 90
        2
176
     0
 90
        2
176
     0
 90
        0
176
     0
 90
        0
176
     0
 40
0.6
176
     0
 40
30.0
176
     0
 62
     7
420
 16777215
176
     0
 90
        1
176
     0
 90
        4
176
     0
 62
     7
176
     0
 62
   257
176
     0
 90
        1
176
     0
 90
        1
176
     0
 40
1.0
176
     0
 90
        9
176
     2
 62
     7
176
     0
 40
1.0
176
     0
 90
        1
176
     0
 90
        6
176
     0
 90
        2
176
     0
 62
     7
176
     0
 90
        5
176
     0
 90
        0
176
     0
 90
        0
176
     0
290
     0
176
     0
 90
        1
176
     0
 40
0.0
176
     0
 90
        0
176
     0
290
     0
176
     1
290
     1
176
     1
290
     1
176
     1
290
     0
176
     1
290
     0
176
     1
290
     0
176
     1
290
     0
176
     1
290
     0
176
     1
290
     0
176
     1
 90
       50
176
     1
 40
0.0
176
     1
 40
1.0
176
     1
 90
        0
176
     1
 62
    18
420
        0
176
     1
 90
       50
176
     1
 90
        3
176
     1
 62
     5
420
      255
176
     1
290
     0
176
     1
 90
       50
176
     1
 90
       50
176
     1
 90
       50
176
     1
290
     0
176
     1
 90
       50
176
     1
 62
   256
176
     0
 40
1.0
176
     0
 90
        2
176
     1
  1
strokes_ogs.tif
176
     1
290
     0
176
     1
 40
1.0
176
     1
 40
1.0
176
     1
  0
VISUALSTYLE
  5
F9
102
{ACAD_REACTORS
330
EF
102
}
330
EF
100
AcDbVisualStyle
  2
Realistic
 70
     8
177
     3
291
     0
 70
    58
 90
        2
176
     1
 90
        3
176
     1
 90
        0
176
     1
 90
        2
176
     1
 40
0.6
176
     1
 40
30.0
176
     1
 62
     7
420
 16777215
176
     1
 90
        0
176
     1
 90
        0
176
     1
 62
     7
176
     1
 62
   257
176
     1
 90
        1
176
     1
 90
        1
176
     1
 40
1.0
176
     1
 90
        8
176
     1
 62
   257
176
     1
 40
1.0
176
     1
 90
        1
176
     1
 90
        6
176
     1
 90
        2
176
     1
 62
     7
176
     1
 90
        3
176
     1
 90
        0
176
     1
 90
        0
176
     1
290
     0
176
     1
 90
       13
176
     1
 40
0.0
176
     1
 90
        0
176
     1
290
     0
176
     1
290
     1
176
     1
290
     1
176
     1
290
     0
176
     1
290
     0
176
     1
290
     0
176
     1
290
     0
176
     1
290
     0
176
     1
290
     0
176
     1
 90
       50
176
     1
 40
0.0
176
     1
 40
1.0
176
     1
 90
        0
176
     1
 62
    18
420
        0
176
     1
 90
       50
176
     1
 90
        3
176
     1
 62
     5
420
      255
176
     1
290
     0
176
     1
 90
       50
176
     1
 90
       50
176
     1
 90
       50
176
     1
290
     0
176
     1
 90
       50
176
     1
 62
   256
176
     0
 40
1.0
176
     0
 90
        2
176
     1
  1
strokes_ogs.tif
176
     1
290
     0
176
     1
 40
1.0
176
     1
 40
1.0
176
     1
  0
VISUALSTYLE
  5
1F3
102
{ACAD_REACTORS
330
EF
102
}
330
EF
100
AcDbVisualStyle
  2
Shaded
 70
    27
177
     3
291
     0
 70
    58
 90
        2
176
     1
 90
        2
176
     1
 90
        1
176
     1
 90
        2
176
     1
 40
0.6
176
     1
 40
30.0
176
     1
 62
     7
420
 16777215
176
     1
 90
        0
176
     1
 90
        4
176
     1
 62
     7
176
     1
 62
   257
176
     1
 90
        1
176
     1
 90
        1
176
     1
 40
1.0
176
     1
 90
        8
176
     1
 62
   257
176
     1
 40
1.0
176
     1
 90
        1
176
     1
 90
        6
176
     1
 90
        2
176
     1
 62
     8
420
  7895160
176
     1
 90
        3
176
     1
 90
        0
176
     1
 90
        0
176
     1
290
     0
176
     1
 90
        5
176
     1
 40
0.0
176
     1
 90
        0
176
     1
290
     0
176
     1
290
     1
176
     1
290
     1
176
     1
290
     0
176
     1
290
     0
176
     1
290
     0
176
     1
290
     0
176
     1
290
     0
176
     1
290
     0
176
     1
 90
       50
176
     1
 40
0.0
176
     1
 40
1.0
176
     1
 90
        0
176
     1
 62
    18
420
        0
176
     1
 90
       50
176
     1
 90
        3
176
     1
 62
     5
420
      255
176
     1
290
     0
176
     1
 90
       50
176
     1
 90
       50
176
     1
 90
       50
176
     1
290
     0
176
     1
 90
       50
176
     1
 62
   256
176
     0
 40
1.0
176
     0
 90
        2
176
     1
  1
strokes_ogs.tif
176
     1
290
     0
176
     1
 40
1.0
176
     1
 40
1.0
176
     1
  0
VISUALSTYLE
  5
1F2
102
{ACAD_REACTORS
330
EF
102
}
330
EF
100
AcDbVisualStyle
  2
Shaded with edges
 70
    26
177
     3
291
     0
 70
    58
 90
        2
176
     1
 90
        2
176
     1
 90
        1
176
     1
 90
        2
176
     1
 40
0.6
176
     1
 40
30.0
176
     1
 62
     7
420
 16777215
176
     1
 90
        1
176
     1
 90
        2
176
     1
 62
     7
176
     1
 62
   257
176
     1
 90
        2
176
     1
 90
        1
176
     1
 40
1.0
176
     1
 90
        8
176
     1
 62
   257
176
     1
 40
1.0
176
     1
 90
        1
176
     1
 90
        6
176
     1
 90
        2
176
     1
 62
     7
176
     1
 90
        3
176
     1
 90
        0
176
     1
 90
        0
176
     1
290
     0
176
     1
 90
        5
176
     1
 40
0.0
176
     1
 90
        0
176
     1
290
     0
176
     1
290
     1
176
     1
290
     1
176
     1
290
     0
176
     1
290
     0
176
     1
290
     0
176
     1
290
     0
176
     1
290
     0
176
     1
290
     0
176
     1
 90
       50
176
     1
 40
0.0
176
     1
 40
1.0
176
     1
 90
        0
176
     1
 62
    18
420
        0
176
     1
 90
       50
176
     1
 90
        3
176
     1
 62
     5
420
      255
176
     1
290
     0
176
     1
 90
       50
176
     1
 90
       50
176
     1
 90
       50
176
     1
290
     0
176
     1
 90
       50
176
     1
 62
   256
176
     0
 40
1.0
176
     0
 90
        2
176
     1
  1
strokes_ogs.tif
176
     1
290
     0
176
     1
 40
1.0
176
     1
 40
1.0
176
     1
  0
VISUALSTYLE
  5
1EF
102
{ACAD_REACTORS
330
EF
102
}
330
EF
100
AcDbVisualStyle
  2
Shades of Gray
 70
    23
177
     3
291
     0
 70
    58
 90
        2
176
     1
 90
        2
176
     1
 90
        3
176
     1
 90
        0
176
     1
 40
0.6
176
     1
 40
30.0
176
     1
 62
     7
420
 16777215
176
     1
 90
        2
176
     1
 90
        2
176
     1
 62
     7
176
     1
 62
     7
176
     1
 90
        1
176
     1
 90
        1
176
     1
 40
40.0
176
     1
 90
        8
176
     1
 62
     7
176
     1
 40
1.0
176
     1
 90
        1
176
     1
 90
        6
176
     1
 90
        2
176
     1
 62
     7
176
     1
 90
        3
176
     1
 90
        0
176
     1
 90
        0
176
     1
290
     0
176
     1
 90
        1
176
     1
 40
0.0
176
     1
 90
        0
176
     1
290
     0
176
     1
290
     1
176
     1
290
     1
176
     1
290
     0
176
     1
290
     0
176
     1
290
     0
176
     1
290
     0
176
     1
290
     0
176
     1
290
     0
176
     1
 90
       50
176
     1
 40
0.0
176
     1
 40
1.0
176
     1
 90
        0
176
     1
 62
    18
420
        0
176
     1
 90
       50
176
     1
 90
        3
176
     1
 62
     5
420
      255
176
     1
290
     0
176
     1
 90
       50
176
     1
 90
       50
176
     1
 90
       50
176
     1
290
     0
176
     1
 90
       50
176
     1
 62
   256
176
     0
 40
1.0
176
     0
 90
        2
176
     1
  1
strokes_ogs.tif
176
     1
290
     0
176
     1
 40
1.0
176
     1
 40
1.0
176
     1
  0
VISUALSTYLE
  5
1F0
102
{ACAD_REACTORS
330
EF
102
}
330
EF
100
AcDbVisualStyle
  2
Sketchy
 70
    24
177
     3
291
     0
 70
    58
 90
        1
176
     1
 90
        2
176
     1
 90
        2
176
     1
 90
        0
176
     1
 40
0.6
176
     1
 40
30.0
176
     1
 62
     7
420
 16777215
176
     1
 90
        2
176
     1
 90
        2
176
     1
 62
     7
176
     1
 62
     7
176
     1
 90
        1
176
     1
 90
        1
176
     1
 40
40.0
176
     1
 90
       11
176
     1
 62
     7
176
     1
 40
1.0
176
     1
 90
        1
176
     1
 90
        6
176
     1
 90
        2
176
     1
 62
     7
176
     1
 90
        6
176
     1
 90
        0
176
     1
 90
        0
176
     1
290
     0
176
     1
 90
        1
176
     1
 40
0.0
176
     1
 90
        0
176
     1
290
     0
176
     1
290
     1
176
     1
290
     1
176
     1
290
     0
176
     1
290
     0
176
     1
290
     0
176
     1
290
     0
176
     1
290
     0
176
     1
290
     0
176
     1
 90
       50
176
     1
 40
0.0
176
     1
 40
1.0
176
     1
 90
        0
176
     1
 62
    18
420
        0
176
     1
 90
       50
176
     1
 90
        3
176
     1
 62
     5
420
      255
176
     1
290
     0
176
     1
 90
       50
176
     1
 90
       50
176
     1
 90
       50
176
     1
290
     0
176
     1
 90
       50
176
     1
 62
   256
176
     0
 40
1.0
176
     0
 90
        2
176
     1
  1
strokes_ogs.tif
176
     1
290
     0
176
     1
 40
1.0
176
     1
 40
1.0
176
     1
  0
VISUALSTYLE
  5
FC
102
{ACAD_REACTORS
330
EF
102
}
330
EF
100
AcDbVisualStyle
  2
Thicken
 70
    13
177
     3
291
     1
 70
    58
 90
        2
176
     1
 90
        2
176
     1
 90
        1
176
     1
 90
        0
176
     1
 40
0.6
176
     1
 40
30.0
176
     1
 62
     7
420
 16777215
176
     1
 90
        1
176
     1
 90
        4
176
     1
 62
     7
176
     1
 62
   257
176
     1
 90
        1
176
     1
 90
        1
176
     1
 40
1.0
176
     1
 90
       12
176
     1
 62
     7
176
     1
 40
1.0
176
     1
 90
        1
176
     1
 90
        6
176
     1
 90
        2
176
     1
 62
     7
176
     1
 90
        5
176
     1
 90
        0
176
     1
 90
        0
176
     1
290
     0
176
     1
 90
        1
176
     1
 40
0.0
176
     1
 90
        0
176
     1
290
     0
176
     1
290
     1
176
     1
290
     1
176
     1
290
     0
176
     1
290
     0
176
     1
290
     0
176
     1
290
     0
176
     1
290
     0
176
     1
290
     0
176
     1
 90
       50
176
     1
 40
0.0
176
     1
 40
1.0
176
     1
 90
        0
176
     1
 62
    18
420
        0
176
     1
 90
       50
176
     1
 90
        3
176
     1
 62
     5
420
      255
176
     1
290
     0
176
     1
 90
       50
176
     1
 90
       50
176
     1
 90
       50
176
     1
290
     0
176
     1
 90
       50
176
     1
 62
   256
176
     0
 40
1.0
176
     0
 90
        2
176
     1
  1
strokes_ogs.tif
176
     1
290
     0
176
     1
 40
1.0
176
     1
 40
1.0
176
     1
  0
VISUALSTYLE
  5
F6
102
{ACAD_REACTORS
330
EF
102
}
330
EF
100
AcDbVisualStyle
  2
Wireframe
 70
     5
177
     3
291
     0
 70
    58
 90
        0
176
     1
 90
        2
176
     1
 90
        0
176
     1
 90
        0
176
     1
 40
0.6
176
     1
 40
30.0
176
     1
 62
     7
420
 16777215
176
     1
 90
        1
176
     1
 90
        4
176
     1
 62
     7
176
     1
 62
   257
176
     1
 90
        1
176
     1
 90
        1
176
     1
 40
1.0
176
     1
 90
        0
176
     1
 62
   257
176
     1
 40
1.0
176
     1
 90
        1
176
     1
 90
        6
176
     1
 90
        2
176
     1
 62
     7
176
     1
 90
        3
176
     1
 90
        0
176
     1
 90
        0
176
     1
290
     0
176
     1
 90
        1
176
     1
 40
0.0
176
     1
 90
        0
176
     1
290
     0
176
     1
290
     1
176
     1
290
     1
176
     1
290
     0
176
     1
290
     0
176
     1
290
     0
176
     1
290
     0
176
     1
290
     0
176
     1
290
     0
176
     1
 90
       50
176
     1
 40
0.0
176
     1
 40
1.0
176
     1
 90
        0
176
     1
 62
    18
420
        0
176
     1
 90
       50
176
     1
 90
        3
176
     1
 62
     5
420
      255
176
     1
290
     0
176
     1
 90
       50
176
     1
 90
       50
176
     1
 90
       50
176
     1
290
     0
176
     1
 90
       50
176
     1
 62
   256
176
     0
 40
1.0
176
     0
 90
        2
176
     1
  1
strokes_ogs.tif
176
     1
290
     0
176
     1
 40
1.0
176
     1
 40
1.0
176
     1
  0
VISUALSTYLE
  5
1F1
102
{ACAD_REACTORS
330
EF
102
}
330
EF
100
AcDbVisualStyle
  2
X-Ray
 70
    25
177
     3
291
     0
 70
    58
 90
        2
176
     1
 90
        2
176
     1
 90
        1
176
     1
 90
        1
176
     1
 40
0.5
176
     1
 40
30.0
176
     1
 62
     7
420
 16777215
176
     1
 90
        1
176
     1
 90
        0
176
     1
 62
     7
176
     1
 62
   257
176
     1
 90
        1
176
     1
 90
        1
176
     1
 40
1.0
176
     1
 90
        8
176
     1
 62
     7
176
     1
 40
1.0
176
     1
 90
        1
176
     1
 90
        6
176
     1
 90
        2
176
     1
 62
     7
176
     1
 90
        3
176
     1
 90
        0
176
     1
 90
        0
176
     1
290
     0
176
     1
 90
       13
176
     1
 40
0.0
176
     1
 90
        0
176
     1
290
     0
176
     1
290
     1
176
     1
290
     1
176
     1
290
     0
176
     1
290
     0
176
     1
290
     0
176
     1
290
     0
176
     1
290
     0
176
     1
290
     0
176
     1
 90
       50
176
     1
 40
0.0
176
     1
 40
1.0
176
     1
 90
        0
176
     1
 62
    18
420
        0
176
     1
 90
       50
176
     1
 90
        3
176
     1
 62
     5
420
      255
176
     1
290
     0
176
     1
 90
       50
176
     1
 90
       50
176
     1
 90
       50
176
     1
290
     0
176
     1
 90
       50
176
     1
 62
   256
176
     0
 40
1.0
176
     0
 90
        2
176
     1
  1
strokes_ogs.tif
176
     1
290
     0
176
     1
 40
1.0
176
     1
 40
1.0
176
     1
  0
DICTIONARYVAR
  5
146
102
{ACAD_REACTORS
330
5E
102
}
330
5E
100
DictionaryVariables
280
     0
  1
1:1
  0
DICTIONARYVAR
  5
259
102
{ACAD_REACTORS
330
5E
102
}
330
5E
100
DictionaryVariables
280
     0
  1
3.500000
  0
DICTIONARYVAR
  5
25A
102
{ACAD_REACTORS
330
5E
102
}
330
5E
100
DictionaryVariables
280
     0
  1
acadiso.lin
  0
DICTIONARYVAR
  5
145
102
{ACAD_REACTORS
330
5E
102
}
330
5E
100
DictionaryVariables
280
     0
  1
NSマルチ引出線
  0
DICTIONARYVAR
  5
84
102
{ACAD_REACTORS
330
5E
102
}
330
5E
100
DictionaryVariables
280
     0
  1
STANDARD
  0
DICTIONARYVAR
  5
227
102
{ACAD_REACTORS
330
5E
102
}
330
5E
100
DictionaryVariables
280
     0
  1
Metric50
  0
DICTIONARYVAR
  5
228
102
{ACAD_REACTORS
330
5E
102
}
330
5E
100
DictionaryVariables
280
     0
  1
Metric50
  0
DICTIONARYVAR
  5
5F
102
{ACAD_REACTORS
330
5E
102
}
330
5E
100
DictionaryVariables
280
     0
  1
2
  0
DICTIONARYVAR
  5
63
102
{ACAD_REACTORS
330
5E
102
}
330
5E
100
DictionaryVariables
280
     0
  1
1
  0
DICTIONARYVAR
  5
14E9
102
{ACAD_REACTORS
330
5E
102
}
330
5E
100
DictionaryVariables
280
     0
  1
BYLAYER
  0
DICTIONARYVAR
  5
2804
102
{ACAD_REACTORS
330
5E
102
}
330
5E
100
DictionaryVariables
280
     0
  1
ﾊｯﾁ
  0
DICTIONARYVAR
  5
14E8
102
{ACAD_REACTORS
330
5E
102
}
330
5E
100
DictionaryVariables
280
     0
  1
ByLayer
  0
DICTIONARYVAR
  5
1AE
102
{ACAD_REACTORS
330
5E
102
}
330
5E
100
DictionaryVariables
280
     0
  1
0
  0
DICTIONARYVAR
  5
1AF
102
{ACAD_REACTORS
330
5E
102
}
330
5E
100
DictionaryVariables
280
     0
  1
0
  0
DICTIONARYVAR
  5
308
102
{ACAD_REACTORS
330
5E
102
}
330
5E
100
DictionaryVariables
280
     0
  1
中心
  0
XRECORD
  5
345F
102
{ACAD_XDICTIONARY
360
3460
102
}
102
{ACAD_REACTORS
330
200
102
}
330
200
100
AcDbXrecord
280
     1
 91
      535
301

290
     0
302
図面枠
330
0
 90
        8
 62
     8
370
    -3
331
16
  1
色_8
440
        0
330
0
 90
        8
 62
   190
370
    -3
331
16
  1
色_190
440
        0
330
31BC
 90
        8
 62
     7
370
    -3
331
16
  1
色_7
440
        0
330
31BB
 90
        8
 62
     5
370
    -3
331
16
  1
色_5
440
        0
330
31BA
 90
        8
 62
     3
370
    -3
331
16
  1
色_3
440
        0
330
1854
 90
        8
 62
     5
370
    -3
331
16
  1
色_5
440
        0
330
0
 90
        8
 62
     6
370
    -3
331
16
  1
色_6
440
        0
330
0
 90
        8
 62
     6
370
    -3
331
16
  1
色_6
440
        0
330
0
 90
        8
 62
     6
370
    -3
331
16
  1
色_6
440
        0
330
471
 90
        8
 62
    51
370
    -3
331
16
  1
色_51
440
        0
330
45F
 90
        8
 62
     8
370
    -3
331
16
  1
色_8
440
        0
330
45D
 90
        8
 62
     8
370
    -3
331
16
  1
色_8
440
        0
330
0
 90
        8
 62
     4
370
    -3
331
16
  1
色_4
440
        0
330
459
 90
        8
 62
     2
370
    -3
331
16
  1
色_2
440
        0
330
458
 90
        0
 62
     7
370
    -3
331
16
  1
色_7
440
        0
330
0
 90
        8
 62
   250
370
   100
331
16
  1
色_250
440
        0
330
10
 90
        8
 62
     7
370
    -3
331
16
  1
色_7
440
        0
  0
DICTIONARY
  5
4318
102
{ACAD_REACTORS
330
4317
102
}
330
4317
100
AcDbDictionary
281
     1
  3
*A1
350
4319
  0
DICTIONARY
  5
432B
102
{ACAD_REACTORS
330
432A
102
}
330
432A
100
AcDbDictionary
281
     1
  3
*A1
350
432C
  0
DICTIONARY
  5
4330
102
{ACAD_REACTORS
330
432F
102
}
330
432F
100
AcDbDictionary
281
     1
  3
*A1
350
4331
  0
DICTIONARY
  5
441B
102
{ACAD_REACTORS
330
441A
102
}
330
441A
100
AcDbDictionary
281
     1
  3
*A1
350
441C
  0
DICTIONARY
  5
4420
102
{ACAD_REACTORS
330
441F
102
}
330
441F
100
AcDbDictionary
281
     1
  3
*A1
350
4421
  0
DICTIONARY
  5
4425
102
{ACAD_REACTORS
330
4424
102
}
330
4424
100
AcDbDictionary
281
     1
  3
*A1
350
4426
  0
DICTIONARY
  5
4473
102
{ACAD_REACTORS
330
4472
102
}
330
4472
100
AcDbDictionary
281
     1
  3
*A1
350
4474
  0
DICTIONARY
  5
4478
102
{ACAD_REACTORS
330
4477
102
}
330
4477
100
AcDbDictionary
281
     1
  3
*A1
350
4479
  0
DICTIONARY
  5
447D
102
{ACAD_REACTORS
330
447C
102
}
330
447C
100
AcDbDictionary
281
     1
  3
*A1
350
447E
  0
DICTIONARY
  5
4482
102
{ACAD_REACTORS
330
4481
102
}
330
4481
100
AcDbDictionary
281
     1
  3
*A1
350
4483
  0
DICTIONARY
  5
4487
102
{ACAD_REACTORS
330
4486
102
}
330
4486
100
AcDbDictionary
281
     1
  3
*A1
350
4488
  0
DICTIONARY
  5
448C
102
{ACAD_REACTORS
330
448B
102
}
330
448B
100
AcDbDictionary
281
     1
  3
*A1
350
448D
  0
DICTIONARY
  5
449B
102
{ACAD_REACTORS
330
449A
102
}
330
449A
100
AcDbDictionary
281
     1
  3
*A1
350
449C
  0
DICTIONARY
  5
4538
102
{ACAD_REACTORS
330
4537
102
}
330
4537
100
AcDbDictionary
281
     1
  3
*A1
350
4539
  0
DICTIONARY
  5
453D
102
{ACAD_REACTORS
330
453C
102
}
330
453C
100
AcDbDictionary
281
     1
  3
*A1
350
453E
  0
DICTIONARY
  5
456C
102
{ACAD_REACTORS
330
456B
102
}
330
456B
100
AcDbDictionary
281
     1
  3
*A1
350
456D
  0
DICTIONARY
  5
4571
102
{ACAD_REACTORS
330
4570
102
}
330
4570
100
AcDbDictionary
281
     1
  3
*A1
350
4572
  0
DICTIONARY
  5
4576
102
{ACAD_REACTORS
330
4575
102
}
330
4575
100
AcDbDictionary
281
     1
  3
*A1
350
4577
  0
DICTIONARY
  5
457B
102
{ACAD_REACTORS
330
457A
102
}
330
457A
100
AcDbDictionary
281
     1
  3
*A1
350
457C
  0
DICTIONARY
  5
205
330
22
100
AcDbDictionary
280
     1
281
     1
  0
DICTIONARY
  5
1F9
330
ED
100
AcDbDictionary
280
     1
281
     1
  3
FBXASSET
360
1FA
  0
DICTIONARY
  5
1F7
330
EC
100
AcDbDictionary
280
     1
281
     1
  3
FBXASSET
360
1F8
  0
DICTIONARY
  5
173
330
EE
100
AcDbDictionary
280
     1
281
     1
  3
BUMPTILE
360
175
  3
DIFFUSETILE
360
174
  3
FBXASSET
360
1FB
  3
OPACITYTILE
360
176
  3
REFLECTIONTILE
360
177
  0
DICTIONARY
  5
162
330
7F
100
AcDbDictionary
280
     1
281
     1
  3
ACAD_ROUNDTRIP_2008_TABLESTYLE_CELLSTYLEMAP
360
4763
  0
DICTIONARY
  5
3460
330
345F
100
AcDbDictionary
280
     1
281
     1
  3
AcadLayerStateAnnoScale
360
3461
  0
ACDB_MTEXTOBJECTCONTEXTDATA_CLASS
  5
4319
102
{ACAD_REACTORS
330
4318
102
}
330
4318
100
AcDbObjectContextData
 70
     4
290
     1
100
AcDbAnnotScaleObjectContextData
340
10D
 70
     1
 10
1.0
 20
0.0
 30
0.0
 11
6269.804736949271
 21
183.8952056913986
 31
0.0
 40
809.4125234105653
 41
0.0
 42
782.5155104063452
 43
91.20135363464468
 71
     0
  0
ACDB_MTEXTOBJECTCONTEXTDATA_CLASS
  5
432C
102
{ACAD_REACTORS
330
432B
102
}
330
432B
100
AcDbObjectContextData
 70
     4
290
     1
100
AcDbAnnotScaleObjectContextData
340
10D
 70
     1
 10
1.0
 20
0.0
 30
0.0
 11
2381.819152844837
 21
5617.732521540776
 31
0.0
 40
318.1808471552386
 41
0.0
 42
270.840383521066
 43
38.8888888875
 71
     0
  0
ACDB_MTEXTOBJECTCONTEXTDATA_CLASS
  5
4331
102
{ACAD_REACTORS
330
4330
102
}
330
4330
100
AcDbObjectContextData
 70
     4
290
     1
100
AcDbAnnotScaleObjectContextData
340
10D
 70
     1
 10
1.0
 20
0.0
 30
0.0
 11
5081.819152844837
 21
5617.732521540776
 31
0.0
 40
318.1808471552386
 41
0.0
 42
279.13141566967
 43
38.8888888875
 71
     0
  0
ACDB_ALDIMOBJECTCONTEXTDATA_CLASS
  5
441C
102
{ACAD_REACTORS
330
441B
102
}
330
441B
100
AcDbObjectContextData
 70
     4
290
     1
100
AcDbAnnotScaleObjectContextData
340
10D
100
AcDbDimensionObjectContextData
  2
*D4
293
     0
 10
5311.623533949703
 20
4205.771568880463
294
     1
140
0.0
298
     0
291
     0
 70
     0
292
     0
 71
     0
280
     0
295
     0
296
     0
297
     0
100
AcDbAlignedDimensionObjectContextData
 11
5322.66446164411
 21
4269.271568880465
 31
0.0
  0
ACDB_ALDIMOBJECTCONTEXTDATA_CLASS
  5
4421
102
{ACAD_REACTORS
330
4420
102
}
330
4420
100
AcDbObjectContextData
 70
     4
290
     1
100
AcDbAnnotScaleObjectContextData
340
10D
100
AcDbDimensionObjectContextData
  2
*D5
293
     0
 10
5311.623533949703
 20
4332.771568880463
294
     1
140
0.0
298
     0
291
     0
 70
     0
292
     0
 71
     0
280
     0
295
     0
296
     0
297
     0
100
AcDbAlignedDimensionObjectContextData
 11
5322.66446164411
 21
4396.271568880465
 31
0.0
  0
ACDB_ALDIMOBJECTCONTEXTDATA_CLASS
  5
4426
102
{ACAD_REACTORS
330
4425
102
}
330
4425
100
AcDbObjectContextData
 70
     4
290
     1
100
AcDbAnnotScaleObjectContextData
340
10D
100
AcDbDimensionObjectContextData
  2
*D6
293
     0
 10
5311.623533949703
 20
4459.771568880464
294
     1
140
0.0
298
     0
291
     0
 70
     0
292
     0
 71
     0
280
     0
295
     0
296
     0
297
     0
100
AcDbAlignedDimensionObjectContextData
 11
5322.66446164411
 21
4523.271568880465
 31
0.0
  0
ACDB_ALDIMOBJECTCONTEXTDATA_CLASS
  5
4474
102
{ACAD_REACTORS
330
4473
102
}
330
4473
100
AcDbObjectContextData
 70
     4
290
     1
100
AcDbAnnotScaleObjectContextData
340
10D
100
AcDbDimensionObjectContextData
  2
*D7
293
     0
 10
4122.881667064372
 20
5188.811690720399
294
     1
140
0.0
298
     0
291
     0
 70
     0
292
     0
 71
     0
280
     0
295
     0
296
     0
297
     0
100
AcDbAlignedDimensionObjectContextData
 11
4351.631667064371
 21
5175.833518824082
 31
0.0
  0
ACDB_ALDIMOBJECTCONTEXTDATA_CLASS
  5
4479
102
{ACAD_REACTORS
330
4478
102
}
330
4478
100
AcDbObjectContextData
 70
     4
290
     1
100
AcDbAnnotScaleObjectContextData
340
10D
100
AcDbDimensionObjectContextData
  2
*D8
293
     0
 10
3894.131667064372
 20
5262.523737403308
294
     1
140
0.0
298
     0
291
     0
 70
     0
292
     0
 71
     0
280
     0
295
     0
296
     0
297
     0
100
AcDbAlignedDimensionObjectContextData
 11
3436.631667064372
 21
5251.312277648874
 31
0.0
  0
ACDB_TEXTOBJECTCONTEXTDATA_CLASS
  5
447E
102
{ACAD_REACTORS
330
447D
102
}
330
447D
100
AcDbObjectContextData
 70
     4
290
     1
100
AcDbAnnotScaleObjectContextData
340
10D
 70
     0
 50
0.0
 10
4675.479965080914
 20
5155.626949193568
 11
0.0
 21
0.0
  0
ACDB_TEXTOBJECTCONTEXTDATA_CLASS
  5
4483
102
{ACAD_REACTORS
330
4482
102
}
330
4482
100
AcDbObjectContextData
 70
     4
290
     1
100
AcDbAnnotScaleObjectContextData
340
10D
 70
     0
 50
0.0
 10
4894.701112219355
 20
4996.409529141573
 11
0.0
 21
0.0
  0
ACDB_TEXTOBJECTCONTEXTDATA_CLASS
  5
4488
102
{ACAD_REACTORS
330
4487
102
}
330
4487
100
AcDbObjectContextData
 70
     4
290
     1
100
AcDbAnnotScaleObjectContextData
340
10D
 70
     0
 50
0.0
 10
4908.530460834026
 20
4743.079143245255
 11
0.0
 21
0.0
  0
ACDB_TEXTOBJECTCONTEXTDATA_CLASS
  5
448D
102
{ACAD_REACTORS
330
448C
102
}
330
448C
100
AcDbObjectContextData
 70
     4
290
     1
100
AcDbAnnotScaleObjectContextData
340
10D
 70
     0
 50
0.0
 10
5210.016692982627
 20
4763.759010187306
 11
0.0
 21
0.0
  0
ACDB_TEXTOBJECTCONTEXTDATA_CLASS
  5
449C
102
{ACAD_REACTORS
330
449B
102
}
330
449B
100
AcDbObjectContextData
 70
     4
290
     1
100
AcDbAnnotScaleObjectContextData
340
10D
 70
     0
 50
0.0
 10
4094.408695665501
 20
4033.497464244283
 11
0.0
 21
0.0
  0
ACDB_TEXTOBJECTCONTEXTDATA_CLASS
  5
4539
102
{ACAD_REACTORS
330
4538
102
}
330
4538
100
AcDbObjectContextData
 70
     4
290
     1
100
AcDbAnnotScaleObjectContextData
340
10D
 70
     0
 50
0.0
 10
1534.737269375269
 20
4845.603023394541
 11
0.0
 21
0.0
  0
ACDB_TEXTOBJECTCONTEXTDATA_CLASS
  5
453E
102
{ACAD_REACTORS
330
453D
102
}
330
453D
100
AcDbObjectContextData
 70
     4
290
     1
100
AcDbAnnotScaleObjectContextData
340
10D
 70
     0
 50
0.0
 10
1549.745870929488
 20
4874.013908461114
 11
0.0
 21
0.0
  0
ACDB_MTEXTOBJECTCONTEXTDATA_CLASS
  5
456D
102
{ACAD_REACTORS
330
456C
102
}
330
456C
100
AcDbObjectContextData
 70
     4
290
     1
100
AcDbAnnotScaleObjectContextData
340
10D
 70
     1
 10
1.0
 20
0.0
 30
0.0
 11
7163.634840644597
 21
259.1220996506818
 31
0.0
 40
924.2786064256533
 41
0.0
 42
397.179921023604
 43
46.58770445406091
 71
     0
  0
ACDB_MTEXTOBJECTCONTEXTDATA_CLASS
  5
4572
102
{ACAD_REACTORS
330
4571
102
}
330
4571
100
AcDbObjectContextData
 70
     4
290
     1
100
AcDbAnnotScaleObjectContextData
340
10D
 70
     1
 10
1.0
 20
0.0
 30
0.0
 11
7165.262345725685
 21
59.55819335062551
 31
0.0
 40
500.339827638183
 41
38.67701394456526
 42
260.6345177571891
 43
40.86294416097715
 71
     0
  0
ACDB_MTEXTOBJECTCONTEXTDATA_CLASS
  5
4577
102
{ACAD_REACTORS
330
4576
102
}
330
4576
100
AcDbObjectContextData
 70
     4
290
     1
100
AcDbAnnotScaleObjectContextData
340
10D
 70
     1
 10
1.0
 20
0.0
 30
0.0
 11
7138.627338478858
 21
83.76198182395455
 31
0.0
 40
259.9272729281938
 41
0.0
 42
62.3604060891434
 43
20.60913705510152
 71
     0
  0
ACDB_MTEXTOBJECTCONTEXTDATA_CLASS
  5
457C
102
{ACAD_REACTORS
330
457B
102
}
330
457B
100
AcDbObjectContextData
 70
     4
290
     1
100
AcDbAnnotScaleObjectContextData
340
10D
 70
     1
 10
1.0
 20
0.0
 30
0.0
 11
7163.634840644597
 21
165.3255736139908
 31
0.0
 40
334.1826274792684
 41
0.0
 42
143.5138183817893
 43
44.61364918058376
 71
     0
  0
XRECORD
  5
1FA
102
{ACAD_REACTORS
330
1F9
102
}
330
1F9
100
AcDbXrecord
280
     1
 70
     1
 90
429727718
  1
D62C5603-E3A1-4AEA-B7FB-FE5D8D0755AF
310
504B03040A0000080000CC70623B3DEE336E79000000790000001B0000006175746F6465736B2D64657369676E2D7061636B6167652E786D6C3C3F786D6C2076657273696F6E3D22312E302220656E636F64696E673D227574662D3822203F3E3C666F726D6174733E3C666F726D61743E687474703A2F2F736368656D612E
310
6175746F6465736B2E636F6D2F64657369676E2D7061636B6167652F323030393C2F666F726D61743E3C2F666F726D6174733E504B0304140006080800CC70623BD486FD9CA0000000F4000000130000005B436F6E74656E745F54797065735D2E786D6C7D8EC10E82300C865F65E91D8A1E8C310C0EEA1BF002731658846E
310
D98AC1B77784ABF1D8FE5FBFBF75BBCE937A534CCEB38643598122B6FEE978D0B0485F9C41B54DDD7D022595594E1A469170414C76A4D9A4D207E29CF43ECE46F218070CC6BECC4078ACAA135ACF422C856C0E68EA1BF5669944DDD7BCDE7B1F8E415D77AECB980613C2E4AC91FC167A2B244592486606FC29C8FD7F045B9A
310
EF7053A7E60B504B0304140006080800CC70623B853B8169EB0000007C01000008000000636F72652E786D6C8D90416EC3201045AF62CDB6C206821CC7C244919D9CA01740401C94182C03558F5F9C3852BBEB6A467FFE9B197D7EFC9E1EC5975982F5AE035262288C535E5B377690E21535501C055FBC8FBF6C503839990E
310
5619041F179FE64D52DE45E362569DD7661365082642A11EB9E920A89B99642953CC8E702F67A9EE7234257977194EC9EAE275C4EABCCF5EAD5940D4AC6F0E35A568B8F43562CD7046CD199FD07E60174276A7BE677B5EADB0E0D14EEFFB6A31321A0D82627C4084204C3F096B71DD52F6819B16635EADF63F509AF53FA164
310
5DDCD1EDDD17164090FCC8732078B56691CB33A85CD7DCC40F504B0304140006080800CC70623B55019EA25F0000007C00000007000000636E782E786D6C4DCB3B0E80201045D1AD90E915ED2CF8AC45050C11660C8261F98AB1B07AC9C97D42D718D865D3E909258CFD00CCE24AC6E326A164D74DC0B4128928FF32603847
310
2BA13128B1252AC747C6BAB984FC68F0B87FE8960A5C09FE86CFB69FBA01504B0304140006080800CC70623BDBABAAF470010000D40300000C0000006662782F636F72652E786D6CC553D16E823014FD95A6AF4B694182CC941A83FA05FB810A9511A125A5257EFE2E82712ECEB8A7F100CD39F7F69E734AF9FADC366850B6
310
AF8DCE7018308C942E4C59EB2AC3DE1D498AD15A706B8CFB56869196ADCAF00863C12B6B7C374385D14E6907A836A59A41D9F7CA615434B0C8705F7CAA5606D23BA8E84F41278B93AC54100640439DE0BDB320004D43C63716C7C399D30917DCFBBA9CD9BA8469F5B156168B24CED3F7248AC8769F27244EB73B92EED8862C
310
B7F13E0C179B3C8F979C8ECD82BBBABDAA2BAC924E9558448CBD9330242CFA08E3154B5651FCC6D215639C8EE5774DBE2B5F6CF2B5768B68963BB5F5588420E442FC700B1139D4CB01F450C1E918227C2E09DF070D8140C84E1E9AAB8F1340832A9CB13130A5F1376A908D57309505ECF2A0DF179C4E9D30F5B239B87E3823
310
7A79C6F31DE1A8A5AEC08474B03C7837EAE4938639B44E5932B833D2C6B6B279CDC613877FA26EE21F4A2A4C63EC7F29A2F301D1F9F7A0E37D145F504B0304140006080800CC70623B9C113CC27E0000009D0000000B0000006662782F636E782E786D6C4DCCDF0A83201C86E15B91DFB94BFB330DD428C8FB886521330DA7
310
6397BF1A1DECE883878F57749FCDA1B7892F1BBC047A23808C7F84D9FA55424E0BE6803A256208E9EF06C84F9B91703228B1C690F78B66B34CD9A5439DF5CF0BFBF65E35BCA1B8D6A5C6F540381E886698B5741C695F9503EBA150A2F8958E3DC3EA0B504B0304140006080800CC70623B7DF2F77C2A010000120200003100
310
00006662782F41393633353835312D344632462D344230382D423046372D3739314545314133324237412F636F72652E786D6C8D51DB8EC22014FC15C2939B0D2DB4B45643319AE817EC0F6041255A68B86CFCFC856D4D76DF7CE190393373060EDB3DC707F856CE6B6B7A480A0C81328395DA5C7B18C3057510EC3873D686
310
3F34088C18550F330C39BB3A1BA7051AAC09CA84841A2BD5020AEF55806078A44B0FFD7053A328440C89E1EFC52486BBB8AA8214A99D789CF9E05200300FC927E4FB4D5B375D43103D5527440FB843077C5AA3F5861C8F645F5787F59E95B390B318B55CE45AA638FAA2957BD7248B390B7A7CC51F9C124149C82B8C378810
310
84AB2F42B7B8DD56F413775B8C5999E9FF4471926F8AA236A1AE96B8B3CC434E5839373893369E1FAF30EA395917409EB7F26AF8801C171837A4A6AC9C89E9F9C9B1A58BA30FD6A5EF5DDDCF894B9AD9B6A59C957943A9FCAE2FD5BC4DFE03504B0304140006080800CC70623BAD7543B64E01000033030000300000006662
310
782F41393633353835312D344632462D344230382D423046372D3739314545314133324237412F636E782E786D6CD593CD6EC32010845F0571AD6CE3D48AD20813A9873E410FBD12D82434182C7EAAE6EDBB2424CD25871E7B41D6EC30B3FA84F9E67BB2E40B4234DE8DB46F1925E094D7C6ED479AD3AE5951B2113C789FEE
310
6C943839C1488B4C05DF079FE72A69D8C96C13AAD6B8631503449F83828872B949AC57D26200B826A308D316B4064D6E46FCDA41C05550DC9E483A00797BFD207EFB092A45DE9514C1BBD22178396BD39D891265658C238DEA00936C654E5E433CB65A26D9F6EDB5EBC14EBF49A45CB856E66048291F6939A9A81BB5C89177
310
38143CA680F4AA299D66A042CEB3354A2684DC9D8D178FE0D9B8B41CAAD720F880EE7EF93C0C18769E099ECC04D5A102C8049A8A05632F4DDF376CF1DE0F6BB65C2F8627B65A33C6BB62177CEBBDAD973006829F89F22E814B54F4BC2BE347F8AA8F681390B50FA73F804400B5F542E796F19FF974E7F78DB802FE05E20750
310
4B0304140006080800CC70623BE75B7789680500003C100000340000006662782F41393633353835312D344632462D344230382D423046372D3739314545314133324237412F6F626A656374732E786D6CAD575B8F9B3818FD2B887D06C22499CB8AA1CA655245D5B455A356FB305264C061D8018C6C3393D95FBFC7600890
310
A4CD5EF210B0B1BFEBF98E3F7B1FF6596ABC522E1296DF9BAE3D320D9A872C4AF2F8DE2CE5CEBA358D0FBEC719939D65A691938CDE9B6ADAF4BD98B3B2D05311DD91329583D9D5FC0F438434A7A611A644887B5384CF34233629258BA878B12322891DEFF6B66BD70BFB62634E8AE781D082709A4B588AF91C528CDA28B73F
310
1C998EEF39EABBEFA97FBD6A7C7E9553F9D3D79FE442923C3C523610337627CB87ABE99D359D4CC6D6E4FACAB5E6ABF9D2726FC6A3C5F56271377BB88362213924694B38DD99FE47C48627A1E7D49F5A8BB5E1A74C0A599ED3B0F21F1E56366B89112D681E218F0915D0D6F17AD41FBA2A369DCF6335D62ABBD39779D5DDD1
310
11D4D8DE3CBB96B2E04FB8202E41051754A1AA8E8F76B4C6DFE810B580B1547F4B84911149794252234D024EF8BBE963A95AE27B3D310A9D5C215C7960FAEE415ED75694C6AFB17BCACA5D99A60A9AA65F217B0BFC53292ACB92BF283FAD0D3621576592CB5BED907C2FA8E9DF794E35E97BEA31BED21FEB401ABB94C44839
310
DCACBF0E1C5DA8DA5B2F4DFFD32AD86F543D9E565E7056502E157C00AD2671CD534549AB752FCA9CDA00677A313F04E51B22FF19E57B300579E3C97EB29F682D92935CEC18CF901B7B54FD8C51F362B56FC72FE0B3C1EAE335EDCCBF5AEC39ADB17DC238973F804BA5E6F6BFE7AF1FB32E523BE9F3BD571418E3631DCA4D48
310
5250CF639223210A9446CA30052EDF057BD35F8329C1ECD84552BF0DC8D18BE7BCE23BFE6BD960AB4A7DE79923A103BEBD80F911CBAA2C60DB19B01CF164A5583B772EE6D3FFA56666CBCDA74DC97724A48F9A58967497E489C4D979006FD7A05E227A1EBDD0F737C623387A9C844D3709995625106D157315F8B8392CD4E0
310
A0B9A720C4BE9829CEF37EA1E13111214D53925356365ADA634861B52519DD27A00AEB808EAF0628E6F435519D446F45CF2C9CF5214F0A15B2F6D06B79DA3EE3CBF7F56780D2F4E7EF73A0F5E5B02A38D07DC852C6B7C1FBB6664213E0C39E3EBA7FF4E1AD23EA2829407C85E586727488B751B2DB9502BC7B228A3FD68B6E
310
A65A22397E690AA8D158D7E404EC8CDA235CC3B7D1898680131CEC2CDF2638C65196279577750F15884AEE19F94199155B92B13297978469D4F8D358DF0AEF7631E28DC8F0D9F437D5D39A83B2231A1D52D543813A824EF8D44BCFF2FA6A31BD1E8DAD87F1CCB526B3879935BF59CDADD5C37479BB1CDD4CA7B3556B516589
310
EF352754B706114D9C885EC9131DE6EFEB43D99AFE2391C2F958179413D7CFEF6B1B6DB1E7600F00DE6E5C67454A339A4BA2E0FBA85ED26F045D454F463DBFCE484C2F90F2E5E3666003662ED8F755951A7D1BECD5B30B550B2785C8E7320B7292A4838DDA71BBC863ED7613CAF659337A3354231D4FF4A182A54904C2898C
310
98B28C4AD0CE056CCF332A80986E571EE9DBC305BB5FEB7E509220A58D25CF042D712A806AC0AD0C657FDEF80D2D9CEAA2EE4D1C76F60BFE74219A06527D6F82DF6412526107381E55E353090704D085B52408A8913C4ED159D79BDA71BB4BC506F4831350EB6F975CD22D69BF7AC49B91A2C0A9DDA3D5CA36AD20FC478E37
310
E61844E2352865EBCB61A275A65283CAAA9DD27703B4102F5AF51EF5F573B75CBB5AD38BC845F7A49F82A0966A49C2E3EA5EA0ECD326CD965F1DB402C6FA8B51A4658C5C5E2EC9E214602E55810345408596591009A82E7E7FFACA19EEA299B14A0081A705CB3296EBC14CDF658DCD336EA6D1136881AAEB87B81AB9EE53D5
310
F5EB8BC8362082DA24122F98680A4E7930C01A0079749CEA14382A0783E5EBA5A10F8C098456A03D6A4AEB6BB881E2513747552A5DB22C7EDAF83BD5528081A365F7FF06504B0304140006080000CC70623B000000000000000000000000350000006662782F41393633353835312D344632462D344230382D423046372D37
310
39314545314133324237412F76657274696365732E62696E504B0304140006080800CC70623BF270F1330600000004000000360000006662782F41393633353835312D344632462D344230382D423046372D3739314545314133324237412F747269616E676C65732E62696E636660600000504B0304140006080000CC7062
310
3B000000000000000000000000370000006662782F41393633353835312D344632462D344230382D423046372D3739314545314133324237412F617474726962757465732E62696E504B0304140006080800CC70623B08DA0BD19000000041010000360000006662782F41393633353835312D344632462D344230382D4230
310
46372D3739314545314133324237412F6469726563746F72792E786D6C858F410AC3201045AF22B36F53E9A60B35CBEEBAE80D244E44489C6234F4F835464A48035D0DF398FF9F8AF63D0E6CC63039F212F8F9020C7D47C6792B21C5FE7403D62A1188E2E60C98D7234A5830286103A55745067B9D86B8A3CF9C7F90C11DE6
310
07FB144396D7B6A82D282E9A152AD114D5EF2CB866EEE831B8EEA07A7BB5A8D7D61A2BAAEB7FD5F70921FF497D00504B0304140006080800CC70623BEDD1DC58FD000000A00100003B0000006662782F41393633353835312D344632462D344230382D423046372D3739314545314133324237412F7265736F75726365732F
310
636F72652E786D6C8D504B6E833010BD0A9A6D65B00922041947112427E8052C33A156828DFCA97AFC9A40A576D7CDCCE87D344F8F9FBFE667F689CE6B6B3A6039850C8DB2A336530731DC4903D95970676DF82583CCC8193B5861107C72362E3BA4AC096842428D1D7107A5F7182053CF7474E0D507CE32973124857FE48B
310
540F3961CEF244279DE03EB81420DB9EAC1384436FA353E879B1B182C7A8C75DA3C7F453DF353A1075D537A7BA6464B8F535A99AE14A9A2BBD90E350DD183B5CFABE3AF262350B1EF4FC9351399401471025A527C218A1E53BAB5A5AB765F5469B96525EACF23FA6B88CFF34456DC2A1DCE36E360F82A5202F42F062ED2BAD
310
579969AFDD8A6F504B010214000A0000080000CC70623B3DEE336E79000000790000001B00000000000000000000000000000000006175746F6465736B2D64657369676E2D7061636B6167652E786D6C504B01021400140006080800CC70623BD486FD9CA0000000F40000001300000000000000000000000000B20000005B
310
436F6E74656E745F54797065735D2E786D6C504B01021400140006080800CC70623B853B8169EB0000007C010000080000000000000000000000000083010000636F72652E786D6C504B01021400140006080800CC70623B55019EA25F0000007C000000070000000000000000000000000094020000636E782E786D6C504B
310
01021400140006080800CC70623BDBABAAF470010000D40300000C00000000000000000000000000180300006662782F636F72652E786D6C504B01021400140006080800CC70623B9C113CC27E0000009D0000000B00000000000000000000000000B20400006662782F636E782E786D6C504B01021400140006080800CC70
310
623B7DF2F77C2A010000120200003100000000000000000000000000590500006662782F41393633353835312D344632462D344230382D423046372D3739314545314133324237412F636F72652E786D6C504B01021400140006080800CC70623BAD7543B64E010000330300003000000000000000000000000000D2060000
310
6662782F41393633353835312D344632462D344230382D423046372D3739314545314133324237412F636E782E786D6C504B01021400140006080800CC70623BE75B7789680500003C10000034000000000000000000000000006E0800006662782F41393633353835312D344632462D344230382D423046372D3739314545
310
314133324237412F6F626A656374732E786D6C504B01021400140006080000CC70623B0000000000000000000000003500000000000000000000000000280E00006662782F41393633353835312D344632462D344230382D423046372D3739314545314133324237412F76657274696365732E62696E504B01021400140006
310
080800CC70623BF270F133060000000400000036000000000000000000000000007B0E00006662782F41393633353835312D344632462D344230382D423046372D3739314545314133324237412F747269616E676C65732E62696E504B01021400140006080000CC70623B0000000000000000000000003700000000000000
310
000000000000D50E00006662782F41393633353835312D344632462D344230382D423046372D3739314545314133324237412F617474726962757465732E62696E504B01021400140006080800CC70623B08DA0BD1900000004101000036000000000000000000000000002A0F00006662782F41393633353835312D344632
310
462D344230382D423046372D3739314545314133324237412F6469726563746F72792E786D6C504B01021400140006080800CC70623BEDD1DC58FD000000A00100003B000000000000000000000000000E1000006662782F41393633353835312D344632462D344230382D423046372D3739314545314133324237412F7265
310
736F75726365732F636F72652E786D6C504B0506000000000E000E0080040000641100000000
  0
XRECORD
  5
1F8
102
{ACAD_REACTORS
330
1F7
102
}
330
1F7
100
AcDbXrecord
280
     1
 70
     1
 90
429727718
  1
30362254-06B7-45E0-A893-8CFA70E3D6BC
310
504B03040A0000080000CC70623B3DEE336E79000000790000001B0000006175746F6465736B2D64657369676E2D7061636B6167652E786D6C3C3F786D6C2076657273696F6E3D22312E302220656E636F64696E673D227574662D3822203F3E3C666F726D6174733E3C666F726D61743E687474703A2F2F736368656D612E
310
6175746F6465736B2E636F6D2F64657369676E2D7061636B6167652F323030393C2F666F726D61743E3C2F666F726D6174733E504B0304140006080800CC70623BD486FD9CA0000000F4000000130000005B436F6E74656E745F54797065735D2E786D6C7D8EC10E82300C865F65E91D8A1E8C310C0EEA1BF002731658846E
310
D98AC1B77784ABF1D8FE5FBFBF75BBCE937A534CCEB38643598122B6FEE978D0B0485F9C41B54DDD7D022595594E1A469170414C76A4D9A4D207E29CF43ECE46F218070CC6BECC4078ACAA135ACF422C856C0E68EA1BF5669944DDD7BCDE7B1F8E415D77AECB980613C2E4AC91FC167A2B244592486606FC29C8FD7F045B9A
310
EF7053A7E60B504B0304140006080800CC70623B1EC5D7A3EB0000007C01000008000000636F72652E786D6C8D90416EC3201045AF82665B6103C6756C6122AB4D4ED00B204C5C94182C03558F5F9C3852BBEB6A467FFE9B197D71FC9E6FE8CBACC17AD7032D0820E3B41FAD9B7A48F1820F808E52ACDEC75F36404ECDA687
310
4D0629A6D5A76597B477D1B89855E747B38B2A041301E95B6E7A08FAD3CCAA50296647B8168BD2573599823EBB0CA76447F43862C7BCCF5EAC59410E4DDD9C7973C2755553CCCFA4C603E3040F1565ED3B1FDE4E432BCA0D9622DAF9795FAF464533826484B498524CD807E51D79ED187F21878E10516EF63F505AC67F42C9
310
BA58B1FDDD071640D2FCC87D2045B96591CB3DA85CB7DCE40F504B0304140006080800CC70623B55019EA25F0000007C00000007000000636E782E786D6C4DCB3B0E80201045D1AD90E915ED2CF8AC45050C11660C8261F98AB1B07AC9C97D42D718D865D3E909258CFD00CCE24AC6E326A164D74DC0B4128928FF32603847
310
2BA13128B1252AC747C6BAB984FC68F0B87FE8960A5C09FE86CFB69FBA01504B0304140006080800CC70623B8C9102E971010000D40300000C0000006662782F636F72652E786D6CC5535B6E833010BC8AE5DF0A6C08340F1947A84D4ED00B38C6A128602363A31CBFCB234A53A551FA553EC09AD9F5CE8C31DB9E9B1AF5CA
310
7695D1198E428A91D2D214952E33ECDD315861B4E5CC1AE3BE9561A445A3323CC098B3D21ADFCE9034DA29ED00D5A6503328BA4E398C640D8B0C77F253352214DE4145770A5B214FA2546114020D759C75CE8200340D19DE981F0F6746269C33EFAB6266AB02A655C74A59CCF365BADC27CB5D902ED22848F6340DF238A141
310
BE88E2F57B92BFEDF23523433367AE6A2EEAA455C2A902F398D2751045018D3FA264435F3771F242571B4A1919CA6F9A7C5B3CD9E42BED16F12C776AEB308F40C848FC700B1139D4891EF410CEC810227CC6846F8386402064270EF5C5C709A05E49676C024C61FC95EA45ED154CA5211D1FF4FB8291A913A68E9B83EBBB33
310
E2A7673CDE118E5AE8124C0807CB8377834E366998436B950D7A7746DAD846D4CFD978E0F04FD455FC5D49D2D4C6FE9722321F10997F0F32DC47FE05504B0304140006080800CC70623BFFEA85907E0000009D0000000B0000006662782F636E782E786D6C4DCCD10A83201886E15B91FFDC95D95A811AB6F23E625948A6C3
310
E9D8E5AF46073BFAE0E1E365ED67B3E8ADC3CB78C7815C7240DA3DFC64DCC221C519D7805AC182F7F1EF06C88D9BE6703008B6049F9E274D7A1E938DBB5AE3D6131B2589BA0D3D965551E0B2EA732C9B9A624AAEB41E3A557677029960D9AFB4EF11165F504B0304140006080800CC70623B4FEEA4082C0100001202000031
310
0000006662782F39464131463745442D413632322D343644302D413938332D3331353338454246344243312F636F72652E786D6C8D515B6EC32010BC0AE2AB55850DD871ED0813254D72825EC00192A2C460F1A872FC42ED48ED5F7E00CDCECCCEB26C731F6FE05B39AFADE921293004CA082BB5B9F43086336A21D870E6AC
310
0D7F68109861543DCC30E4ECE26C9C164858139409093556AA051CBC570102714B8F1E7AF1A5C6A11862480C7F2DA6415C878B2A4891CA89C7990F2E050073937C42DE1DB7E4F87ED8A36D4329AA9B3D46DBAEAD504556557BD81DEBDD0761E52CE42C462D17B996298E3E6BE59E35C962CE821E1FF18553435012728A7187
310
0841987E927A8D9B35ADDF70BBC6989599FE4F1427F9A4286A132ABAC49D651EF234CD5CE04CDA78BA3DC2A8FB645D00B9DF8B57E215725C60BCA2A463E54C4CE327C7A65E1C7DB02E7DEFCBF594B864C5CA6CDBD49C957943E9FA5D5FBAF336F90F504B0304140006080800CC70623BAD7543B64E01000033030000300000
310
006662782F39464131463745442D413632322D343644302D413938332D3331353338454246344243312F636E782E786D6CD593CD6EC32010845F0571AD6CE3D48AD20813A9873E410FBD12D82434182C7EAAE6EDBB2424CD25871E7B41D6EC30B3FA84F9E67BB2E40B4234DE8DB46F1925E094D7C6ED479AD3AE5951B2113C
310
789FEE6C943839C1488B4C05DF079FE72A69D8C96C13AAD6B8631503449F83828872B949AC57D26200B826A308D316B4064D6E46FCDA41C05550DC9E483A00797BFD207EFB092A45DE9514C1BBD22178396BD39D891265658C238DEA00936C654E5E433CB65A26D9F6EDB5EBC14EBF49A45CB856E66048291F6939A9A81BB5
310
C8917738143CA680F4AA299D66A042CEB3354A2684DC9D8D178FE0D9B8B41CAAD720F880EE7EF93C0C18769E099ECC04D5A102C8049A8A05632F4DDF376CF1DE0F6BB65C2F8627B65A33C6BB62177CEBBDAD973006829F89F22E814B54F4BC2BE347F8AA8F681390B50FA73F804400B5F542E796F19FF974E7F78DB802FE05
310
E207504B0304140006080800CC70623B16AB87BA640500003C100000340000006662782F39464131463745442D413632322D343644302D413938332D3331353338454246344243312F6F626A656374732E786D6CAD575B6FA33818FD2B887DE6924B3BED8A326A92B68A663B534DD4D13E548A0C38942D60649B369D5FBFC7
310
600890A493BDE42160637FD7F31D7FF63E6FB3D478A55C242CBF3247B66B1A340F5994E4F19559CA8D75611A9F7D8F33263BCB4C232719BD32D5B4E97B316765A1A722BA21652A07B3B7B33F0D11D29C9A46981221AE4C113ED38CD8A4942CA2E2C58E882476BCD9DA23BB5ED8171B73523C0F841684D35CC252CCE79062D4
310
468DFA43D7747CCF51DF7D4FFDEB5593E3AB9CCA9FBEFE241792E4E19EB28198C968BAB8199F5D5A67D3E9C49A9E8F47D6EC76B6B0469F26EEFC7C3EBFBCBEB98462213924694B38DD98FE1D62C393D073EA4FADC5DAF04326852CCF6958F90F0F2B9BB5C48816348F90C7840A68EB78EDF68723159BCEE7891A6B95DDE9D3
310
BCEAEEE8086A6C6F9E5D4B59F0175C10A7A0820BAA5055C7473B5AE3CFDD452D602CD5DF12616444529E90D448938013FE6EFA58AA96F85E4F8C42275708571E98FE6827AF6B2B4AE3D7D83D64E5A64C53054DD3AF90BD06FEA9149565C94FCA0F6B834DC85599E4F2423B24DF0B6AFA979E534DFA9E7A4CC6FA631D486393
310
921829879BF5D781A373557BCB85E97FB90DB62B558F8795179C15944B051F40AB495CF35451D26A4727654E6D8033BD98EF82F21D91FF8AF2DD9982BCF1643BDD4EB516C9492E368C67C88DED563FC36D5EACF66DFF057C3658BDBFA69DF9578B3DA735B64F18C7F20770A9D45CFCF7FCF563D6456A277DBEF78A02637CA2
310
43B90A490AEAB94F72244481D24819A6C0E59B606BFA4B3025981DBB48EAB701D97BF19C577CC77F2D1B6C55A9EF3C732474C0B727303F625995056C3B02963D9EAC146BE78EC5FCEC7FA999EBC5EACBAAE41B12D27B4D2C0BBA49F244E2ECDC81B76B502F113D8F5EE8FB1BE3111CDD4FC2AA9B844CAB1288B68AB90A7CDC
310
1C166AB0D3DC5310625FCC14E779BFD0709F8890A629C9292B1B2DED31A4B0DA928CEE135085754027E3018A397D4D5427D15BD1330B677DC8934285AC3DF45A9EB68FF8F2B8FC0A509AFEECFD0FF2DE25CC6047F7214B195F07EFEB9A094D800F7BFAE8FED187B78EA8A3A400F115961BCAD1215E47C966530AF0EE8128FE
310
58CEBB996A8964FFA529A046635D9353B0336A8F700DDF46271A024E70B0B37C9DE01847591E54DED53D54202AB947E4076556AC49C6CA5C9E1226B7F1A7B1BE15DEED62C41B91E1B3E9AFAAA735036547343A925075041DF0A9979E893B391F8FCFA6967B3EFB644DCF6E5CEBFAE272625DCC6FAF3FB93793C5F90CE1EF57
310
407342756B10D1C489E8953CD1617E5CEECAD6F4EF8914CE5D5D504E5C3F1F9736DA62CFC11E00BCDDB8CC8A9466349744C1F75EBDA4DF09BA8A9E8C7A7E9991989E20E5DBDD6A6003664ED8F7A04A8DBE0DF6EAD9B9AA858342E47399053949D2C146EDB85DE4B176BB0965FBAC19BD19AA918E27FA50C1D22402E144464C
310
59462568E704B6E71915404CB72B8FF4EDE184DDAF753F284990D2C6926782963815403548A70C657FDEF80D2D9CEAA2AE4C1C76F60BFE74219A06527D6582DF6412526107381E55E353090704D085B52408D0933C4ED159D79BDA71BB4BC506F4831350EB6F979CD22D69BF7AC49B91A2C0A9DDA3D5CA36AD20FC478E37E6
310
1844E2352865EBCB6EA275A652E3836BE04EFB400BF1A2556F515F1FBB35B2AB35BD889C744FFA1004B5544B121E57F70215746DD2F5E2C1412B602CBF19455AC6C8E5E9922C4E01E65215385004546899059180EAFCF7A707CE7017CD8CDB0410789AB32C63B91E5CEBBBACB17AC6CD347A022D5075FD106377347AAABA7E
310
7D11590744509B44E205134DC1290F06580320F78E537D3D73540E06CB970B431F185308AD40BBD794D6D77003C5A36E8EAA54BA64597CD8F83BD552A080A365F7FF06504B0304140006080000CC70623B000000000000000000000000350000006662782F39464131463745442D413632322D343644302D413938332D3331
310
353338454246344243312F76657274696365732E62696E504B0304140006080800CC70623BF270F1330600000004000000360000006662782F39464131463745442D413632322D343644302D413938332D3331353338454246344243312F747269616E676C65732E62696E636660600000504B0304140006080000CC70623B
310
000000000000000000000000370000006662782F39464131463745442D413632322D343644302D413938332D3331353338454246344243312F617474726962757465732E62696E504B0304140006080800CC70623B08DA0BD19000000041010000360000006662782F39464131463745442D413632322D343644302D413938
310
332D3331353338454246344243312F6469726563746F72792E786D6C858F410AC3201045AF22B36F53E9A60B35CBEEBAE80D244E44489C6234F4F835464A48035D0DF398FF9F8AF63D0E6CC63039F212F8F9020C7D47C6792B21C5FE7403D62A1188E2E60C98D7234A5830286103A55745067B9D86B8A3CF9C7F90C11DE607
310
FB144396D7B6A82D282E9A152AD114D5EF2CB866EEE831B8EEA07A7BB5A8D7D61A2BAAEB7FD5F70921FF497D00504B0304140006080800CC70623B0D6EF93BFE000000A00100003B0000006662782F39464131463745442D413632322D343644302D413938332D3331353338454246344243312F7265736F75726365732F63
310
6F72652E786D6C8D50596E833010BD0A9ADFCA60B334011947A8694ED00B586642AC041B79A97AFC9A40A5F6AF3F33A3B7689E1E3F7DCD8FEC139DD7D6F4C0720A191A65476DA61E62B892236427C19DB5E1970C322367EC618541F0C9D9B8EC90B226A009093576C41D94DE63804C3DD2D18357379C652E63480A7FCF17A9
310
EE72C29CE5894E3AC17D702940B63D59270887DE46A7D0F36263058F518FBB468FE9A7BE6A7420864373B8D4873369AA8691FA421B3294352543C5CAF65C0F6FEF43CB8BD52C78D0F34F46E550061C419494B6843142CB0F5677F4B52BEB177AEC28E5C52AFF638ACBF84F53D42654E51E77B379102C05791282176B5F693D
310
CB4C7BED567C03504B010214000A0000080000CC70623B3DEE336E79000000790000001B00000000000000000000000000000000006175746F6465736B2D64657369676E2D7061636B6167652E786D6C504B01021400140006080800CC70623BD486FD9CA0000000F40000001300000000000000000000000000B20000005B
310
436F6E74656E745F54797065735D2E786D6C504B01021400140006080800CC70623B1EC5D7A3EB0000007C010000080000000000000000000000000083010000636F72652E786D6C504B01021400140006080800CC70623B55019EA25F0000007C000000070000000000000000000000000094020000636E782E786D6C504B
310
01021400140006080800CC70623B8C9102E971010000D40300000C00000000000000000000000000180300006662782F636F72652E786D6C504B01021400140006080800CC70623BFFEA85907E0000009D0000000B00000000000000000000000000B30400006662782F636E782E786D6C504B01021400140006080800CC70
310
623B4FEEA4082C0100001202000031000000000000000000000000005A0500006662782F39464131463745442D413632322D343644302D413938332D3331353338454246344243312F636F72652E786D6C504B01021400140006080800CC70623BAD7543B64E010000330300003000000000000000000000000000D5060000
310
6662782F39464131463745442D413632322D343644302D413938332D3331353338454246344243312F636E782E786D6C504B01021400140006080800CC70623B16AB87BA640500003C1000003400000000000000000000000000710800006662782F39464131463745442D413632322D343644302D413938332D3331353338
310
454246344243312F6F626A656374732E786D6C504B01021400140006080000CC70623B0000000000000000000000003500000000000000000000000000270E00006662782F39464131463745442D413632322D343644302D413938332D3331353338454246344243312F76657274696365732E62696E504B01021400140006
310
080800CC70623BF270F133060000000400000036000000000000000000000000007A0E00006662782F39464131463745442D413632322D343644302D413938332D3331353338454246344243312F747269616E676C65732E62696E504B01021400140006080000CC70623B0000000000000000000000003700000000000000
310
000000000000D40E00006662782F39464131463745442D413632322D343644302D413938332D3331353338454246344243312F617474726962757465732E62696E504B01021400140006080800CC70623B08DA0BD190000000410100003600000000000000000000000000290F00006662782F39464131463745442D413632
310
322D343644302D413938332D3331353338454246344243312F6469726563746F72792E786D6C504B01021400140006080800CC70623B0D6EF93BFE000000A00100003B000000000000000000000000000D1000006662782F39464131463745442D413632322D343644302D413938332D3331353338454246344243312F7265
310
736F75726365732F636F72652E786D6C504B0506000000000E000E0080040000641100000000
  0
XRECORD
  5
175
102
{ACAD_REACTORS
330
173
102
}
330
173
100
AcDbXrecord
280
     1
270
     1
271
     1
  0
XRECORD
  5
174
102
{ACAD_REACTORS
330
173
102
}
330
173
100
AcDbXrecord
280
     1
270
     1
271
     1
  0
XRECORD
  5
1FB
102
{ACAD_REACTORS
330
173
102
}
330
173
100
AcDbXrecord
280
     1
 70
     0
 90
1673772943
  1
ECE7A1D2-D628-4531-984C-D00F80459256
310
504B03040A0000080000CC70623B3DEE336E79000000790000001B0000006175746F6465736B2D64657369676E2D7061636B6167652E786D6C3C3F786D6C2076657273696F6E3D22312E302220656E636F64696E673D227574662D3822203F3E3C666F726D6174733E3C666F726D61743E687474703A2F2F736368656D612E
310
6175746F6465736B2E636F6D2F64657369676E2D7061636B6167652F323030393C2F666F726D61743E3C2F666F726D6174733E504B0304140006080800CC70623BD486FD9CA0000000F4000000130000005B436F6E74656E745F54797065735D2E786D6C7D8EC10E82300C865F65E91D8A1E8C310C0EEA1BF002731658846E
310
D98AC1B77784ABF1D8FE5FBFBF75BBCE937A534CCEB38643598122B6FEE978D0B0485F9C41B54DDD7D022595594E1A469170414C76A4D9A4D207E29CF43ECE46F218070CC6BECC4078ACAA135ACF422C856C0E68EA1BF5669944DDD7BCDE7B1F8E415D77AECB980613C2E4AC91FC167A2B244592486606FC29C8FD7F045B9A
310
EF7053A7E60B504B0304140006080800CC70623BD9DDAED0EC0000007C01000008000000636F72652E786D6C8D90416EC3201045AF82665B61836D9CD8C2444DD39CA01740405C94182C03558F5F9C3852BBEB6A467FFE9B197D7EF89E6EE8CB2CC17A37002D0820E394D7D68D03A478C17B4007C117EFE32F1B20272733C0
310
2A83E0E3E2D3BC49CABB685CCCAAF3DA6CA20CC14440EA969B0182FA34932C648AD911AEC52CD5558EA6A0CF2EC329598D1E47ACCEFBECC59A050463A7EA5833865FEBDD0E37353BE3EE8DBDE3F6786A48D375FBF6CC78B9C282473B3DEFABC5C86834888A900E538A49F5419B9EB47DD5BC907D4F082F57FB1F28CDFA9F50
310
B22ED6D5F6EE030B20687EE43E10BC5CB3C8E51E54AE6B6EE207504B0304140006080800CC70623B55019EA25F0000007C00000007000000636E782E786D6C4DCB3B0E80201045D1AD90E915ED2CF8AC45050C11660C8261F98AB1B07AC9C97D42D718D865D3E909258CFD00CCE24AC6E326A164D74DC0B4128928FF326038
310
472BA13128B1252AC747C6BAB984FC68F0B87FE8960A5C09FE86CFB69FBA01504B0304140006080800CC70623BA24EB22D72010000D40300000C0000006662782F636F72652E786D6CC5535B6E833010BC8AE5DF0A6C5E49888CA3A6694ED00B38E05014B091B1518EDFE511A5A9D228FD2A1F60CDEC7A67C6986DCE4D8D7A
310
69BA4AAB0C073EC548AA5C17952A33ECECD15B61B4E1CC686DBF9561A44423333CC098B3D268D7CE50AE9595CA02AA74216750749DB418E5352C32DCE59FB211BE70162ABA93DF8AFC244AE9073ED050C759670D0840D390E18DF9F1706664C23973AE2A66B62A605A75ACA4C13C4976E1364A12EF355A2EBD384AF65EFA96
310
BC7B8BED2EA6719AAE16FB8491A199335B351775B991C2CA02F390D2D40B028F861F41BCA68B7518BFD0D59A524686F29B26D7164F36B94AD9289CE54E6D1DE6010819891F6E21228B3AD1831EC219194284CF98F06DD01008846CC5A1BEF83801D4CBDC6A1303536877A57A513B0953A94FC707FDBE6064EA84A9E3E6E0FA
310
EE8CF0E9198F7784A316AA0413C2C2F2E0ECA0934D1AE6D05A69BCDE9E91D2A611F573361E38FC1375157F5752AE6B6DFE4B11990F88CCBF0719EE23FF02504B0304140006080800CC70623B408A7D3B7C0000009D0000000B0000006662782F636E782E786D6C4DCCD10A83201886E15B91FFDC552A92A0064DBC8F581632
310
D3703A76F9ABD1C18E3E78F878E5F0D9027ABBFCF2292AE86E2D20171F69F6715550CB827B40839639A5F2770314A7CD293819B45C73AAFB45B35BA61ACAA1C1C7E7855C58C15BC331339661262CC762340413D68D77DA5B42298546CBE6573AF60CEB2F504B0304140006080800CC70623B449FB9BD290100001202000031
310
0000006662782F36394639363044362D344446342D343946362D394244322D3234314243333846323333332F636F72652E786D6C8D515B6EC32010BC0AE22B55850D98B871848994463E412FE002495162B07854397EA176A4F62F3F2C9A9D991D587EB84F37F0AD7D30CEF6905418026DA553C65E7A98E219ED203808EE9D
310
8B7F6810D871D23D2C3014FCE25D9A57483A1BB58D19B54EE9151C43D0110279CB971E06F9A5A7B11A53CC8C70ADE6515EC78BAE4895DB992778883E0700CB907242D17643D7E2538BD869608875438BBAE38922CAC8F1BDD90DB4691A5E2F42C153326A951B95E398B3D1FE599322163C9AE9115F7A3D46ADA0A018778810
310
84E907617BDCEE297BC5BB3DC6BC2EF47FA234AB2745C9D8D8D035EE220B50105E2F0DC1954B9FB747187D9F9D8FA0CCDB042D5FA0C015C65B42DF78BD10F3F3B363CB56C7109DCFDFBBB97E662ED92EB62D13BC2E1BCAE5777DB9966D8A1F504B0304140006080800CC70623BAD7543B64E01000033030000300000006662
310
782F36394639363044362D344446342D343946362D394244322D3234314243333846323333332F636E782E786D6CD593CD6EC32010845F0571AD6CE3D48AD20813A9873E410FBD12D82434182C7EAAE6EDBB2424CD25871E7B41D6EC30B3FA84F9E67BB2E40B4234DE8DB46F1925E094D7C6ED479AD3AE5951B2113C789FEE
310
6C943839C1488B4C05DF079FE72A69D8C96C13AAD6B8631503449F83828872B949AC57D26200B826A308D316B4064D6E46FCDA41C05550DC9E483A00797BFD207EFB092A45DE9514C1BBD22178396BD39D891265658C238DEA00936C654E5E433CB65A26D9F6EDB5EBC14EBF49A45CB856E66048291F6939A9A81BB5C89177
310
38143CA680F4AA299D66A042CEB3354A2684DC9D8D178FE0D9B8B41CAAD720F880EE7EF93C0C18769E099ECC04D5A102C8049A8A05632F4DDF376CF1DE0F6BB65C2F8627B65A33C6BB62177CEBBDAD973006829F89F22E814B54F4BC2BE347F8AA8F681390B50FA73F804400B5F542E796F19FF974E7F78DB802FE05E20750
310
4B0304140006080800CC70623B8D05915C650500003B100000340000006662782F36394639363044362D344446342D343946362D394244322D3234314243333846323333332F6F626A656374732E786D6CAD575B6FA33814FE2B887D06429276DA1565D4266D158D3A339A6846FB502932E050B66023DB74D2FDF5FB190C01
310
9276B2973C046C8ECFF53B17071F77456EBD502133CEAE6CDF9DD81665314F32965ED995DA3A17B6F5310C04E7AA47665B8C14F4CAD6DB7618A48257A5D94AE89654B91AEDDEDDFC61C998326A5B714EA4BCB265FC440BE2924AF184CA6737218AB8E976E7FA6E4338649B0A523E8D98964450A6A029F619B8588D52FE7039
310
B1BD30F0F4F730D0FF866AF6369557DB33949F31A9088B0F848DD8CCFCF9F2767A76E99CCDE733677E3EF59D9BBB9BA5E37F984D16E78BC5E5F5ED25044B25C0C96822E8D60EEFE11B91C581D77CEA34368A1F5329E68CD1B8B61F16D63A1B8E092D294B10C78C4A48EB593D192E7DED9BDEE7995E1B91FDEDD3ACEA9FE831
310
6A756F9F7D4D79F4274C90A7A04248AA51D5F8C718DAE06FB2F75AC4796EBE65D22A88A22223B995679120E2D50E41AA49C260C046A35368846B0BECD0DFF3EBEB8AD4F835768F69B9ADF25C43D30E6B646F807FAA64AD59F61715C7A54127C4AACA98BA3006A9D792DAE165E0D59B61A01FB3A9F9D838D2DAE62445C86166
310
F37564E842E7DE6A69879FEEA2DD5AE7E371E1A5E025154AC307D06A03D73EB5978C58FFA4C8E9033066E0F3BD53BEC1F39F91BE7B55103791EDE6BBB991A2046172CB4581D8B893FA674DDA17A77B3B7C413D1B511FD2743BFF8A38F03A658705E3ADF8015C3A3417FF3D7E439FF591DA0B5F18BC20C1B8981957AE6392A3
310
F43C640C01D1A0B4728E2DD4F26DB4B3C3152A252A3B4E913CEC1C72F012782FF88EFF8637AA552DBEF76408E8A8DE9E50F9E1CB3A2DA0DB1B6039A893B56063DC5B3E3FFB5F72E67AB9FEB4AEC496C4F4C1149625DD662C53E89D7BF0F6151A046260D1337DFDC94502430F83B0EE07A130A224BCAD7DAE1D9FB6CD422FF6
310
920702629C4BB9AE79C12F243C6432A6794E18E5552BA56B431AAB5D91317302B2B071E86C3A42B1A02F999E24061403B5D0EB639195DA655DD3EBEAB4FB862DDF579F014AD0E73C22F99E28DA57FB98E75C6CA2D74D53086D600F4786E0FE3144B771A8A7B900F03594DB8A633CBC49B2EDB69228BB479CF863B5E807AAAB
310
23872F6DFEB4129B949CA33823F58830E86D65621E10047D9DB34D862E8EAC3C2ABC2F7B2C40D67CDFE01F5545B92105AF983AC54D93D69E56FB8E797F88913F898A9FEC705D3F9D1B54EC8426FB500D40A03BD0119B06E1B95DDC7EB8F6975367793EBD70E66733DFB9BC982F9CE564727731999F5D4ECFCE3B8D6A4DC2A0
310
6D50FD148437D110834A64C6CDDF57FBACB5C307A2A477DFE4939736CFEF2B175371E0E10CF0DD1D5C15654E0BCA14D1E87DD02FF93782A162C0A3D95F1524A52770F972BF1EE9809D13CE7DD599467F8ECE9ADD85CE85A34CD45355448C64F9E8A031DC2D596ACC6E5DD93D9B82DE2EF5CAF81363A8E47996A0DE24564A79
310
4115AACE09C55E14540231FDA13C319787134EBF34E3A022514E5B4D9E0826E25C02D5805B15ABE1BEF51B26383D445DD9E875EE33FE4C22DA16427D65A3BCA92CA6D28DD01DF5DC53330704308475351050232CCD31583787BA75774AFB06E5070DD0C8EF484E19968C5D83BA5B90B244D31E54D55A372320FE4786B7EA58
310
44E135AA5467CB7EA333A61683CC6A8C3257034C10CF46F40EF9F5BE59BE5BD30C3C72D235E95D10345C1D45445A5F0BB47E46A5EBE5570F9380B5FA629579952296A773720405982B9DE04011506178964401AA8BDF1FBF0A8EAB6861DD6580C0E38217056766716DAEB2D6FA0917D3E4116581EADB879C4E7CFFB11EFACD
310
3D641311495D92C8676CB409A72D18610D803CE8A626049E8EC1887CB5B44CC39883690DDA8399B4B9855B481E7D71D4A9D22F96E5BB73BF5793020C02137BF837504B0304140006080000CC70623B000000000000000000000000350000006662782F36394639363044362D344446342D343946362D394244322D32343142
310
43333846323333332F76657274696365732E62696E504B0304140006080800CC70623BF270F1330600000004000000360000006662782F36394639363044362D344446342D343946362D394244322D3234314243333846323333332F747269616E676C65732E62696E636660600000504B0304140006080000CC70623B0000
310
00000000000000000000370000006662782F36394639363044362D344446342D343946362D394244322D3234314243333846323333332F617474726962757465732E62696E504B0304140006080800CC70623B08DA0BD19000000041010000360000006662782F36394639363044362D344446342D343946362D394244322D
310
3234314243333846323333332F6469726563746F72792E786D6C858F410AC3201045AF22B36F53E9A60B35CBEEBAE80D244E44489C6234F4F835464A48035D0DF398FF9F8AF63D0E6CC63039F212F8F9020C7D47C6792B21C5FE7403D62A1188E2E60C98D7234A5830286103A55745067B9D86B8A3CF9C7F90C11DE607FB14
310
4396D7B6A82D282E9A152AD114D5EF2CB866EEE831B8EEA07A7BB5A8D7D61A2BAAEB7FD5F70921FF497D00504B0304140006080800CC70623BCA768048FE000000A00100003B0000006662782F36394639363044362D344446342D343946362D394244322D3234314243333846323333332F7265736F75726365732F636F72
310
652E786D6C8D50596E833010BD0A9ADFCA60D600328E9AA639412F609909B1126CE4A5EAF16B0295DABFFECC8CDEA2797AECF8353F924FB44E193D409E5248504B332A3D0D10FC95B4901C39B3C6F85F3248B49871801506CE266BC2B243D2688FDA47549B11775038871E12F988C7004EDE7016A9083E2ADC3D5D84BC8B09
310
D33C8D74D471E6BC8D0192EDC93A815B742658898E651BCB59086ADC356A8C3FD555A1055ED7E7E254D615792D0F075295F585746FF53B694EE78A565DD736979A65AB9933AFE69F8CD2A2F038022F28ED489E135A7CE4554F9BBEA85E68DB53CAB255FEC71496F19FA6A0B42F8B3DEE6673C0F318E4497096AD7DC5F52C33
310
EEB55BFE0D504B010214000A0000080000CC70623B3DEE336E79000000790000001B00000000000000000000000000000000006175746F6465736B2D64657369676E2D7061636B6167652E786D6C504B01021400140006080800CC70623BD486FD9CA0000000F40000001300000000000000000000000000B20000005B436F
310
6E74656E745F54797065735D2E786D6C504B01021400140006080800CC70623BD9DDAED0EC0000007C010000080000000000000000000000000083010000636F72652E786D6C504B01021400140006080800CC70623B55019EA25F0000007C000000070000000000000000000000000095020000636E782E786D6C504B0102
310
1400140006080800CC70623BA24EB22D72010000D40300000C00000000000000000000000000190300006662782F636F72652E786D6C504B01021400140006080800CC70623B408A7D3B7C0000009D0000000B00000000000000000000000000B50400006662782F636E782E786D6C504B01021400140006080800CC70623B
310
449FB9BD290100001202000031000000000000000000000000005A0500006662782F36394639363044362D344446342D343946362D394244322D3234314243333846323333332F636F72652E786D6C504B01021400140006080800CC70623BAD7543B64E010000330300003000000000000000000000000000D20600006662
310
782F36394639363044362D344446342D343946362D394244322D3234314243333846323333332F636E782E786D6C504B01021400140006080800CC70623B8D05915C650500003B10000034000000000000000000000000006E0800006662782F36394639363044362D344446342D343946362D394244322D32343142433338
310
46323333332F6F626A656374732E786D6C504B01021400140006080000CC70623B0000000000000000000000003500000000000000000000000000250E00006662782F36394639363044362D344446342D343946362D394244322D3234314243333846323333332F76657274696365732E62696E504B010214001400060808
310
00CC70623BF270F13306000000040000003600000000000000000000000000780E00006662782F36394639363044362D344446342D343946362D394244322D3234314243333846323333332F747269616E676C65732E62696E504B01021400140006080000CC70623B00000000000000000000000037000000000000000000
310
00000000D20E00006662782F36394639363044362D344446342D343946362D394244322D3234314243333846323333332F617474726962757465732E62696E504B01021400140006080800CC70623B08DA0BD190000000410100003600000000000000000000000000270F00006662782F36394639363044362D344446342D
310
343946362D394244322D3234314243333846323333332F6469726563746F72792E786D6C504B01021400140006080800CC70623BCA768048FE000000A00100003B000000000000000000000000000B1000006662782F36394639363044362D344446342D343946362D394244322D3234314243333846323333332F7265736F
310
75726365732F636F72652E786D6C504B0506000000000E000E0080040000621100000000
  0
XRECORD
  5
176
102
{ACAD_REACTORS
330
173
102
}
330
173
100
AcDbXrecord
280
     1
270
     1
271
     1
  0
XRECORD
  5
177
102
{ACAD_REACTORS
330
173
102
}
330
173
100
AcDbXrecord
280
     1
270
     1
271
     1
  0
CELLSTYLEMAP
  5
4763
102
{ACAD_REACTORS
330
162
102
}
330
162
100
AcDbCellStyleMap
 90
        3
300
CELLSTYLE
  1
TABLEFORMAT_BEGIN
 90
        5
170
     1
 91
        0
 92
    32768
 62
   257
 93
        1
300
CONTENTFORMAT
  1
CONTENTFORMAT_BEGIN
 90
        0
 91
        0
 92
      512
 93
        0
300

 40
0.0
140
1.0
 94
        5
 62
     0
340
11
144
6.0
309
CONTENTFORMAT_END
171
     1
301
MARGIN
  1
CELLMARGIN_BEGIN
 40
1.5
 40
1.5
 40
1.5
 40
1.5
 40
4.5
 40
4.5
309
CELLMARGIN_END
 94
        6
 95
        1
302
GRIDFORMAT
  1
GRIDFORMAT_BEGIN
 90
        0
 91
        1
 62
     0
 92
       -2
340
14
 93
        0
 40
1.125
309
GRIDFORMAT_END
 95
        2
302
GRIDFORMAT
  1
GRIDFORMAT_BEGIN
 90
        0
 91
        1
 62
     0
 92
       -2
340
14
 93
        0
 40
1.125
309
GRIDFORMAT_END
 95
        4
302
GRIDFORMAT
  1
GRIDFORMAT_BEGIN
 90
        0
 91
        1
 62
     0
 92
       -2
340
14
 93
        0
 40
1.125
309
GRIDFORMAT_END
 95
        8
302
GRIDFORMAT
  1
GRIDFORMAT_BEGIN
 90
        0
 91
        1
 62
     0
 92
       -2
340
14
 93
        0
 40
1.125
309
GRIDFORMAT_END
 95
       16
302
GRIDFORMAT
  1
GRIDFORMAT_BEGIN
 90
        0
 91
        1
 62
     0
 92
       -2
340
14
 93
        0
 40
1.125
309
GRIDFORMAT_END
 95
       32
302
GRIDFORMAT
  1
GRIDFORMAT_BEGIN
 90
        0
 91
        1
 62
     0
 92
       -2
340
14
 93
        0
 40
1.125
309
GRIDFORMAT_END
309
TABLEFORMAT_END
  1
CELLSTYLE_BEGIN
 90
        1
 91
        1
300
_TITLE
309
CELLSTYLE_END
300
CELLSTYLE
  1
TABLEFORMAT_BEGIN
 90
        5
170
     1
 91
        0
 92
        0
 62
   257
 93
        1
300
CONTENTFORMAT
  1
CONTENTFORMAT_BEGIN
 90
        0
 91
        0
 92
      512
 93
        0
300

 40
0.0
140
1.0
 94
        5
 62
     0
340
11
144
4.5
309
CONTENTFORMAT_END
171
     1
301
MARGIN
  1
CELLMARGIN_BEGIN
 40
1.5
 40
1.5
 40
1.5
 40
1.5
 40
4.5
 40
4.5
309
CELLMARGIN_END
 94
        6
 95
        1
302
GRIDFORMAT
  1
GRIDFORMAT_BEGIN
 90
        0
 91
        1
 62
     0
 92
       -2
340
14
 93
        0
 40
1.125
309
GRIDFORMAT_END
 95
        2
302
GRIDFORMAT
  1
GRIDFORMAT_BEGIN
 90
        0
 91
        1
 62
     0
 92
       -2
340
14
 93
        0
 40
1.125
309
GRIDFORMAT_END
 95
        4
302
GRIDFORMAT
  1
GRIDFORMAT_BEGIN
 90
        0
 91
        1
 62
     0
 92
       -2
340
14
 93
        0
 40
1.125
309
GRIDFORMAT_END
 95
        8
302
GRIDFORMAT
  1
GRIDFORMAT_BEGIN
 90
        0
 91
        1
 62
     0
 92
       -2
340
14
 93
        0
 40
1.125
309
GRIDFORMAT_END
 95
       16
302
GRIDFORMAT
  1
GRIDFORMAT_BEGIN
 90
        0
 91
        1
 62
     0
 92
       -2
340
14
 93
        0
 40
1.125
309
GRIDFORMAT_END
 95
       32
302
GRIDFORMAT
  1
GRIDFORMAT_BEGIN
 90
        0
 91
        1
 62
     0
 92
       -2
340
14
 93
        0
 40
1.125
309
GRIDFORMAT_END
309
TABLEFORMAT_END
  1
CELLSTYLE_BEGIN
 90
        2
 91
        1
300
_HEADER
309
CELLSTYLE_END
300
CELLSTYLE
  1
TABLEFORMAT_BEGIN
 90
        5
170
     1
 91
        0
 92
        0
 62
   257
 93
        1
300
CONTENTFORMAT
  1
CONTENTFORMAT_BEGIN
 90
        0
 91
        0
 92
      512
 93
        0
300

 40
0.0
140
1.0
 94
        2
 62
     0
340
11
144
4.5
309
CONTENTFORMAT_END
171
     1
301
MARGIN
  1
CELLMARGIN_BEGIN
 40
1.5
 40
1.5
 40
1.5
 40
1.5
 40
4.5
 40
4.5
309
CELLMARGIN_END
 94
        6
 95
        1
302
GRIDFORMAT
  1
GRIDFORMAT_BEGIN
 90
        0
 91
        1
 62
     0
 92
       -2
340
14
 93
        0
 40
1.125
309
GRIDFORMAT_END
 95
        2
302
GRIDFORMAT
  1
GRIDFORMAT_BEGIN
 90
        0
 91
        1
 62
     0
 92
       -2
340
14
 93
        0
 40
1.125
309
GRIDFORMAT_END
 95
        4
302
GRIDFORMAT
  1
GRIDFORMAT_BEGIN
 90
        0
 91
        1
 62
     0
 92
       -2
340
14
 93
        0
 40
1.125
309
GRIDFORMAT_END
 95
        8
302
GRIDFORMAT
  1
GRIDFORMAT_BEGIN
 90
        0
 91
        1
 62
     0
 92
       -2
340
14
 93
        0
 40
1.125
309
GRIDFORMAT_END
 95
       16
302
GRIDFORMAT
  1
GRIDFORMAT_BEGIN
 90
        0
 91
        1
 62
     0
 92
       -2
340
14
 93
        0
 40
1.125
309
GRIDFORMAT_END
 95
       32
302
GRIDFORMAT
  1
GRIDFORMAT_BEGIN
 90
        0
 91
        1
 62
     0
 92
       -2
340
14
 93
        0
 40
1.125
309
GRIDFORMAT_END
309
TABLEFORMAT_END
  1
CELLSTYLE_BEGIN
 90
        3
 91
        2
300
_DATA
309
CELLSTYLE_END
  0
XRECORD
  5
3461
102
{ACAD_REACTORS
330
3460
102
}
330
3460
100
AcDbXrecord
280
     1
330
10D
  0
ENDSEC
  0
SECTION
  2
ACDSDATA
 70
     2
 71
     8
  0
ACDSSCHEMA
 90
        0
  1
AcDb_Thumbnail_Schema
  2
AcDbDs::ID
280
    10
 91
        8
  2
Thumbnail_Data
280
    15
 91
        0
101
ACDSRECORD
 95
        0
 90
        1
  2
AcDbDs::TreatedAsObjectData
280
     1
291
     1
101
ACDSRECORD
 95
        0
 90
        2
  2
AcDbDs::Legacy
280
     1
291
     1
101
ACDSRECORD
  1
AcDbDs::ID
 90
        3
  2
AcDs:Indexable
280
     1
291
     1
101
ACDSRECORD
  1
AcDbDs::ID
 90
        4
  2
AcDbDs::HandleAttribute
280
     7
282
     1
  0
ACDSSCHEMA
 90
        1
  1
AcDbDs::TreatedAsObjectDataSchema
  2
AcDbDs::TreatedAsObjectData
280
     1
 91
        0
  0
ACDSSCHEMA
 90
        2
  1
AcDbDs::LegacySchema
  2
AcDbDs::Legacy
280
     1
 91
        0
  0
ACDSSCHEMA
 90
        3
  1
AcDbDs::IndexedPropertySchema
  2
AcDs:Indexable
280
     1
 91
        0
  0
ACDSSCHEMA
 90
        4
  1
AcDbDs::HandleAttributeSchema
  2
AcDbDs::HandleAttribute
280
     7
 91
        1
284
     1
  0
ACDSRECORD
 90
        0
  2
AcDbDs::ID
280
    10
320
3FD5
  2
Thumbnail_Data
280
    15
 94
     1144
310
89504E470D0A1A0A0000000D49484452000000B40000010008030000002D3FACD700000300504C5445FFFFFFFFFFFFFFFFFF0000000000000000000000000000000000000000000000000000330000660000990000CC0000FF0033000033330033660033990033CC0033FF0066000066330066660066990066CC0066FF0099
310
000099330099660099990099CC0099FF00CC0000CC3300CC6600CC9900CCCC00CCFF00FF0000FF3300FF6600FF9900FFCC00FFFF3300003300333300663300993300CC3300FF3333003333333333663333993333CC3333FF3366003366333366663366993366CC3366FF3399003399333399663399993399CC3399FF33CC00
310
33CC3333CC6633CC9933CCCC33CCFF33FF0033FF3333FF6633FF9933FFCC33FFFF6600006600336600666600996600CC6600FF6633006633336633666633996633CC6633FF6666006666336666666666996666CC6666FF6699006699336699666699996699CC6699FF66CC0066CC3366CC6666CC9966CCCC66CCFF66FF0066
310
FF3366FF6666FF9966FFCC66FFFF9900009900339900669900999900CC9900FF9933009933339933669933999933CC9933FF9966009966339966669966999966CC9966FF9999009999339999669999999999CC9999FF99CC0099CC3399CC6699CC9999CCCC99CCFF99FF0099FF3399FF6699FF9999FFCC99FFFFCC0000CC00
310
33CC0066CC0099CC00CCCC00FFCC3300CC3333CC3366CC3399CC33CCCC33FFCC6600CC6633CC6666CC6699CC66CCCC66FFCC9900CC9933CC9966CC9999CC99CCCC99FFCCCC00CCCC33CCCC66CCCC99CCCCCCCCCCFFCCFF00CCFF33CCFF66CCFF99CCFFCCCCFFFFFF0000FF0033FF0066FF0099FF00CCFF00FFFF3300FF3333
310
FF3366FF3399FF33CCFF33FFFF6600FF6633FF6666FF6699FF66CCFF66FFFF9900FF9933FF9966FF9999FF99CCFF99FFFFCC00FFCC33FFCC66FFCC99FFCCCCFFCCFFFFFF00FFFF33FFFF66FFFF99FFFFCCFFFFFF0000000D0D0D1A1A1A2828283535354343435050505D5D5D6B6B6B787878868686939393A1A1A1AEAEAEBB
310
BBBBC9C9C9D6D6D6E4E4E4F1F1F1FFFFFF000000000000000000000000000000000000000000000000000000000000AD4AB4E40000004D4944415478DAEDC1411100000803A0F58FE9D314E69807640A650B0500000000000000000000000000000000000000000000000000000000000000000000000000000000000000E0
310
932D9429744C0486FF7F0675980000000049454E44AE42608243434343434343434343434343434343434343434343434343434343434343434343434343434343434343434343434343434343434343434343434343434343434343BF43273E32489224493A3703AB0E6C01364F218F16A721650000000049454E44AE4260
310
82000000600401480000000046108004000000600401480000000046108004000000600401480000000046108004000000600401480000000046108004FE04A871E700C52F1EE07D0401480000000046108004000000600401544E60FF6810F89500800530926F01CCF0BB00CE55D5B824ED7A360000000049454E44AE4260
310
82
  0
ACDSRECORD
 90
        0
  2
AcDbDs::ID
280
    10
320
34A0
  2
Thumbnail_Data
280
    15
 94
     2409
310
89504E470D0A1A0A0000000D4948445200000100000000B5080300000087DCD12600000300504C5445FFFFFFFFFFFFFFFFFF0000000000000000000000000000000000000000000000000000330000660000990000CC0000FF0033000033330033660033990033CC0033FF0066000066330066660066990066CC0066FF0099
310
000099330099660099990099CC0099FF00CC0000CC3300CC6600CC9900CCCC00CCFF00FF0000FF3300FF6600FF9900FFCC00FFFF3300003300333300663300993300CC3300FF3333003333333333663333993333CC3333FF3366003366333366663366993366CC3366FF3399003399333399663399993399CC3399FF33CC00
310
33CC3333CC6633CC9933CCCC33CCFF33FF0033FF3333FF6633FF9933FFCC33FFFF6600006600336600666600996600CC6600FF6633006633336633666633996633CC6633FF6666006666336666666666996666CC6666FF6699006699336699666699996699CC6699FF66CC0066CC3366CC6666CC9966CCCC66CCFF66FF0066
310
FF3366FF6666FF9966FFCC66FFFF9900009900339900669900999900CC9900FF9933009933339933669933999933CC9933FF9966009966339966669966999966CC9966FF9999009999339999669999999999CC9999FF99CC0099CC3399CC6699CC9999CCCC99CCFF99FF0099FF3399FF6699FF9999FFCC99FFFFCC0000CC00
310
33CC0066CC0099CC00CCCC00FFCC3300CC3333CC3366CC3399CC33CCCC33FFCC6600CC6633CC6666CC6699CC66CCCC66FFCC9900CC9933CC9966CC9999CC99CCCC99FFCCCC00CCCC33CCCC66CCCC99CCCCCCCCCCFFCCFF00CCFF33CCFF66CCFF99CCFFCCCCFFFFFF0000FF0033FF0066FF0099FF00CCFF00FFFF3300FF3333
310
FF3366FF3399FF33CCFF33FFFF6600FF6633FF6666FF6699FF66CCFF66FFFF9900FF9933FF9966FF9999FF99CCFF99FFFFCC00FFCC33FFCC66FFCC99FFCCCCFFCCFFFFFF00FFFF33FFFF66FFFF99FFFFCCFFFFFF0000000D0D0D1A1A1A2828283535354343435050505D5D5D6B6B6B787878868686939393A1A1A1AEAEAEBB
310
BBBBC9C9C9D6D6D6E4E4E4F1F1F1FFFFFF000000000000000000000000000000000000000000000000000000000000AD4AB4E4000002AE4944415478DAEDDB4BB682300C80E1EE806D64FF0BB893EC8111C781E32EE282BC5A7955010BED9F91C891633E92B47AD43CF30E6B9E26E76800A880E338FB38F0A2675CF3AD02B2
310
07A005CE80BDC9350D0000000000000000F0AB376BD7220B8095976408B050014BB59020C0FC9135F34D910B804DA605641AD63F2A5FE1275E76CF9689B480B8CFEA9FBA87E25780263904D700FC5BDD01947D4C66616E1530591E1204F027820E0FE767E12D01549701D43F29EAA2E97501B6F7ACB3003200C806804CE5AE
310
043034A648516409D0B56F51A76FF701C8024013AAFE84B80C806DDFE0EBE6DB5300C45CB602B4ED80A2783CB68641BF13F46F640DE01E89CB310518AEDF2D851700A8C3F9D066AA6A1DA0BF91320ABA7DDE1E8D27DF00BACF44E3821819A0BE6375DB3BF9AFA4BF08A0DB003202BC7D3A8A0920EDD0EBABB2AA56B35F6C01
310
3F74FE64C731C93F1A40BD47B345BBE2BDF2DF4C7E7908FA8F74E6E4A421A20334E98FC3282CFB5000130260252E80D3F6D606667F6C0544061816A32A3CFBE52F44BE8EA60CE300F46D5F7D78DDD9DBBAE7A96800E6E3E4D302F826FB3300A2B5C08EEF03D298013BBF1091C3CA0080CC019801770448621904E02200CC80
310
1B026848580D0B93EC8FA4EC09D7BC1780CD1CC004FF528CDF0902000000A700F09F215A8016A005680100000000000000000000000000000000000000000000000000000000000000000000000000000000000000000000000000000000000000000000000000004807803F4D510154004310000000000000000000000000
310
0000000000000000000000000000000000000000000000000000000000000000000000000000000000000000000000000000004807807F8DDD3ED652F0D34DB502F6012450012B32012D9072F4003F5F05A880EB54409C7DC0155701F601E9EE03D809EEAA009B79FC03BD5567538983C93C0000000049454E44AE42608245
310
4E44AE4260824E44AE426082BA413F6FA30C7FE57D5CFE1C20D2154E248A0BD0AEBAD17B8253F935CB24C07AE9779C1FF3CFD47D9C5E82BDCCEFC72EF81C941FFB85717D7C4805EC6723A9BD1E38FD808FF55786F96194717ECC3F2C87F8715B05E961D01EF38279BD51BC002F3FA1002A7E2A018325C0CF4F67808C9F4CC0
310
30C4F05309A0E30F098869038645C010E6273240C87FD208FAD2017F044CF07A089CF09318A0E43FCC05B05F8C191630F30F51FC040248F9C3552042400A7FB9015A7E4700ACCB7015A2FA01BB80107FA900627E4F0400C902E63A10C95F68809ADF5B0580A33191600444F0170920E73F6803ACF3C1830254027F89017AFE
310
F346303502E2F8F30D30F09F1E0691D20826F0E70AE0E027129010FFF90658F8090524F06709E0E13F1180340129FC390698F84F86C5B7FBD4446483A9FCE906B8F8CF0468B1101490CA9F2A808D3F5DC0DB2720993FD1001F7FF09B21E50C8A7A0464F0270960E4271190C39F6280933FD008FABE177004E4F1C71B60E5CF
310
BC74F643C01F2B8097BF5C40367FA40166FE620105FC5102B8F94B0594F0C71860E72F1450C61F16C0CF5F26A0903F684080BF4840317FC080047F890002FE3301A3087F81000AFE1303A312E1CF1740C37F28408A3F5B0011FF910131FE5C0164FC7E0372FC990208F97D0204F94BAA00D506E24AFE822A40B681B8923FBF
310
0A106E202EE42F3A0CB21810E62F6A03380448F397B4011C06C4F90BDA000E01F2FC04638284062EE0AF45C0BCFE2BF86B1270097F350214AEE1AF47C045FCD50818FFB6E00AFE5A048CDF3A20CF5F898039FE71057F1D02AEAAFFB50858F9F15001FBFEC7AD04AC97B725C4FFCD04C42D6AD47FDC50406059ABFDC3D304D8
310
ED7F3393AF7F6804B8C73F342240851BB708019EE37F3302C241F0092EE8EDFFA01901EA1328A1E5C6ED12F0B8EBC7C36B1216C0541A9F7CBD39035D407D022AB8935417F02003550AB8FE868A5D405D063C9368F9142169B22DB42660BDBD9939D7983EC19A3601FB06E5B9298A39475BA5029431C5BC06BDCD33670B50DA
310
0DB0BE4FD679C9CD7971F685EA1660458036C19A3E9DB83EC793D267E05B679F770468F4ED08D027585B021BCE5DBE60F2BBB70133EB51ED6DC0E38F025DC035021E5934018F2D5D4017D00574015D4017D00574015D4017D0053C58C0BF0717FD36C24F2DFF03A677A7AAA6635E8F0000000049454E44AE426082
  0
ACDSRECORD
 90
        0
  2
AcDbDs::ID
280
    10
320
22
  2
Thumbnail_Data
280
    15
 94
     2410
310
89504E470D0A1A0A0000000D49484452000001000000009E0803000000EAB724D300000300504C5445000000FFFFFF0000000000000000000000000000000000000000000000000000000000330000660000990000CC0000FF0033000033330033660033990033CC0033FF0066000066330066660066990066CC0066FF0099
310
000099330099660099990099CC0099FF00CC0000CC3300CC6600CC9900CCCC00CCFF00FF0000FF3300FF6600FF9900FFCC00FFFF3300003300333300663300993300CC3300FF3333003333333333663333993333CC3333FF3366003366333366663366993366CC3366FF3399003399333399663399993399CC3399FF33CC00
310
33CC3333CC6633CC9933CCCC33CCFF33FF0033FF3333FF6633FF9933FFCC33FFFF6600006600336600666600996600CC6600FF6633006633336633666633996633CC6633FF6666006666336666666666996666CC6666FF6699006699336699666699996699CC6699FF66CC0066CC3366CC6666CC9966CCCC66CCFF66FF0066
310
FF3366FF6666FF9966FFCC66FFFF9900009900339900669900999900CC9900FF9933009933339933669933999933CC9933FF9966009966339966669966999966CC9966FF9999009999339999669999999999CC9999FF99CC0099CC3399CC6699CC9999CCCC99CCFF99FF0099FF3399FF6699FF9999FFCC99FFFFCC0000CC00
310
33CC0066CC0099CC00CCCC00FFCC3300CC3333CC3366CC3399CC33CCCC33FFCC6600CC6633CC6666CC6699CC66CCCC66FFCC9900CC9933CC9966CC9999CC99CCCC99FFCCCC00CCCC33CCCC66CCCC99CCCCCCCCCCFFCCFF00CCFF33CCFF66CCFF99CCFFCCCCFFFFFF0000FF0033FF0066FF0099FF00CCFF00FFFF3300FF3333
310
FF3366FF3399FF33CCFF33FFFF6600FF6633FF6666FF6699FF66CCFF66FFFF9900FF9933FF9966FF9999FF99CCFF99FFFFCC00FFCC33FFCC66FFCC99FFCCCCFFCCFFFFFF00FFFF33FFFF66FFFF99FFFFCCFFFFFF0000000D0D0D1A1A1A2828283535354343435050505D5D5D6B6B6B787878868686939393A1A1A1AEAEAEBB
310
BBBBC9C9C9D6D6D6E4E4E4F1F1F1FFFFFF0000000000000000000000000000000000000000000000000000000000003AE5ACE90000023C4944415478DAEDDA417A83201086616EC035B8FF01B2993B74C511D8665F2924A2412DC636237EFFA2A13E4F13F2328C36D118420821841042082184101273EF306D00C7F01DF22C
310
6F4E66DF5BA2023E80AE6A3200000000000000F017AF1916721D80FAF89200B50AA81544BF00AF87437F15E06609C5F06B4C287EF6B705DC78486EE3D89515203DF7800580AFB202641C9BD939A1DF0A287786E441A5139C1E40A40E501E77325ACDB7836680D004E0128073EB00721E8074CE1E0AD7DA6300DCD900E294ED
310
90D5137813C01091A239E805909F02486BBF70299FAF03CA3724B7622C637F7C00249830B92ED20A10E769F34EF07E1120AFF46CD55D3EEE260D31FD2621EDAD4759A90470626D5E273FBCFF952BC15D009316AB0F206EFB5CF7DEFBCD4BE1C99E76E516783934B92A0C2A9B60AC4D9B06EBEFBEDE049FADBEAC86D9F5523E
310
1E9C468067E12FEDFBE3008C535A01A9F0C3CEFF061B137BA12A80B8F0DB4B3F6D82B5D57F3E9AAD476D00BEF159DE05D05601ED1F885C1EA0B31EF0D6E701BBAAE0EA006C81AB3741C359802D706E00594D90AD98CEBF1E0F9A26F391D7FCC537E4DC2001000000FC3B00F70A530154004D10000000000000000000000000
310
0000000000000000000000000000000000000000000000000000000000000000000000000000801E01B857980AA0026882000000000000000000000000000000000000000000000000000000000000000000000000000000000000000000000000000000F408C0BDC2DA736F9D787715D03CF1FA1F7C034FE8DA476335B0BC
310
0000000049454E44AE426082608244AE426082DF7BEDAD1921405DA05F0F1AC05AC08FE33761D756C90911FCF3010E80D786720D402E0050A201904B059332C1F70194E907CB8C06B75E406F18819AA6C4CA5592AA1240B12931385CA02200E586C3A05C00FB9E293100C089017C01609DD11103AA01703C7E1600B03160AC
310
A8250098916464B180AEEBCC7070C0E32E44BD458F2774DB2DEF633CFA1D0A5492DA6380791AC4034AEAF70388D35FA092D41E033A0280A2FABD0022F5E701003706502CA0AC7E1F8058FD594110CE31407580C480C2FA3D00A2F5E700385592312E70EB545D183A47B4724E90CE07114E7806B0A5A2D895CBB8C0B992CED8
310
ABDE0530FCAE3900C001907689640070D60FA32110BA5C8A7722272C36D765D97F3A00384F482CBD80B181C0E57EA0FF0220497F620CB8E957A399187E26E07D3AC8D3AF630064EA4F0370D7AF0184083C3C5DA6C1B80012F5271752BAE85F01A88500C4C8813C87E90E02A9FA530B295DF51B002B016F7B7A3AC80A180780
310
64FD8985949C4525FB7D0A767DC8AFBFFF56CB890197428AFB37306C2B645F935A1CC055BF2DAC3856D512AAC8CC5EFDC70EE1D31C2BBE6B78732228F17554A5960929003C85445D90B0FB050A002C3C45DC631D1C30FD7A47AA5B48E93A3E736F73FF0441E8B1D627CF0500D8ED0A0178D2AF3C1E4020B077A440DD611C9E
310
927B05C063215DA743043200A72C6D0600C06DA0980B840A09839B1F91728FA32C4B8E0B10F41703102CA47C7CEA1A68004E0C921F9C54DCB77010C4BE691EA2F4873CE043FA6D050952AF0D51FA03043EA41FAB2475ED96835AAE594B328017F5AF1524A8595B58CB3D6B4B8C016FEAB7419078AF90164FD61A516DE7BFF4
310
47E7E6716FE6E7EBACFC03B106401680EFB43F3FC715F144FCFEE00000000049454E44AE4260825E594B0CF1DC9CA29B1E725522E68053BFE42600591F0BCDB0260028AD7AA05F720B005CAEC65841CE0E0C0B9656FD7CAC7B00A093036A2DEA4BA908F893FE9F57CE72BBFEA40BFCADFEA70CEF4AE2EF0100C81A408E4007
310
C081007B00DCADE47F326F1300320700D0017007F02BF61F5CE932BBDF126E5C0000000049454E44AE42608274D30FD5E40E00F95536E355033B8B97C0FC0EC01D00E0D4806A00C193493403F23B403700C03AA162BD2227930200F776003CFD801BFDC7CF83FFD1FF7342AA23408D0BF79CC51A22C0003A20D03D007AFE73
310
626F0A810E00A07300DDA7000360B1582C168BC562B1582C168BC562B1582C168BC57A5CFF0033CABB49EA584FF10000000049454E44AE4260825D47C80488B61028BE272A75AFE27417D20F720540744A153CC82B1F3ABD5EFCA3419426996F79CB5BDED254FE017A14838B8A5389C40000000049454E44AE426082
  0
ENDSEC
  0
EOF
